osu file format v12

[General]
AudioFilename: VOICE.mp3
AudioLeadIn: 0
PreviewTime: 49705
Countdown: 0
SampleSet: Soft
StackLeniency: 0.7
Mode: 0
LetterboxInBreaks: 0
WidescreenStoryboard: 0

[Editor]
DistanceSpacing: 1.2
BeatDivisor: 4
GridSize: 8
TimelineZoom: 1

[Metadata]
Title:VOICE (TV Size)
TitleUnicode:VOICE (TV Size)
Artist:ZAQ
ArtistUnicode:ZAQ
Creator:wcx19911123
Version:VOICE (Extra)
Source:中二病でも恋がしたい!戀
Tags:Kodora Fycho Chu-2 byo demo KOI ga shitai! REN
BeatmapID:345518
BeatmapSetID:138330

[Difficulty]
HPDrainRate:6
CircleSize:4
OverallDifficulty:8
ApproachRate:9
SliderMultiplier:1.92
SliderTickRate:1

[Events]
//Background and Video events
Video,100,"movie.avi"
0,0,"BG.jpg",0,0
//Break Periods
//Storyboard Layer 0 (Background)
//Storyboard Layer 1 (Fail)
//Storyboard Layer 2 (Pass)
//Storyboard Layer 3 (Foreground)
//Storyboard Sound Samples
//Background Colour Transformations
3,100,163,162,255

[TimingPoints]
-593,326.086956521739,4,2,1,50,1,0
-593,-133.333333333333,4,2,1,50,0,0
3320,-133.333333333333,4,2,4,50,0,0
3483,-133.333333333333,4,2,1,60,0,0
4461,-100,4,2,1,80,0,0
5928,-100,4,2,1,30,0,0
6254,-100,4,2,1,80,0,0
6417,-100,4,2,1,40,0,0
6743,-100,4,2,1,80,0,0
6906,-100,4,2,1,60,0,0
7233,-100,4,2,1,80,0,0
7396,-100,4,2,1,70,0,0
7722,-100,4,2,1,80,0,0
8537,-100,4,2,1,90,0,0
13591,-100,4,2,1,50,0,0
13754,-100,4,2,1,90,0,0
16526,-100,4,2,1,70,0,0
16689,-100,4,2,1,90,0,0
17178,-100,4,2,1,50,0,0
17341,-100,4,2,1,90,0,0
18320,-100,4,2,1,50,0,0
18401,-100,4,2,1,90,0,0
18564,-100,4,2,1,40,0,0
18646,-100,4,2,1,90,0,0
18727,-100,4,2,1,40,0,0
18809,-100,4,2,1,90,0,0
18890,-100,4,2,1,40,0,0
18972,-100,4,2,1,90,0,0
20765,-100,4,2,1,50,0,0
21580,-133.333333333333,4,2,1,70,0,0
22396,-133.333333333333,4,2,1,50,0,0
22722,-133.333333333333,4,2,1,70,0,0
23048,-133.333333333333,4,2,1,50,0,0
23211,-133.333333333333,4,2,1,70,0,0
23537,-133.333333333333,4,2,1,40,0,0
23863,-133.333333333333,4,2,1,70,0,0
24352,-133.333333333333,4,2,1,50,0,0
24515,-133.333333333333,4,2,1,70,0,0
26064,-133.333333333333,4,2,1,50,0,0
26146,-133.333333333333,4,2,1,70,0,0
27613,-133.333333333333,4,2,1,50,0,0
27776,-133.333333333333,4,2,1,70,0,0
28917,-133.333333333333,4,2,1,50,0,0
29080,-133.333333333333,4,2,1,70,0,0
30059,-133.333333333333,4,2,1,60,0,0
30222,-133.333333333333,4,2,1,70,0,0
31200,-133.333333333333,4,2,1,40,0,0
31363,-133.333333333333,4,2,1,70,0,0
31526,-133.333333333333,4,2,1,30,0,0
31689,-133.333333333333,4,2,1,60,0,0
32015,-133.333333333333,4,2,1,70,0,0
33646,-133.333333333333,4,2,1,60,0,0
33972,-133.333333333333,4,2,1,70,0,0
34135,-133.333333333333,4,2,1,60,0,0
34461,-133.333333333333,4,2,1,70,0,0
34624,-133.333333333333,4,2,1,80,0,0
36906,-100,4,2,1,50,0,0
37233,-100,4,2,1,85,0,0
45629,-100,4,2,1,70,0,0
45711,-100,4,2,1,85,0,0
46363,-100,4,2,1,70,0,0
46526,-100,4,2,1,85,0,0
46689,-100,4,2,1,70,0,0
47341,-100,4,2,1,40,0,0
47667,-111.111111111111,4,2,1,60,0,0
47993,-125,4,2,1,60,0,0
48320,-142.857142857143,4,2,1,60,0,0
48646,-166.666666666667,4,2,1,60,0,0
48972,-200,4,2,1,60,0,0
49298,-200,4,2,1,5,0,0
50195,-200,4,2,1,60,0,0
50276,-100,4,2,1,85,0,0
52070,-100,4,2,1,60,0,0
52233,-100,4,2,1,70,0,0
52396,-100,4,2,1,60,0,0
52559,-100,4,2,1,70,0,0
52722,-100,4,2,1,60,0,0
52885,-100,4,2,1,100,0,1
53863,-100,4,2,2,90,0,1
53945,-100,4,2,1,100,0,1
56309,-100,4,2,1,70,0,1
56472,-100,4,2,1,100,0,1
57613,-100,4,2,1,70,0,1
57776,-100,4,2,1,100,0,1
59977,-100,4,2,2,60,0,1
60059,-100,4,2,1,100,0,1
61526,-100,4,2,1,70,0,1
61689,-100,4,2,1,80,0,1
61852,-100,4,2,1,90,0,1
62015,-100,4,2,1,100,0,1
62993,-100,4,2,1,60,0,1
63320,-100,4,2,1,100,0,0
70330,-100,4,2,1,60,0,0
70656,-100,4,2,1,100,0,0
71472,-100,4,2,1,100,0,1
72124,-100,4,2,2,90,0,1
72205,-100,4,2,1,100,0,1
78972,-100,4,2,1,80,0,1
81091,-100,4,2,1,60,0,1
81580,-100,4,2,1,100,0,1
85493,-100,4,2,1,90,0,1
86146,-100,4,2,1,70,0,1
86798,-100,4,2,1,100,0,0
87287,-100,4,2,1,85,0,0
87776,-100,4,2,1,70,0,0
88347,-100,4,2,1,5,0,0

[Colours]
Combo1 : 255,11,11
Combo2 : 255,51,189
Combo3 : 55,160,255
Combo4 : 255,244,47

[HitObjects]
248,272,629,6,0,P|264:264|280:248,1,36.0000013732911,0|2,0:0|0:0,0:0:0:0:
288,232,1037,5,0,0:0:0:0:
340,32,1200,1,0,0:0:0:0:
256,48,1363,1,0,0:0:0:0:
208,120,1526,1,0,0:0:0:0:
216,208,1689,1,0,0:0:0:0:
280,264,1852,2,0,P|304:272|328:272,1,36.0000013732911
336,272,2015,1,2,0:0:0:0:
356,268,2504,5,0,0:0:0:0:
280,344,2667,2,0,P|240:352|216:344,3,36.0000013732911,2|0|0|0,0:0|0:0|0:0|0:0,0:0:0:0:
184,288,2993,2,0,P|144:272|120:272,3,36.0000013732911,2|0|0|0,0:0|0:0|0:0|0:0,0:0:0:0:
64,288,3320,5,8,0:0:0:0:
72,200,3483,1,0,0:0:0:0:
80,112,3646,1,2,0:0:0:0:
144,248,3809,1,0,0:0:0:0:
200,184,3972,1,0,0:0:0:0:
256,120,4135,1,2,0:0:0:0:
224,264,4298,1,8,0:0:0:0:
224,264,4379,1,8,0:0:0:0:
288,296,4461,6,0,B|336:312|336:312|432:280,1,144,4|0,0:0|0:0,0:0:0:0:
472,232,4787,1,2,0:0:0:0:
352,160,4950,1,0,0:0:0:0:
392,32,5113,1,8,0:0:0:0:
392,232,5276,1,2,0:0:0:0:
200,184,5439,1,8,0:0:0:0:
416,104,5602,1,2,0:0:0:0:
352,352,5765,6,0,P|312:376|248:376,1,96,12|8,0:0|0:0,0:0:0:0:
152,328,6091,1,8,0:0:0:0:
272,144,6254,1,12,0:0:0:0:
184,56,6417,1,8,0:0:0:0:
168,48,6499,1,8,0:0:0:0:
152,40,6580,1,8,0:0:0:0:
240,216,6743,1,12,0:0:0:0:
112,160,6906,1,8,0:0:0:0:
88,168,6988,1,8,0:0:0:0:
64,176,7070,1,8,0:0:0:0:
288,272,7233,5,12,0:0:0:0:
144,288,7396,1,8,0:0:0:0:
128,320,7477,1,8,0:0:0:0:
112,352,7559,1,8,0:0:0:0:
360,256,7722,1,12,0:0:0:0:
304,104,7885,1,8,0:0:0:0:
332,65,7966,1,8,0:0:0:0:
376,45,8048,1,8,0:0:0:0:
423,51,8129,1,8,0:0:0:0:
462,78,8211,2,0,L|488:120,1,48,8|8,0:0|0:0,0:0:0:0:
384,296,8374,2,0,L|358:254,1,48,8|8,0:0|0:0,0:0:0:0:
216,96,8537,6,0,P|168:88|112:104,1,96,4|0,0:0|0:0,0:0:0:0:
32,240,8863,1,8,0:0:0:0:
248,344,9026,1,0,0:0:0:0:
248,344,9108,1,0,0:0:0:0:
248,344,9189,2,0,P|240:288|248:248,1,96,2|0,0:0|0:0,0:0:0:0:
384,128,9515,1,8,0:0:0:0:
240,32,9678,1,0,0:0:0:0:
320,224,9841,5,2,0:0:0:0:
136,144,10004,2,0,P|88:152|48:184,1,96,0|8,0:0|0:0,0:0:0:0:
96,360,10330,1,0,0:0:0:0:
256,168,10493,2,0,P|296:144|352:144,1,96,2|0,0:0|0:0,0:0:0:0:
440,200,10738,1,0,0:0:0:0:
440,200,10820,2,0,L|432:304,1,96,8|0,0:0|0:0,0:0:0:0:
176,368,11146,2,0,L|184:264,1,96,2|0,0:0|0:0,0:0:0:0:
192,32,11472,6,0,L|152:64,1,48,8|0,0:0|0:0,0:0:0:0:
88,128,11635,2,0,L|136:144,1,48
232,224,11798,2,0,L|184:208,1,48,2|0,0:0|0:0,0:0:0:0:
200,40,11961,6,0,L|160:72,1,48,8|0,0:0|0:0,0:0:0:0:
80,136,12124,2,0,L|128:152,1,48
240,232,12287,2,0,L|192:216,1,48,2|0,0:0|0:0,0:0:0:0:
208,48,12450,6,0,L|168:80,1,48,8|0,0:0|0:0,0:0:0:0:
72,144,12613,2,0,L|120:160,1,48
248,240,12776,2,0,L|200:224,1,48,2|0,0:0|0:0,0:0:0:0:
216,56,12939,6,0,L|176:88,1,48,8|0,0:0|0:0,0:0:0:0:
64,152,13102,2,0,L|112:168,1,48
256,248,13265,2,0,L|208:232,1,48,2|0,0:0|0:0,0:0:0:0:
224,64,13428,5,8,0:0:0:0:
232,72,13591,1,8,0:0:0:0:
120,304,13754,5,4,0:0:0:0:
296,176,13917,2,0,P|352:168|400:192,1,96,0|8,0:0|0:0,0:0:0:0:
160,128,14243,1,0,0:0:0:0:
160,128,14325,1,0,0:0:0:0:
160,128,14406,2,0,P|96:144|72:176,1,96,2|0,0:0|0:0,0:0:0:0:
304,64,14733,1,8,0:0:0:0:
376,256,14896,1,0,0:0:0:0:
256,144,15059,5,2,0:0:0:0:
480,136,15222,1,0,0:0:0:0:
432,320,15385,2,0,P|368:344|328:328,1,96,8|0,0:0|0:0,0:0:0:0:
192,224,15711,1,8,0:0:0:0:
72,336,15874,1,0,0:0:0:0:
96,80,16037,1,8,0:0:0:0:
272,192,16200,5,0,0:0:0:0:
272,192,16281,1,0,0:0:0:0:
272,192,16363,2,0,P|288:240|288:288,1,96,4|8,0:0|0:0,0:0:0:0:
56,192,16689,2,0,P|112:160|152:160,1,96,8|0,0:0|0:0,0:0:0:0:
416,224,17015,1,4,0:0:0:0:
328,80,17178,1,8,0:0:0:0:
328,80,17260,1,8,0:0:0:0:
328,80,17341,2,0,P|288:48|232:48,1,96,8|0,0:0|0:0,0:0:0:0:
48,288,17667,5,4,0:0:0:0:
200,168,17830,1,0,0:0:0:0:
304,328,17993,2,0,P|344:360|408:352,1,96,8|8,0:0|0:0,0:0:0:0:
464,48,18320,2,0,L|448:96,1,48,12|0,0:0|0:0,0:0:0:0:
304,216,18483,2,0,L|320:168,1,48,8|8,0:0|0:0,0:0:0:0:
304,56,18646,2,0,L|352:72,1,48,8|8,0:0|0:0,0:0:0:0:
464,208,18809,2,0,L|416:192,1,48,8|8,0:0|0:0,0:0:0:0:
256,120,18972,5,6,0:0:0:0:
176,80,19461,5,0,0:0:0:0:
96,40,19950,5,0,0:0:0:0:
128,248,20276,6,0,B|120:224|120:224|144:200|128:184|128:184|144:152,1,96,2|0,0:0|0:0,0:0:0:0:
176,80,20602,1,0,0:0:0:0:
384,88,20765,1,8,0:0:0:0:
368,133,20847,1,8,0:0:0:0:
327,158,20928,1,8,0:0:0:0:
280,169,21010,1,8,0:0:0:0:
235,151,21091,1,8,0:0:0:0:
224,336,21254,1,8,0:0:0:0:
267,315,21336,1,8,0:0:0:0:
288,272,21417,1,8,0:0:0:0:
104,160,21580,6,0,P|56:192|40:248,1,108.000004119873,4|0,0:0|0:0,0:0:0:0:
56,320,21906,1,8,0:0:0:0:
288,72,22070,2,0,L|328:216,2,144.000005493164,2|8|8,0:0|0:0|0:0,0:0:0:0:
272,64,23048,5,8,0:0:0:0:
408,152,23211,1,8,0:0:0:0:
200,144,23374,1,2,0:0:0:0:
216,184,23455,1,0,0:0:0:0:
232,224,23537,1,8,0:0:0:0:
288,360,23700,1,8,0:0:0:0:
72,256,23863,2,0,P|136:240|168:248,1,72.0000027465821,8|0,0:0|0:0,0:0:0:0:
352,296,24189,5,0,0:0:0:0:
408,40,24352,1,8,0:0:0:0:
408,40,24515,1,8,0:0:0:0:
488,152,24678,2,0,L|472:200,1,36.0000013732911
408,40,24841,2,0,P|344:24|296:40,1,108.000004119873,2|0,0:0|0:0,0:0:0:0:
120,72,25167,2,0,L|192:96,1,72.0000027465821,8|0,0:0|0:0,0:0:0:0:
200,104,25656,5,0,0:0:0:0:
64,216,25820,1,8,0:0:0:0:
200,216,25983,1,0,0:0:0:0:
232,240,26064,1,8,0:0:0:0:
264,264,26146,1,0,0:0:0:0:
208,112,26309,1,0,0:0:0:0:
200,328,26472,2,0,P|240:352|288:344,1,72.0000027465821,8|0,0:0|0:0,0:0:0:0:
488,104,26798,6,0,P|448:64|392:56,1,108.000004119873,4|0,0:0|0:0,0:0:0:0:
320,192,27124,2,0,L|344:112,2,72.0000027465821,8|0|0,0:0|0:0|0:0,0:0:0:0:
400,320,27613,1,8,0:0:0:0:
184,152,27776,1,8,0:0:0:0:
200,352,27939,2,0,L|224:272,2,72.0000027465821,0|2|0,0:0|0:0|0:0,0:0:0:0:
8,224,28428,5,8,0:0:0:0:
144,48,28591,1,0,0:0:0:0:
144,48,28673,1,0,0:0:0:0:
144,48,28754,2,0,P|192:40|240:56,1,72.0000027465821,0|8,0:0|0:0,0:0:0:0:
336,240,29080,2,0,L|360:160,2,72.0000027465821,8|0|2,0:0|0:0|0:0,0:0:0:0:
480,48,29570,5,8,0:0:0:0:
480,48,29733,2,0,P|440:64|400:56,1,72.0000027465821,8|0,0:0|0:0,0:0:0:0:
144,208,30059,2,0,P|176:176|232:176,1,72.0000027465821,8|0,0:0|0:0,0:0:0:0:
288,304,30303,1,0,0:0:0:0:
288,304,30385,2,0,P|240:288|224:264,1,72.0000027465821,8|0,0:0|0:0,0:0:0:0:
224,256,30874,5,0,0:0:0:0:
32,184,31037,1,8,0:0:0:0:
208,144,31200,2,0,L|200:96,1,36.0000013732911,8|8,0:0|0:0,0:0:0:0:
184,24,31363,1,8,0:0:0:0:
320,176,31526,2,0,L|312:128,1,36.0000013732911,8|8,0:0|0:0,0:0:0:0:
296,56,31689,1,8,0:0:0:0:
296,56,31852,1,8,0:0:0:0:
464,288,32015,6,0,P|416:320|368:320,1,108.000004119873,4|0,0:0|0:0,0:0:0:0:
296,280,32341,1,8,0:0:0:0:
48,272,32504,2,0,L|144:248,1,72.0000027465821,0|0,0:0|0:0,0:0:0:0:
384,192,32830,1,0,0:0:0:0:
184,96,32993,1,8,0:0:0:0:
472,40,33156,6,0,P|488:88|472:144,1,108.000004119873,2|0,0:0|0:0,0:0:0:0:
408,200,33483,1,0,0:0:0:0:
248,48,33646,1,8,0:0:0:0:
248,48,33809,1,8,0:0:0:0:
208,240,33972,1,0,0:0:0:0:
256,56,34135,1,8,0:0:0:0:
256,56,34298,1,8,0:0:0:0:
216,248,34461,1,0,0:0:0:0:
72,104,34624,5,4,0:0:0:0:
232,144,34787,2,0,P|272:168|296:200,1,72.0000027465821,8|0,0:0|0:0,0:0:0:0:
48,248,35113,1,4,0:0:0:0:
280,120,35276,2,0,P|320:112|360:120,1,72.0000027465821,8|0,0:0|0:0,0:0:0:0:
176,344,35602,1,0,0:0:0:0:
312,80,35765,2,0,P|344:64|384:64,1,72.0000027465821,8|4,0:0|0:0,0:0:0:0:
488,304,36091,6,0,P|432:344|376:344,1,108.000004119873,8|0,0:0|0:0,0:0:0:0:
312,312,36417,1,8,0:0:0:0:
384,144,36580,2,0,P|400:176|400:232,1,72.0000027465821,2|8,0:0|0:0,0:0:0:0:
152,248,36906,2,0,L|144:200,1,48,8|8,0:0|0:0,0:0:0:0:
168,104,37070,2,0,L|160:56,1,48,8|8,0:0|0:0,0:0:0:0:
56,296,37233,6,0,P|88:336|144:352,1,96,4|0,0:0|0:0,0:0:0:0:
296,104,37559,2,0,P|336:56|400:48,1,96,8|0,0:0|0:0,0:0:0:0:
472,184,37803,1,0,0:0:0:0:
472,184,37885,2,0,P|432:232|368:240,1,96,2|0,0:0|0:0,0:0:0:0:
232,40,38211,1,8,0:0:0:0:
48,224,38374,6,0,P|96:256|184:248,1,144,2|0,0:0|0:0,0:0:0:0:
248,136,38700,2,0,L|240:80,1,48
88,56,38863,2,0,P|72:104|80:152,1,96,8|0,0:0|0:0,0:0:0:0:
184,328,39189,1,0,0:0:0:0:
424,232,39352,1,0,0:0:0:0:
248,192,39515,1,8,0:0:0:0:
336,376,39678,1,0,0:0:0:0:
352,120,39841,6,0,P|376:64|424:32,1,96,2|0,0:0|0:0,0:0:0:0:
240,272,40330,2,0,P|256:208|224:128,1,144,8|0,0:0|0:0,0:0:0:0:
144,96,40656,2,0,L|96:88,1,48
256,40,40820,2,0,L|304:48,1,48,8|0,0:0|0:0,0:0:0:0:
456,136,40983,2,0,P|432:192|384:216,1,96,2|0,0:0|0:0,0:0:0:0:
216,208,41309,5,0,0:0:0:0:
376,320,41472,1,8,0:0:0:0:
272,120,41635,2,0,P|224:104|168:120,1,96,2|0,0:0|0:0,0:0:0:0:
56,328,41961,1,0,0:0:0:0:
272,296,42124,2,0,P|312:256|320:208,1,96,8|0,0:0|0:0,0:0:0:0:
416,128,42368,5,0,0:0:0:0:
416,128,42450,2,0,P|392:72|400:24,1,96,2|0,0:0|0:0,0:0:0:0:
112,112,42776,1,8,0:0:0:0:
304,72,42939,1,0,0:0:0:0:
200,232,43102,1,0,0:0:0:0:
32,120,43265,1,0,0:0:0:0:
232,40,43428,1,8,0:0:0:0:
272,296,43591,6,0,P|216:328|136:304,1,144,2|0,0:0|0:0,0:0:0:0:
72,184,43917,2,0,L|72:240,1,48
160,88,44080,2,0,P|112:56|48:64,1,96,8|0,0:0|0:0,0:0:0:0:
0,272,44406,1,2,0:0:0:0:
152,184,44570,1,0,0:0:0:0:
232,360,44733,1,8,0:0:0:0:
240,128,44896,6,0,B|272:88|320:96|320:96|336:120|368:128,1,144,2|0,0:0|0:0,0:0:0:0:
472,216,45222,1,0,0:0:0:0:
384,48,45385,1,8,0:0:0:0:
296,200,45548,1,0,0:0:0:0:
288,240,45629,1,8,0:0:0:0:
280,280,45711,1,0,0:0:0:0:
80,136,45874,2,0,P|144:168|168:216,1,96,0|8,0:0|0:0,0:0:0:0:
184,320,46200,1,0,0:0:0:0:
312,88,46363,6,0,P|360:112|384:152,1,96,8|0,0:0|0:0,0:0:0:0:
416,336,46689,1,8,0:0:0:0:
192,232,46852,1,8,0:0:0:0:
408,256,47015,1,8,0:0:0:0:
256,376,47178,1,8,0:0:0:0:
256,160,47341,1,8,0:0:0:0:
256,128,47423,1,8,0:0:0:0:
256,96,47504,1,8,0:0:0:0:
256,64,47586,1,8,0:0:0:0:
256,32,47667,6,0,P|208:8|168:16,1,86.3999973632813
352,136,47993,2,0,P|368:128|432:128,1,76.8
160,200,48320,2,0,P|128:192|88:200,1,67.1999979492188
320,272,48646,2,0,P|352:280|376:296,1,57.5999982421876
256,352,48972,6,0,B|200:304|200:192|256:192|312:192|312:72|256:32,1,360
168,16,50276,5,8,0:0:0:0:
384,192,50439,1,8,0:0:0:0:
160,184,50602,1,8,0:0:0:0:
360,16,50765,1,8,0:0:0:0:
112,112,51254,5,8,0:0:0:0:
344,328,51417,1,8,0:0:0:0:
96,304,51580,1,8,0:0:0:0:
384,112,51743,1,8,0:0:0:0:
224,136,52070,5,8,0:0:0:0:
224,136,52151,1,8,0:0:0:0:
224,136,52233,1,8,0:0:0:0:
24,288,52396,1,8,0:0:0:0:
112,80,52559,1,8,0:0:0:0:
240,320,52722,1,8,0:0:0:0:
312,56,52885,6,0,P|344:32|424:32,1,96,4|0,0:0|0:0,0:0:0:0:
480,288,53211,1,8,0:0:0:0:
312,160,53374,1,0,0:0:0:0:
88,344,53537,2,0,P|144:320|176:280,1,96,2|0,0:0|0:0,0:0:0:0:
72,112,53781,2,0,P|72:176|96:216,1,96,2|0,0:0|0:0,0:0:0:0:
248,128,54026,2,0,L|200:136,1,48,2|0,0:0|0:0,0:0:0:0:
240,320,54189,6,0,P|296:320|344:296,1,96
400,128,54515,1,8,0:0:0:0:
144,40,54678,2,0,P|216:40|256:64,1,96,2|0,0:0|0:0,0:0:0:0:
352,224,55004,1,0,0:0:0:0:
80,240,55167,2,0,P|48:280|40:328,1,96,8|0,0:0|0:0,0:0:0:0:
200,96,55493,5,4,0:0:0:0:
312,288,55656,1,0,0:0:0:0:
128,160,55820,1,10,0:0:0:0:
344,64,55983,1,4,0:0:0:0:
360,72,56309,5,8,0:0:0:0:
240,256,56472,1,8,0:0:0:0:
88,128,56635,2,0,L|48:96,1,48,6|0,0:0|0:0,0:0:0:0:
184,8,56798,6,0,P|240:16|272:48,1,96,2|0,0:0|0:0,0:0:0:0:
304,216,57124,1,8,0:0:0:0:
112,232,57287,1,0,0:0:0:0:
312,128,57450,1,2,0:0:0:0:
368,336,57613,1,8,0:0:0:0:
368,336,57695,1,8,0:0:0:0:
368,336,57776,1,8,0:0:0:0:
208,168,57939,1,0,0:0:0:0:
32,336,58102,6,0,P|24:288|48:216,1,96,4|0,0:0|0:0,0:0:0:0:
160,80,58428,1,8,0:0:0:0:
256,264,58591,1,0,0:0:0:0:
424,120,58754,2,0,P|400:56|368:32,1,96,2|0,0:0|0:0,0:0:0:0:
232,136,58999,1,0,0:0:0:0:
232,136,59080,2,0,P|288:120|336:136,1,96,8|0,0:0|0:0,0:0:0:0:
424,296,59406,5,2,0:0:0:0:
304,48,59570,1,0,0:0:0:0:
424,208,59733,1,8,0:0:0:0:
168,192,59896,2,0,P|120:200|72:240,1,96
104,32,60222,1,0,0:0:0:0:
256,200,60385,1,8,0:0:0:0:
24,296,60548,1,0,0:0:0:0:
248,336,60711,6,0,P|320:320|352:288,1,96,2|0,0:0|0:0,0:0:0:0:
424,120,61037,1,8,0:0:0:0:
208,264,61200,1,0,0:0:0:0:
344,96,61363,1,8,0:0:0:0:
400,288,61526,2,0,L|344:264,1,48,8|0,0:0|0:0,0:0:0:0:
248,160,61689,2,0,L|304:184,1,48,8|0,0:0|0:0,0:0:0:0:
136,224,61852,2,0,L|80:200,1,48,8|0,0:0|0:0,0:0:0:0:
0,160,62015,5,12,0:0:0:0:
512,224,62260,1,8,0:0:0:0:
184,32,62504,1,8,0:0:0:0:
320,248,62667,2,0,P|304:320|280:344,1,96,12|0,0:0|0:0,0:0:0:0:
216,368,62912,1,0,0:0:0:0:
136,344,62993,2,0,L|96:312,1,48,8|8,0:0|0:0,0:0:0:0:
152,144,63156,2,0,L|192:176,1,48,8|8,0:0|0:0,0:0:0:0:
344,264,63320,6,0,P|392:272|456:240,1,96,4|0,0:0|0:0,0:0:0:0:
504,64,63646,1,8,0:0:0:0:
272,192,63809,2,0,P|240:256|256:304,1,96,2|0,0:0|0:0,0:0:0:0:
40,152,64135,1,0,0:0:0:0:
248,88,64298,1,8,0:0:0:0:
456,280,64461,6,0,B|408:336|336:320|336:320|312:344|280:344,1,192,2|0,0:0|0:0,0:0:0:0:
64,224,64950,1,8,0:0:0:0:
280,264,65113,2,0,P|328:240|384:256,1,96,2|0,0:0|0:0,0:0:0:0:
368,40,65439,1,0,0:0:0:0:
168,184,65602,2,0,P|168:232|192:272,1,96,8|0,0:0|0:0,0:0:0:0:
464,352,65928,6,0,P|488:304|480:216,1,144,2|0,0:0|0:0,0:0:0:0:
416,144,66254,1,8,0:0:0:0:
208,264,66417,2,0,P|152:272|112:248,1,96,2|0,0:0|0:0,0:0:0:0:
56,64,66743,1,0,0:0:0:0:
248,192,66906,1,8,0:0:0:0:
56,312,67070,1,0,0:0:0:0:
168,96,67233,6,0,P|216:72|304:80,1,144,2|0,0:0|0:0,0:0:0:0:
368,152,67559,1,8,0:0:0:0:
184,320,67722,2,0,P|240:344|384:328,1,192,2|0,0:0|0:0,0:0:0:0:
464,144,68211,1,8,0:0:0:0:
456,336,68374,1,0,0:0:0:0:
208,240,68537,5,6,0:0:0:0:
400,208,68700,1,8,0:0:0:0:
288,80,68863,2,0,L|248:32,1,48,8|0,0:0|0:0,0:0:0:0:
456,84,69026,2,0,P|448:152|400:208,1,144,12|0,0:0|0:0,0:0:0:0:
312,240,69352,1,0,0:0:0:0:
112,136,69515,1,8,0:0:0:0:
48,320,69678,6,0,P|96:304|128:232,1,96,12|0,0:0|0:0,0:0:0:0:
176,72,70004,1,0,0:0:0:0:
40,224,70167,1,10,0:0:0:0:
200,328,70330,1,12,0:0:0:0:
248,336,70412,1,8,0:0:0:0:
296,344,70493,1,8,0:0:0:0:
384,184,70656,1,8,0:0:0:0:
480,360,70820,1,8,0:0:0:0:
312,240,70983,1,8,0:0:0:0:
376,48,71146,6,0,P|320:16|256:24,1,96,2|0,0:0|0:0,0:0:0:0:
176,72,71390,1,0,0:0:0:0:
176,72,71472,2,0,P|224:104|240:160,1,96,12|0,0:0|0:0,0:0:0:0:
24,352,71798,2,0,P|24:304|56:256,1,96,2|0,0:0|0:0,0:0:0:0:
312,240,72042,2,0,P|256:296|208:304,1,96,2|0,0:0|0:0,0:0:0:0:
160,120,72287,2,0,L|176:72,1,48,2|0,0:0|0:0,0:0:0:0:
400,32,72450,6,0,P|432:96|416:144,1,96,4|0,0:0|0:0,0:0:0:0:
184,248,72776,1,8,0:0:0:0:
360,312,72939,1,0,0:0:0:0:
296,88,73102,2,0,P|248:120|232:168,1,96,2|0,0:0|0:0,0:0:0:0:
384,224,73347,1,0,0:0:0:0:
384,224,73428,2,0,P|352:176|312:168,1,96,8|0,0:0|0:0,0:0:0:0:
80,248,73754,5,4,0:0:0:0:
232,168,73917,1,0,0:0:0:0:
112,344,74080,1,8,0:0:0:0:
0,144,74243,2,0,P|0:104|32:56,1,96,2|0,0:0|0:0,0:0:0:0:
256,32,74570,1,0,0:0:0:0:
128,176,74733,1,8,0:0:0:0:
224,344,74896,1,0,0:0:0:0:
304,136,75059,5,2,0:0:0:0:
488,184,75222,1,0,0:0:0:0:
488,184,75303,2,0,L|464:136,1,48,2|8,0:0|0:0,0:0:0:0:
280,232,75548,1,2,0:0:0:0:
152,80,75711,1,0,0:0:0:0:
152,80,75792,2,0,L|144:32,1,48,2|0,0:0|0:0,0:0:0:0:
48,240,76037,1,8,0:0:0:0:
240,144,76200,1,0,0:0:0:0:
416,288,76363,6,0,P|384:328|344:344,1,96,4|0,0:0|0:0,0:0:0:0:
152,312,76689,1,8,0:0:0:0:
264,56,76852,2,0,P|328:56|360:72,1,96,4|0,0:0|0:0,0:0:0:0:
448,200,77178,1,0,0:0:0:0:
240,144,77341,1,8,0:0:0:0:
152,312,77504,1,0,0:0:0:0:
120,112,77667,6,0,P|88:64|48:48,1,96,4|0,0:0|0:0,0:0:0:0:
48,240,77993,1,8,0:0:0:0:
232,344,78156,1,4,0:0:0:0:
320,144,78320,2,0,P|352:96|400:80,1,96
232,24,78564,1,0,0:0:0:0:
232,24,78646,2,0,P|248:72|240:120,1,96,8|0,0:0|0:0,0:0:0:0:
144,288,78972,5,8,0:0:0:0:
144,288,79135,1,8,0:0:0:0:
384,208,79298,1,8,0:0:0:0:
384,208,79461,1,8,0:0:0:0:
232,344,79624,1,8,0:0:0:0:
232,344,79787,1,8,0:0:0:0:
144,136,79950,1,8,0:0:0:0:
144,136,80113,1,8,0:0:0:0:
336,72,80276,5,8,0:0:0:0:
296,288,80439,1,8,0:0:0:0:
112,208,80602,1,8,0:0:0:0:
256,32,80765,1,8,0:0:0:0:
256,216,80928,1,8,0:0:0:0:
112,344,81091,2,0,L|104:288,1,48,8|8,0:0|0:0,0:0:0:0:
44,176,81254,2,0,L|76:132,1,48,8|8,0:0|0:0,0:0:0:0:
160,32,81417,2,0,L|208:24,1,48,8|8,0:0|0:0,0:0:0:0:
392,32,81580,6,0,P|416:104|408:136,1,96,4|0,0:0|0:0,0:0:0:0:
296,272,81906,1,8,0:0:0:0:
112,208,82070,1,0,0:0:0:0:
248,352,82233,2,0,P|304:368|360:344,1,96
456,232,82559,1,8,0:0:0:0:
384,72,82722,1,0,0:0:0:0:
160,112,82885,6,0,P|216:104|304:152,1,144,2|0,0:0|0:0,0:0:0:0:
336,224,83211,1,8,0:0:0:0:
152,320,83374,2,0,P|88:304|56:272,1,96
40,96,83700,1,0,0:0:0:0:
200,224,83863,1,8,0:0:0:0:
0,176,84026,1,0,0:0:0:0:
192,40,84189,6,0,P|248:24|304:32,1,96,12|0,0:0|0:0,0:0:0:0:
448,240,84515,2,0,P|392:256|336:248,1,96,8|0,0:0|0:0,0:0:0:0:
80,144,84841,2,0,P|136:128|192:136,1,96,8|0,0:0|0:0,0:0:0:0:
304,328,85167,2,0,P|248:344|192:336,1,96,8|0,0:0|0:0,0:0:0:0:
32,272,85493,5,8,0:0:0:0:
216,208,85656,1,8,0:0:0:0:
104,48,85820,1,8,0:0:0:0:
120,240,85983,1,8,0:0:0:0:
240,88,86146,2,0,L|288:64,1,48,8|8,0:0|0:0,0:0:0:0:
424,88,86309,2,0,L|376:112,1,48,8|8,0:0|0:0,0:0:0:0:
280,208,86472,2,0,L|328:184,1,48,8|8,0:0|0:0,0:0:0:0:
464,208,86635,2,0,L|416:232,1,48,8|8,0:0|0:0,0:0:0:0:
264,360,86798,6,0,B|192:360|160:296|160:296|200:296|224:264,1,192,4|0,0:0|0:0,0:0:0:0:
296,92,87287,2,0,B|332:154|292:214|292:214|272:179|232:174,1,192,4|0,0:0|0:0,0:0:0:0:
48,192,87776,2,0,B|84:130|155:134|155:134|135:169|151:206,1,192,4|0,0:0|0:0,0:0:0:0:
216,273,88265,1,0,0:0:0:0:
256,192,88347,12,0,89325,0:0:0:0:
