osu file format v12

[General]
AudioFilename: voice.mp3
AudioLeadIn: 1000
PreviewTime: 52306
Countdown: 0
SampleSet: Soft
StackLeniency: 0.7
Mode: 0
LetterboxInBreaks: 0
WidescreenStoryboard: 0

[Editor]
DistanceSpacing: 1.2
BeatDivisor: 4
GridSize: 4

[Metadata]
Title:VOICE (TV Size)
TitleUnicode:VOICE (TV Size)
Artist:ZAQ
ArtistUnicode:ZAQ
Creator:CloudSplash16
Version:Normal
Source:中二病でも恋がしたい!戀
Tags:chuunibyou demo koi ga shitai! ren anime opening fycho momochikun
BeatmapID:346646
BeatmapSetID:137338

[Difficulty]
HPDrainRate:4
CircleSize:3
OverallDifficulty:4
ApproachRate:5
SliderMultiplier:0.9
SliderTickRate:1

[Events]
//Background and Video events
Video,-640,"OP.avi"
0,0,"bg.jpg",0,0
//Break Periods
//Storyboard Layer 0 (Background)
//Storyboard Layer 1 (Fail)
//Storyboard Layer 2 (Pass)
//Storyboard Layer 3 (Foreground)
//Storyboard Sound Samples
//Background Colour Transformations
3,100,163,162,255

[TimingPoints]
214,326.086956521739,4,2,2,40,1,0
2822,-100,4,2,1,50,0,0
3963,-100,4,2,1,60,0,0
6735,-100,4,2,1,65,0,0
10648,-100,4,2,1,55,0,0
10974,-100,4,2,1,57,0,0
11463,-100,4,2,1,59,0,0
11953,-100,4,2,1,61,0,0
12442,-100,4,2,1,63,0,0
12931,-100,4,2,1,65,0,0
13257,-100,4,2,1,60,0,0
15866,-100,4,2,1,62,0,0
16518,-100,4,2,1,64,0,0
17170,-100,4,2,1,66,0,0
17822,-100,4,2,2,60,0,0
17985,-100,4,2,1,60,0,0
18474,-100,4,2,1,40,0,0
21083,-100,4,2,1,55,0,0
34127,-100,4,2,1,60,0,0
36735,-100,4,2,1,65,0,0
46518,-100,4,2,1,50,0,0
47170,-100,4,2,2,20,0,0
48800,-100,4,2,2,30,0,0
49127,-100,4,2,2,40,0,0
49779,-100,4,2,1,60,0,0
52387,-100,4,2,1,70,0,1
53040,-100,4,2,1,75,0,1
53692,-100,4,2,1,70,0,1
61518,-100,4,2,1,75,0,1
62170,-100,4,2,1,70,0,1
70974,-100,4,2,1,80,0,1
71300,-100,4,2,1,75,0,0
71953,-100,4,2,1,75,0,1
72279,-100,4,2,1,70,0,1
84996,-100,4,2,1,60,0,1
86300,-100,4,2,1,40,0,0
88094,-100,4,2,1,30,0,0
88420,-100,4,2,1,20,0,0
88746,-100,4,2,1,10,0,0
88909,-100,4,2,1,5,0,0

[Colours]
Combo1 : 149,255,202
Combo2 : 228,149,255
Combo3 : 149,202,255
Combo4 : 255,149,202

[HitObjects]
105,217,214,2,0,P|168:235|229:209,1,135,0|2,0:0|0:0,0:0:0:0:
270,174,866,2,0,P|305:153|402:173,1,135,2|2,0:0|0:0,0:0:0:0:
256,192,1518,12,4,2822,0:0:0:0:
116,123,3474,6,0,L|121:217,1,90,0|2,0:0|0:0,0:0:0:0:
125,266,3963,2,0,P|160:287|257:267,1,135,4|8,0:0|0:0,0:0:0:0:
289,236,4616,1,2,0:0:0:0:
321,132,4942,1,2,0:0:0:0:
236,64,5268,6,0,P|187:55|137:71,1,90,4|2,0:0|0:0,0:0:0:0:
113,105,5757,2,0,P|122:154|106:204,1,90,4|2,0:0|0:0,0:0:0:0:
110,246,6246,2,0,P|155:267|207:264,1,90,4|2,0:0|0:0,0:0:0:0:
244,247,6735,2,0,P|283:226|328:223,1,90,4|2,0:0|0:0,0:0:0:0:
380,235,7224,1,4,0:0:0:0:
464,167,7550,1,2,0:0:0:0:
430,124,7713,2,0,B|401:88|401:88|353:72,1,90,2|4,0:0|0:0,0:0:0:0:
253,58,8366,5,8,0:0:0:0:
253,58,8529,2,0,L|221:155,1,90,2|2,0:0|0:0,0:0:0:0:
208,194,9018,1,8,0:0:0:0:
119,255,9344,2,0,L|76:217,2,45,2|0|8,0:0|0:0|0:0,0:0:0:0:
164,284,9833,2,0,P|207:293|251:284,1,90,2|2,0:0|0:0,0:0:0:0:
298,256,10322,2,0,L|307:201,1,45,8|2,0:0|0:0,0:0:0:0:
253,58,10974,6,0,B|209:74|209:74|160:64,1,90,8|2,0:0|0:0,0:0:0:0:
128,104,11463,2,0,B|111:147|111:147|121:196,1,90,8|2,0:0|0:0,0:0:0:0:
148,236,11953,2,0,B|193:243|193:243|226:272,1,90,8|2,0:0|0:0,0:0:0:0:
265,309,12442,2,0,L|368:293,1,90,8|2,0:0|0:0,0:0:0:0:
407,288,12931,1,8,0:0:0:0:
417,180,13257,6,0,P|402:120|326:81,1,135,4|2,0:0|0:0,0:0:0:0:
235,90,14072,1,2,0:0:0:0:
235,90,14235,2,0,L|153:142,1,90,8|2,0:0|0:0,0:0:0:0:
69,198,14887,1,8,0:0:0:0:
76,306,15213,1,2,0:0:0:0:
172,354,15540,1,8,0:0:0:0:
261,294,15866,6,0,L|340:241,1,90,4|8,0:0|0:0,0:0:0:0:
335,135,16518,2,0,L|260:185,1,90,4|8,0:0|0:0,0:0:0:0:
162,230,17170,2,0,P|150:185|162:141,1,90,4|8,0:0|0:0,0:0:0:0:
256,93,17822,2,0,L|335:135,1,90,2|8,0:0|0:0,0:0:0:0:
430,185,18474,5,4,0:0:0:0:
256,192,18556,12,2,20431,0:0:0:0:
158,105,21083,6,0,L|128:189,1,90,4|8,0:0|0:0,0:0:0:0:
127,243,21572,2,0,P|159:275|204:287,1,90,0|2,0:0|0:0,0:0:0:0:
308,272,22224,1,8,0:0:0:0:
384,195,22550,2,0,L|384:139,1,45,2|8,0:0|0:0,0:0:0:0:
307,73,23040,2,0,L|307:17,2,45,2|2|8,0:0|0:0|0:0,0:0:0:0:
268,111,23529,6,0,P|224:121|181:109,1,90,2|2,0:0|0:0,0:0:0:0:
136,80,24018,1,8,0:0:0:0:
59,156,24344,2,0,P|48:199|60:242,1,90,2|8,0:0|0:0,0:0:0:0:
90,288,24833,1,2,0:0:0:0:
252,308,25322,2,0,P|294:296|337:307,1,90,8|0,0:0|0:0,0:0:0:0:
436,348,25974,1,8,0:0:0:0:
436,348,26300,6,0,L|420:244,1,90,4|8,0:0|0:0,0:0:0:0:
276,100,27279,1,8,0:0:0:0:
65,147,27931,1,8,0:0:0:0:
65,147,28257,2,0,P|87:185|88:229,1,90,2|8,0:0|0:0,0:0:0:0:
53,332,28909,6,0,P|95:320|138:331,1,90,0|8,0:0|0:0,0:0:0:0:
191,344,29398,2,0,B|245:356|292:309|292:309|318:337,1,135,0|8,0:0|0:0,0:0:0:0:
343,365,30050,1,2,0:0:0:0:
419,288,30377,1,2,0:0:0:0:
419,288,30540,2,0,L|487:364,2,90,8|2|4,0:0|0:0|0:0,0:0:0:0:
348,208,31518,6,0,P|306:195|263:205,1,90,4|2,0:0|0:0,0:0:0:0:
169,260,32170,2,0,P|105:280|43:257,1,135,2|2,0:0|0:0,0:0:0:0:
56,150,32985,1,2,0:0:0:0:
132,73,33311,1,8,0:0:0:0:
132,73,33474,2,0,L|168:36,2,45,2|2|8,0:0|0:0|0:0,0:0:0:0:
56,150,34127,6,0,P|47:199|63:249,1,90,4|0,0:0|0:0,0:0:0:0:
94,275,34616,2,0,P|137:265|181:274,1,90,4|0,0:0|0:0,0:0:0:0:
231,295,35105,1,2,0:0:0:0:
334,324,35431,2,0,P|373:303|399:209,1,135,4|2,0:0|0:0,0:0:0:0:
387,169,36083,1,2,0:0:0:0:
310,92,36409,1,8,0:0:0:0:
208,129,36735,6,0,L|116:129,1,90,4|8,0:0|0:0,0:0:0:0:
79,167,37224,2,0,P|70:216|86:266,1,90,2|2,0:0|0:0,0:0:0:0:
117,292,37713,1,8,0:0:0:0:
171,292,37877,2,0,P|214:282|258:291,1,90,2|2,0:0|0:0,0:0:0:0:
308,312,38366,1,8,0:0:0:0:
444,224,38855,2,0,L|472:272,2,45,2|8|2,0:0|0:0|0:0,0:0:0:0:
417,176,39344,5,2,0:0:0:0:
256,160,39833,2,0,P|207:169|157:153,1,90,8|2,0:0|0:0,0:0:0:0:
120,136,40322,1,2,0:0:0:0:
76,168,40485,2,0,L|52:268,1,90,8|2,0:0|0:0,0:0:0:0:
54,309,40974,1,2,0:0:0:0:
92,347,41137,2,0,P|135:356|179:347,1,90,8|2,0:0|0:0,0:0:0:0:
224,316,41627,2,0,L|268:340,1,45,8|2,0:0|0:0,0:0:0:0:
420,296,42279,6,0,L|464:320,2,45,8|2|0,0:0|0:0|0:0,0:0:0:0:
381,257,42768,2,0,P|371:213|381:169,2,90,2|2|2,0:0|0:0|0:0,0:0:0:0:
466,119,43909,2,0,P|434:87|393:70,1,90,0|8,0:0|0:0,0:0:0:0:
339,78,44398,2,0,P|255:101|200:81,1,135,0|8,0:0|0:0,0:0:0:0:
165,59,45050,1,2,0:0:0:0:
42,167,45703,5,0,0:0:0:0:
42,167,45866,2,0,P|62:209|68:259,1,90,2|8,0:0|0:0,0:0:0:0:
54,358,46518,1,2,0:0:0:0:
158,330,46844,1,2,0:0:0:0:
256,192,47170,12,0,49127,0:0:0:0:
124,196,49779,6,0,L|204:250,1,90,2|2,0:0|0:0,0:0:0:0:
243,276,50268,1,2,0:0:0:0:
384,196,50757,2,0,L|304:142,1,90,2|2,0:0|0:0,0:0:0:0:
265,116,51246,1,2,0:0:0:0:
103,110,51735,2,0,P|63:130|40:168,1,90,2|2,0:0|0:0,0:0:0:0:
53,276,52387,5,4,0:0:0:0:
139,211,52713,1,8,0:0:0:0:
220,282,53040,2,0,B|284:308|343:250|343:250|376:262|403:264,1,180,4|4,0:0|0:0,0:0:0:0:
462,186,54018,2,0,P|473:143|461:100,1,90,8|0,0:0|0:0,0:0:0:0:
367,47,54670,1,8,0:0:0:0:
268,92,54996,6,0,P|225:103|182:92,1,90,4|8,0:0|0:0,0:0:0:0:
143,131,55485,2,0,P|132:174|143:216,1,90,4|2,0:0|0:0,0:0:0:0:
182,255,55974,1,8,0:0:0:0:
289,255,56300,2,0,L|340:168,1,90,0|8,0:0|0:0,0:0:0:0:
268,92,56953,2,0,B|205:122|143:68|143:68|120:105,1,180,2|4,0:0|0:0,0:0:0:0:
66,200,57931,5,8,0:0:0:0:
120,292,58257,2,0,P|155:313|252:293,1,135,2|2,0:0|0:0,0:0:0:0:
295,281,58909,2,0,B|349:269|396:316|396:316|422:288,1,135,2|2,0:0|0:0,0:0:0:0:
490,225,59724,2,0,L|474:135,1,90,2|2,0:0|0:0,0:0:0:0:
432,104,60213,5,2,0:0:0:0:
344,40,60540,1,8,0:0:0:0:
256,104,60866,1,2,0:0:0:0:
168,40,61192,1,8,0:0:0:0:
91,116,61518,2,0,B|79:170|126:217|126:217|98:243,1,135,4|4,0:0|0:0,0:0:0:0:
65,264,62170,1,2,0:0:0:0:
42,369,62496,1,8,0:0:0:0:
42,369,62822,6,0,L|137:358,1,90,4|8,0:0|0:0,0:0:0:0:
185,353,63311,1,0,0:0:0:0:
292,364,63637,1,0,0:0:0:0:
368,287,63963,2,0,P|379:244|368:200,1,90,0|0,0:0|0:0,0:0:0:0:
330,162,64453,1,8,0:0:0:0:
276,162,64616,2,0,P|232:173|189:161,1,90,0|0,0:0|0:0,0:0:0:0:
142,136,65105,1,8,0:0:0:0:
65,212,65431,6,0,P|54:255|65:298,1,90,2|8,0:0|0:0,0:0:0:0:
100,340,65920,1,0,0:0:0:0:
206,320,66246,2,0,L|256:290,1,45,0|8,0:0|0:0,0:0:0:0:
321,220,66735,6,0,P|332:177|321:134,1,90,2|8,0:0|0:0,0:0:0:0:
286,92,67224,1,0,0:0:0:0:
180,112,67550,2,0,L|142:136,1,45,0|8,0:0|0:0,0:0:0:0:
64,211,68040,6,0,B|51:255|51:255|66:303,1,90,4|8,0:0|0:0,0:0:0:0:
102,335,68529,2,0,L|192:324,1,90,4|0,0:0|0:0,0:0:0:0:
267,247,69181,2,0,P|277:203|266:160,2,90,4|0|4,0:0|0:0|0:0,0:0:0:0:
192,324,70159,2,0,L|145:330,2,45,0|8|0,0:0|0:0|0:0,0:0:0:0:
244,337,70648,5,2,0:0:0:0:
350,354,70974,1,4,0:0:0:0:
426,277,71300,2,0,B|445:264|445:264|407:210|428:158,1,135,4|2,0:0|0:0,0:0:0:0:
428,104,71953,2,0,P|404:65|366:43,1,90,4|8,0:0|0:0,0:0:0:0:
264,76,72605,2,0,P|229:97|132:77,1,135,2|2,0:0|0:0,0:0:0:0:
85,83,73257,6,0,P|46:106|24:144,1,90,4|8,0:0|0:0,0:0:0:0:
24,198,73746,2,0,L|76:280,1,90,0|0,0:0|0:0,0:0:0:0:
100,319,74235,1,8,0:0:0:0:
202,283,74561,2,0,P|245:271|288:282,1,90,2|8,0:0|0:0,0:0:0:0:
389,319,75213,1,2,0:0:0:0:
446,227,75540,1,8,0:0:0:0:
389,134,75866,6,0,P|345:123|303:135,1,90,4|8,0:0|0:0,0:0:0:0:
261,169,76355,2,0,P|200:195|136:176,1,135,4|8,0:0|0:0,0:0:0:0:
37,134,77170,2,0,P|28:179|43:230,1,90,4|8,0:0|0:0,0:0:0:0:
115,297,77822,2,0,L|212:288,1,90,2|0,0:0|0:0,0:0:0:0:
312,280,78474,5,2,0:0:0:0:
312,280,78800,1,2,0:0:0:0:
388,203,79127,1,2,0:0:0:0:
388,203,79453,1,2,0:0:0:0:
311,126,79779,2,0,P|267:115|225:127,1,90,2|8,0:0|0:0,0:0:0:0:
184,162,80268,2,0,P|149:183|52:163,1,135,2|8,0:0|0:0,0:0:0:0:
117,78,81083,6,0,L|213:42,1,90,4|8,0:0|0:0,0:0:0:0:
268,130,81735,2,0,L|184:162,1,90,2|8,0:0|0:0,0:0:0:0:
82,200,82387,2,0,P|72:243|84:285,1,90,6|8,0:0|0:0,0:0:0:0:
180,336,83040,1,0,0:0:0:0:
275,286,83366,1,8,0:0:0:0:
380,312,83692,6,0,L|416:216,1,90,4|8,0:0|0:0,0:0:0:0:
335,151,84344,2,0,L|253:188,1,90,2|8,0:0|0:0,0:0:0:0:
180,268,84996,1,2,0:0:0:0:
74,244,85322,1,2,0:0:0:0:
41,140,85648,1,2,0:0:0:0:
114,60,85974,1,2,0:0:0:0:
256,192,86300,12,0,88909,0:0:0:0:
