osu file format v12

[General]
AudioFilename: voice.mp3
AudioLeadIn: 1000
PreviewTime: 52306
Countdown: 0
SampleSet: Soft
StackLeniency: 0.7
Mode: 0
LetterboxInBreaks: 0
WidescreenStoryboard: 0

[Editor]
Bookmarks: 10241
DistanceSpacing: 1.2
BeatDivisor: 4
GridSize: 4

[Metadata]
Title:VOICE (TV Size)
TitleUnicode:VOICE (TV Size)
Artist:ZAQ
ArtistUnicode:ZAQ
Creator:CloudSplash16
Version:Insane
Source:中二病でも恋がしたい!戀
Tags:chuunibyou demo koi ga shitai! ren anime opening fycho momochikun
BeatmapID:343302
BeatmapSetID:137338

[Difficulty]
HPDrainRate:7
CircleSize:4
OverallDifficulty:7
ApproachRate:9
SliderMultiplier:1.75
SliderTickRate:2

[Events]
//Background and Video events
Video,-640,"OP.avi"
0,0,"bg.jpg",0,0
//Break Periods
//Storyboard Layer 0 (Background)
//Storyboard Layer 1 (Fail)
//Storyboard Layer 2 (Pass)
//Storyboard Layer 3 (Foreground)
//Storyboard Sound Samples
//Background Colour Transformations
3,100,163,162,255

[TimingPoints]
214,326.086956521739,4,2,2,40,1,0
214,-200,4,2,2,40,0,0
2822,-125,4,2,1,50,0,0
3963,-125,4,2,1,60,0,0
6735,-111.111111111111,4,2,1,65,0,0
8040,-100,4,2,1,65,0,0
10648,-100,4,2,1,55,0,0
10974,-100,4,2,1,57,0,0
11463,-100,4,2,1,59,0,0
11953,-100,4,2,1,61,0,0
12442,-100,4,2,1,63,0,0
12931,-100,4,2,1,65,0,0
13257,-100,4,2,1,60,0,0
15866,-100,4,2,1,62,0,0
16518,-100,4,2,1,64,0,0
17170,-100,4,2,1,66,0,0
17822,-100,4,2,2,60,0,0
17985,-100,4,2,1,60,0,0
18474,-142.857142857143,4,2,1,50,0,0
20105,-100,4,2,1,55,0,0
20431,-100,4,2,1,40,0,0
20757,-66.6666666666667,4,2,1,70,0,0
21083,-100,4,2,1,55,0,0
34127,-100,4,2,1,60,0,0
36735,-100,4,2,1,65,0,0
46518,-100,4,2,1,50,0,0
47170,-166.666666666667,4,2,2,40,0,0
47822,-125,4,2,2,40,0,0
48474,-100,4,2,2,40,0,0
48556,-100,4,2,2,20,0,0
48800,-100,4,2,2,30,0,0
49127,-100,4,2,2,40,0,0
49453,-100,4,2,2,50,0,0
49779,-100,4,2,1,60,0,0
52387,-100,4,2,1,70,0,1
53040,-83.3333333333333,4,2,1,75,0,1
53692,-83.3333333333333,4,2,1,70,0,1
54018,-100,4,2,1,70,0,1
56953,-83.3333333333333,4,2,1,70,0,1
61518,-83.3333333333333,4,2,1,75,0,1
62170,-83.3333333333333,4,2,1,60,0,1
62822,-83.3333333333333,4,2,1,70,0,1
70159,-83.3333333333333,4,2,1,50,0,1
70974,-55.5555555555556,4,2,1,80,0,1
71300,-83.3333333333333,4,2,1,75,0,0
71953,-83.3333333333333,4,2,1,75,0,1
72116,-83.3333333333333,4,2,1,70,0,1
78474,-83.3333333333333,4,2,1,60,0,1
81083,-83.3333333333333,4,2,1,70,0,1
84996,-83.3333333333333,4,2,1,60,0,1
86300,-166.666666666667,4,2,1,50,0,0
87768,-166.666666666667,4,2,1,40,0,0
88094,-166.666666666667,4,2,1,30,0,0
88420,-166.666666666667,4,2,1,20,0,0
88746,-166.666666666667,4,2,1,10,0,0
88909,-100,4,2,1,5,0,0

[Colours]
Combo1 : 149,255,202
Combo2 : 228,149,255
Combo3 : 149,202,255
Combo4 : 255,149,202

[HitObjects]
120,92,214,2,0,P|164:80|212:100,1,87.5,0|2,0:0|0:0,0:0:0:0:
312,160,703,2,0,L|336:112,1,43.75,2|2,0:0|0:0,0:0:0:0:
216,176,1029,2,0,L|196:215,2,43.75,2|2|2,0:0|0:0|0:0,0:0:0:0:
280,60,1518,6,0,P|352:44|412:120,1,175
409,141,2252,1,0,0:0:0:0:
408,167,2333,1,0,0:0:0:0:
409,193,2415,1,0,0:0:0:0:
415,218,2496,1,0,0:0:0:0:
425,241,2578,1,0,0:0:0:0:
438,263,2659,1,0,0:0:0:0:
455,282,2741,1,0,0:0:0:0:
476,298,2822,6,0,L|407:323,1,70,4|0,0:0|0:0,0:0:0:0:
252,232,3148,2,0,L|317:255,1,70
199,300,3474,2,0,P|173:266|172:200,1,105,0|0,0:0|0:0,0:0:0:0:
176,189,3800,1,2,0:0:0:0:
311,38,3963,6,0,P|300:115|340:168,1,140,4|0,0:0|0:0,0:0:0:0:
389,89,4453,1,8,0:0:0:0:
176,189,4616,2,0,L|108:207,1,70,2|0,0:0|0:0,0:0:0:0:
249,83,4942,2,0,L|181:101,1,70,2|0,0:0|0:0,0:0:0:0:
146,292,5268,6,0,P|198:295|274:229,1,140,4|2,0:0|0:0,0:0:0:0:
195,61,5757,2,0,P|163:121|176:189,1,140,4|2,0:0|0:0,0:0:0:0:
370,219,6246,2,0,P|334:160|269:137,1,140,4|2,0:0|0:0,0:0:0:0:
146,292,6735,6,0,L|225:313,1,78.7499975967408,4|0,0:0|0:0,0:0:0:0:
176,189,7061,1,2,0:0:0:0:
215,345,7224,2,0,L|294:366,1,78.7499975967408,4|0,0:0|0:0,0:0:0:0:
394,326,7550,1,2,0:0:0:0:
463,209,7713,1,2,0:0:0:0:
454,180,7795,1,2,0:0:0:0:
438,156,7877,1,2,0:0:0:0:
416,137,7958,1,2,0:0:0:0:
388,126,8040,6,0,B|337:108|269:134|269:134|259:106|266:75,1,175,4|8,0:0|0:0,0:0:0:0:
339,257,8529,1,2,0:0:0:0:
215,345,8692,2,0,P|168:339|134:304,1,87.5,0|2,0:0|0:0,0:0:0:0:
165,107,9018,2,0,P|183:146|176:189,1,87.5,8|2,0:0|0:0,0:0:0:0:
73,118,9344,5,2,0:0:0:0:
221,38,9507,1,0,0:0:0:0:
247,193,9670,1,8,0:0:0:0:
165,107,9833,1,2,0:0:0:0:
332,148,9996,1,0,0:0:0:0:
202,272,10159,1,2,0:0:0:0:
332,148,10322,1,8,0:0:0:0:
202,272,10485,1,2,0:0:0:0:
165,107,10648,6,0,L|254:93,1,87.5,2|0,0:0|0:0,0:0:0:0:
329,244,10974,2,0,L|303:329,1,87.5,8|0,0:0|0:0,0:0:0:0:
421,247,11300,5,2,0:0:0:0:
240,145,11463,2,0,L|214:230,1,87.5,8|0,0:0|0:0,0:0:0:0:
332,148,11790,5,2,0:0:0:0:
151,46,11953,2,0,L|125:131,1,87.5,8|0,0:0|0:0,0:0:0:0:
243,49,12279,5,2,0:0:0:0:
47,116,12442,1,8,0:0:0:0:
206,255,12605,1,0,0:0:0:0:
151,46,12768,1,2,0:0:0:0:
38,253,12931,2,0,L|119:292,1,87.5,8|2,0:0|0:0,0:0:0:0:
394,222,13257,6,0,P|330:233|272:324,1,175,4|8,0:0|0:0,0:0:0:0:
459,368,13746,2,0,L|380:331,1,87.5,2|0,0:0|0:0,0:0:0:0:
256,272,14072,1,2,0:0:0:0:
452,134,14235,2,0,P|497:206|476:288,1,175,8|2,0:0|0:0,0:0:0:0:
380,331,14724,5,0,0:0:0:0:
256,272,14887,2,0,L|232:180,1,87.5,8|2,0:0|0:0,0:0:0:0:
344,40,15213,2,0,L|366:124,1,87.5,2|0,0:0|0:0,0:0:0:0:
380,331,15540,1,8,0:0:0:0:
256,272,15703,1,2,0:0:0:0:
344,192,15866,5,4,0:0:0:0:
264,364,16029,1,2,0:0:0:0:
112,268,16192,2,0,L|88:176,1,87.5,8|0,0:0|0:0,0:0:0:0:
336,100,16518,5,4,0:0:0:0:
256,272,16681,1,2,0:0:0:0:
104,176,16844,2,0,L|80:84,1,87.5,8|0,0:0|0:0,0:0:0:0:
328,8,17170,5,4,0:0:0:0:
248,180,17333,1,0,0:0:0:0:
184,72,17496,1,8,0:0:0:0:
384,128,17659,1,2,0:0:0:0:
176,272,17822,5,2,0:0:0:0:
336,216,17985,1,2,0:0:0:0:
160,176,18148,1,8,0:0:0:0:
276,308,18311,1,2,0:0:0:0:
432,264,18474,6,0,P|443:206|412:140,1,122.499996261597
230,167,18963,2,0,P|276:207|336:216,1,122.499996261597
413,41,19453,2,0,P|356:61|319:109,1,122.499996261597
319,108,19942,1,2,0:0:0:0:
359,282,20105,6,0,L|310:293,1,43.75,2|0,0:0|0:0,0:0:0:0:
270,356,20268,2,0,L|222:341,1,43.75,2|0,0:0|0:0,0:0:0:0:
150,285,20431,1,2,0:0:0:0:
150,285,20512,1,2,0:0:0:0:
150,285,20594,1,2,0:0:0:0:
150,285,20675,1,2,0:0:0:0:
150,285,20757,6,0,P|170:222|146:156,1,131.25000500679,8|0,0:0|0:0,0:0:0:0:
359,282,21083,6,0,P|403:302|447:298,1,87.5,4|0,0:0|0:0,0:0:0:0:
319,108,21409,1,8,0:0:0:0:
319,108,21898,2,0,P|339:152|335:196,1,87.5,2|0,0:0|0:0,0:0:0:0:
150,285,22224,6,0,P|222:240|304:261,1,175,8|2,0:0|0:0,0:0:0:0:
304,261,22713,1,8,0:0:0:0:
82,42,23040,1,2,0:0:0:0:
126,193,23203,1,2,0:0:0:0:
174,77,23366,1,8,0:0:0:0:
22,173,23529,6,0,P|41:255|113:298,1,175,2|2,0:0|0:0,0:0:0:0:
321,178,24018,2,0,P|302:217|304:261,1,87.5,8|2,0:0|0:0,0:0:0:0:
317,288,24262,1,2,0:0:0:0:
340,307,24344,2,0,B|399:309|418:235|418:235|435:218|458:227|458:227|470:251,1,175,2|8,0:0|0:0,0:0:0:0:
464,240,24833,1,2,0:0:0:0:
127,322,25159,5,0,0:0:0:0:
127,322,25322,1,8,0:0:0:0:
200,153,25485,1,2,0:0:0:0:
231,315,25648,1,0,0:0:0:0:
59,240,25811,1,2,0:0:0:0:
59,240,25893,1,2,0:0:0:0:
59,240,25974,2,0,L|156:219,1,87.5,8|0,0:0|0:0,0:0:0:0:
310,128,26300,6,0,P|316:186|361:243,1,131.25,4|0,0:0|0:0,0:0:0:0:
377,256,26627,1,8,0:0:0:0:
59,240,27116,1,2,0:0:0:0:
182,70,27279,2,0,P|201:109|200:153,1,87.5,8|0,0:0|0:0,0:0:0:0:
59,240,27605,5,0,0:0:0:0:
377,256,27768,2,0,P|374:299|352:336,1,87.5,2|8,0:0|0:0,0:0:0:0:
272,167,28094,1,0,0:0:0:0:
373,56,28257,1,2,0:0:0:0:
460,238,28420,1,2,0:0:0:0:
277,270,28583,1,8,0:0:0:0:
184,106,28746,6,0,P|255:61|336:81,1,175,2|2,0:0|0:0,0:0:0:0:
373,176,29235,1,8,0:0:0:0:
277,270,29398,2,0,L|299:354,1,87.5,0|0,0:0|0:0,0:0:0:0:
272,167,29724,1,2,0:0:0:0:
176,261,29887,2,0,L|198:345,1,87.5,8|2,0:0|0:0,0:0:0:0:
351,92,30377,6,0,L|373:176,1,87.5,2|8,0:0|0:0,0:0:0:0:
277,270,30703,1,2,0:0:0:0:
277,270,30784,1,2,0:0:0:0:
277,270,30866,2,0,P|233:290|189:286,1,87.5,2|0,0:0|0:0,0:0:0:0:
160,176,31192,1,8,0:0:0:0:
311,182,31355,5,2,0:0:0:0:
311,182,31436,1,2,0:0:0:0:
311,182,31518,2,0,P|361:229|368:293,1,131.25,4|0,0:0|0:0,0:0:0:0:
437,78,32170,1,2,0:0:0:0:
437,78,32333,2,0,L|351:92,1,87.5,2|8,0:0|0:0,0:0:0:0:
216,112,32659,1,2,0:0:0:0:
216,112,32985,6,0,P|261:183|241:264,1,175,2|8,0:0|0:0,0:0:0:0:
158,200,33474,1,2,0:0:0:0:
324,110,33637,1,2,0:0:0:0:
425,181,33800,2,0,P|405:225|409:269,1,87.5,8|0,0:0|0:0,0:0:0:0:
494,239,34127,5,4,0:0:0:0:
437,78,34290,2,0,L|351:92,1,87.5,2|0,0:0|0:0,0:0:0:0:
448,335,34616,2,0,P|470:253|425:181,1,175,4|0,0:0|0:0,0:0:0:0:
256,208,35105,1,2,0:0:0:0:
365,269,35268,1,8,0:0:0:0:
324,110,35431,5,4,0:0:0:0:
160,168,35594,2,0,B|134:238|188:288|188:288|185:310|146:306,1,175,2|2,0:0|0:0,0:0:0:0:
256,208,36083,1,0,0:0:0:0:
365,269,36246,1,2,0:0:0:0:
425,181,36409,1,8,0:0:0:0:
433,149,36491,1,2,0:0:0:0:
427,117,36572,1,2,0:0:0:0:
408,90,36654,1,2,0:0:0:0:
380,74,36735,6,0,P|316:82|291:184,1,175,4|8,0:0|0:0,0:0:0:0:
382,351,37224,2,0,P|384:307|365:269,1,87.5,2|0,0:0|0:0,0:0:0:0:
187,290,37550,1,2,0:0:0:0:
299,326,37713,1,8,0:0:0:0:
256,208,37877,6,0,P|175:182|102:223,1,175,2|2,0:0|0:0,0:0:0:0:
187,290,38366,1,8,0:0:0:0:
396,228,38529,2,0,P|422:147|380:74,1,175,2|2,0:0|0:0,0:0:0:0:
203,183,39018,1,8,0:0:0:0:
318,159,39181,1,2,0:0:0:0:
221,78,39344,6,0,P|137:95|95:167,1,175,2|2,0:0|0:0,0:0:0:0:
292,242,39833,2,0,L|318:159,1,87.5,8|0,0:0|0:0,0:0:0:0:
203,183,40159,1,2,0:0:0:0:
207,304,40322,1,2,0:0:0:0:
363,311,40485,6,0,L|388:227,1,87.5,8|0,0:0|0:0,0:0:0:0:
273,251,40811,1,2,0:0:0:0:
277,372,40974,1,2,0:0:0:0:
433,379,41137,6,0,L|458:295,1,87.5,8|0,0:0|0:0,0:0:0:0:
316,177,41463,1,2,0:0:0:0:
363,311,41627,1,8,0:0:0:0:
457,206,41790,1,2,0:0:0:0:
273,251,41953,5,2,0:0:0:0:
273,251,42279,1,8,0:0:0:0:
120,192,42442,2,0,L|145:108,1,87.5,2|0,0:0|0:0,0:0:0:0:
316,177,42768,1,2,0:0:0:0:
120,192,42931,1,8,0:0:0:0:
273,251,43094,6,0,P|352:256|402:178,1,175,2|2,0:0|0:0,0:0:0:0:
230,177,43583,1,8,0:0:0:0:
364,106,43746,1,2,0:0:0:0:
273,251,43909,1,0,0:0:0:0:
278,106,44072,1,2,0:0:0:0:
120,192,44235,2,0,L|145:276,1,87.5,8|0,0:0|0:0,0:0:0:0:
341,261,44561,6,0,L|316:177,1,87.5,2|0,0:0|0:0,0:0:0:0:
222,332,44887,1,8,0:0:0:0:
388,350,45050,1,2,0:0:0:0:
388,350,45132,1,0,0:0:0:0:
388,350,45213,2,0,P|424:317|439:273,1,87.5,0|2,0:0|0:0,0:0:0:0:
246,248,45540,1,8,0:0:0:0:
406,191,45703,1,0,0:0:0:0:
235,154,45866,6,0,P|189:170|161:204,1,87.5,2|0,0:0|0:0,0:0:0:0:
299,326,46192,1,8,0:0:0:0:
316,177,46355,1,2,0:0:0:0:
150,285,46518,1,2,0:0:0:0:
337,283,46681,1,2,0:0:0:0:
235,154,46844,1,2,0:0:0:0:
222,332,47007,1,2,0:0:0:0:
406,191,47170,6,0,L|416:124,1,52.4999983978272,2|0,0:0|0:0,0:0:0:0:
333,49,47496,2,0,L|343:116,1,52.4999983978272,0|0,0:0|0:0,0:0:0:0:
305,246,47822,2,0,L|316:177,1,70,2|0,0:0|0:0,0:0:0:0:
224,84,48148,2,0,L|235:154,1,70,0|0,0:0|0:0,0:0:0:0:
222,332,48474,1,2,0:0:0:0:
256,192,48556,12,0,49616,0:0:0:0:
254,292,49779,5,6,0:0:0:0:
334,108,49942,1,2,0:0:0:0:
418,239,50105,1,2,0:0:0:0:
191,112,50268,1,6,0:0:0:0:
191,112,50757,5,6,0:0:0:0:
147,335,50920,1,2,0:0:0:0:
46,153,51083,1,2,0:0:0:0:
287,285,51246,1,6,0:0:0:0:
376,100,51572,5,2,0:0:0:0:
376,100,51654,1,2,0:0:0:0:
376,100,51735,1,2,0:0:0:0:
284,160,51898,1,2,0:0:0:0:
434,183,52061,2,0,P|416:223|417:267,1,87.5,2|0,0:0|0:0,0:0:0:0:
482,369,52387,6,0,P|442:351|398:352,1,87.5,4|0,0:0|0:0,0:0:0:0:
258,356,52713,2,0,P|275:316|274:272,1,87.5,8|0,0:0|0:0,0:0:0:0:
143,180,53040,6,0,B|114:186|114:186|56:186|56:186|30:195,1,104.999996795654,2|0,0:0|0:0,0:0:0:0:
152,251,53284,2,0,P|200:222|213:173,1,104.999996795654,2|0,0:0|0:0,0:0:0:0:
208,130,53529,2,0,L|168:88,1,52.4999983978272,2|0,0:0|0:0,0:0:0:0:
130,66,53692,2,0,P|78:68|45:106,1,104.999996795654,2|0,0:0|0:0,0:0:0:0:
50,312,54018,5,8,0:0:0:0:
152,349,54181,2,0,B|230:310|230:310|317:320,1,175,2|2,0:0|0:0,0:0:0:0:
431,333,54670,1,8,0:0:0:0:
313,233,54833,1,0,0:0:0:0:
449,150,54996,6,0,L|439:248,1,87.5,4|0,0:0|0:0,0:0:0:0:
238,166,55322,1,8,0:0:0:0:
374,83,55485,2,0,L|364:181,1,87.5,4|0,0:0|0:0,0:0:0:0:
163,99,55811,1,2,0:0:0:0:
365,170,55974,1,8,0:0:0:0:
299,16,56137,1,2,0:0:0:0:
238,165,56300,6,0,P|241:209|262:247,1,87.5,0|2,0:0|0:0,0:0:0:0:
459,186,56627,2,0,P|455:142|434:104,1,87.5,8|0,0:0|0:0,0:0:0:0:
201,322,56953,6,0,P|241:340|301:336,1,104.999996795654,2|0,0:0|0:0,0:0:0:0:
324,167,57197,2,0,P|282:199|262:247,1,104.999996795654,2|0,0:0|0:0,0:0:0:0:
357,256,57442,1,2,0:0:0:0:
200,192,57605,2,0,B|181:241|181:241|129:269,1,104.999996795654,4|0,0:0|0:0,0:0:0:0:
24,351,57931,1,8,0:0:0:0:
24,351,58257,6,0,P|42:311|38:251,1,104.999996795654,2|0,0:0|0:0,0:0:0:0:
93,76,58502,2,0,P|75:116|79:176,1,104.999996795654,2|0,0:0|0:0,0:0:0:0:
151,249,58746,1,2,0:0:0:0:
324,167,58909,2,0,P|361:129|271:136,1,209.999993591309,2|8,0:0|0:0,0:0:0:0:
302,244,59398,2,0,B|315:257|315:257|363:236|406:253,1,104.999996795654,2|0,0:0|0:0,0:0:0:0:
207,173,59724,2,0,P|157:154|97:171,1,104.999996795654,2|8,0:0|0:0,0:0:0:0:
161,356,60050,1,2,0:0:0:0:
302,244,60213,5,2,0:0:0:0:
151,249,60377,1,0,0:0:0:0:
287,354,60540,1,8,0:0:0:0:
396,204,60703,1,2,0:0:0:0:
222,284,60866,1,2,0:0:0:0:
391,338,61029,1,2,0:0:0:0:
326,157,61192,1,8,0:0:0:0:
287,354,61355,1,2,0:0:0:0:
396,204,61518,6,0,P|410:153|387:96,1,104.999996795654,4|0,0:0|0:0,0:0:0:0:
239,109,61762,2,0,P|275:146|326:157,1,104.999996795654,4|0,0:0|0:0,0:0:0:0:
482,134,62007,1,4,0:0:0:0:
464,298,62170,1,2,0:0:0:0:
464,298,62252,1,2,0:0:0:0:
464,298,62333,1,2,0:0:0:0:
320,242,62496,1,8,0:0:0:0:
299,237,62578,1,2,0:0:0:0:
278,234,62659,1,2,0:0:0:0:
256,233,62741,1,2,0:0:0:0:
235,233,62822,6,0,P|181:240|137:269,1,104.999996795654,4|0,0:0|0:0,0:0:0:0:
58,332,63148,1,8,0:0:0:0:
158,229,63311,2,0,P|166:176|166:124,1,104.999996795654,0|2,0:0|0:0,0:0:0:0:
68,182,63637,1,0,0:0:0:0:
246,96,63800,1,8,0:0:0:0:
91,52,63963,1,0,0:0:0:0:
197,205,64127,6,0,P|244:236|299:240,1,104.999996795654,2|0,0:0|0:0,0:0:0:0:
457,78,64453,2,0,P|406:103|375:148,1,104.999996795654,8|0,0:0|0:0,0:0:0:0:
285,325,64779,1,2,0:0:0:0:
429,219,64942,1,0,0:0:0:0:
299,163,65105,1,8,0:0:0:0:
390,316,65268,1,0,0:0:0:0:
197,205,65431,6,0,B|169:195|145:203|145:203|112:212|109:195|109:195|98:197,1,104.999996795654,2|0,0:0|0:0,0:0:0:0:
33,290,65757,1,8,0:0:0:0:
219,280,65920,2,0,P|259:251|272:185,1,104.999996795654,0|2,0:0|0:0,0:0:0:0:
156,336,66246,1,0,0:0:0:0:
268,348,66409,1,8,0:0:0:0:
345,261,66572,1,0,0:0:0:0:
298,162,66735,6,0,P|312:79|372:139,1,209.999993591309,2|8,0:0|0:0,0:0:0:0:
219,280,67224,2,0,L|122:222,1,104.999996795654,0|2,0:0|0:0,0:0:0:0:
57,182,67550,1,0,0:0:0:0:
298,162,67713,1,8,0:0:0:0:
298,162,68040,6,0,P|294:214|310:263,1,104.999996795654,4|0,0:0|0:0,0:0:0:0:
411,201,68366,1,8,0:0:0:0:
219,280,68529,2,0,P|243:328|294:356,1,104.999996795654,4|0,0:0|0:0,0:0:0:0:
434,281,68855,1,0,0:0:0:0:
298,162,69018,1,2,0:0:0:0:
57,182,69181,6,0,P|110:185|160:155,1,104.999996795654,4|0,0:0|0:0,0:0:0:0:
218,52,69507,1,0,0:0:0:0:
219,280,69670,1,2,0:0:0:0:
410,201,69833,2,0,P|421:150|403:101,1,104.999996795654,4|0,0:0|0:0,0:0:0:0:
219,280,70159,6,0,L|265:309,1,52.4999983978272,8|0,0:0|0:0,0:0:0:0:
466,351,70322,2,0,L|467:295,1,52.4999983978272,8|0,0:0|0:0,0:0:0:0:
404,102,70485,2,0,L|354:127,1,52.4999983978272,8|0,0:0|0:0,3:0:0:0:
340,323,70648,5,2,0:0:0:0:
340,323,70730,1,2,0:0:0:0:
340,323,70811,1,2,0:0:0:0:
340,323,70893,1,2,0:0:0:0:
340,323,70974,6,0,P|360:260|310:176,1,157.499995193482,4|0,0:0|0:0,0:0:0:0:
157,260,71300,6,0,B|176:254|176:254|242:269|242:269|259:263,1,104.999996795654,4|0,0:0|0:0,0:0:0:0:
119,194,71545,2,0,P|83:240|87:289,1,104.999996795654,2|0,0:0|0:0,0:0:0:0:
182,330,71790,1,2,0:0:0:0:
190,184,71953,6,0,P|157:133|101:124,1,104.999996795654,4|0,0:0|0:0,0:0:0:0:
271,337,72279,2,0,P|322:304|331:248,1,104.999996795654,8|0,0:0|0:0,0:0:0:0:
286,85,72605,2,0,P|289:145|333:181,1,104.999996795654,2|0,0:0|0:0,0:0:0:0:
449,68,72849,2,0,L|354:112,1,104.999996795654,2|0,0:0|0:0,0:0:0:0:
190,184,73094,5,2,0:0:0:0:
190,184,73257,2,0,P|215:244|96:311,1,209.999993591309,4|8,0:0|0:0,0:0:0:0:
284,172,73746,1,0,0:0:0:0:
271,337,73909,1,2,0:0:0:0:
136,242,74072,1,0,0:0:0:0:
382,166,74235,2,0,L|336:260,1,104.999996795654,8|0,0:0|0:0,0:0:0:0:
136,242,74561,5,2,0:0:0:0:
284,172,74724,1,0,0:0:0:0:
161,322,74887,2,0,P|104:320|62:283,1,104.999996795654,8|0,0:0|0:0,0:0:0:0:
344,108,75213,2,0,P|370:158|359:213,1,104.999996795654,2|0,0:0|0:0,0:0:0:0:
136,242,75540,1,8,0:0:0:0:
171,90,75703,1,0,0:0:0:0:
284,172,75866,6,0,L|270:285,1,104.999996795654,4|0,0:0|0:0,0:0:0:0:
171,90,76192,1,8,0:0:0:0:
383,71,76355,2,0,L|355:282,1,209.999993591309,4|2,0:0|0:0,0:0:0:0:
136,242,76844,1,8,0:0:0:0:
284,172,77007,1,2,0:0:0:0:
178,349,77170,6,0,L|65:335,1,104.999996795654,4|0,0:0|0:0,0:0:0:0:
81,167,77496,1,8,0:0:0:0:
223,269,77659,1,4,0:0:0:0:
223,269,77822,2,0,B|248:255|248:255|292:268|329:249,1,104.999996795654,2|0,0:0|0:0,0:0:0:0:
348,102,78067,2,0,P|302:124|284:172,1,104.999996795654,2|0,0:0|0:0,0:0:0:0:
387,307,78311,1,2,0:0:0:0:
360,178,78474,5,2,0:0:0:0:
356,174,78637,1,2,0:0:0:0:
227,265,78800,5,10,0:0:0:0:
223,269,78963,1,2,0:0:0:0:
153,136,79127,5,2,0:0:0:0:
149,132,79290,1,2,0:0:0:0:
67,296,79453,5,10,0:0:0:0:
63,300,79616,1,2,0:0:0:0:
18,106,79779,5,2,0:0:0:0:
149,132,79942,1,2,0:0:0:0:
48,196,80105,1,10,0:0:0:0:
121,56,80268,2,0,P|192:64|208:186,1,209.999993591309,2|2,0:0|0:0,0:0:0:0:
63,300,80757,2,0,L|167:322,1,104.999996795654,8|0,0:0|0:0,0:0:0:0:
331,196,81083,6,0,P|344:142|333:89,1,104.999996795654,4|0,0:0|0:0,0:0:0:0:
219,253,81409,2,0,P|206:307|217:360,1,104.999996795654,8|0,0:0|0:0,0:0:0:0:
315,309,81735,1,2,0:0:0:0:
315,309,81898,1,0,0:0:0:0:
250,182,82061,2,0,P|190:180|151:215,1,104.999996795654,8|0,0:0|0:0,0:0:0:0:
400,257,82387,6,0,L|374:155,1,104.999996795654,6|0,0:0|0:0,0:0:0:0:
315,309,82713,1,8,0:0:0:0:
472,216,82877,2,0,L|446:114,1,104.999996795654,6|0,0:0|0:0,0:0:0:0:
250,182,83203,1,2,0:0:0:0:
400,257,83366,1,8,0:0:0:0:
375,155,83529,1,2,0:0:0:0:
315,309,83692,6,0,P|361:349|492:292,1,209.999993591309,4|8,0:0|0:0,0:0:0:0:
250,182,84344,2,0,L|229:286,1,104.999996795654,2|0,0:0|0:0,0:0:0:0:
375,155,84670,2,0,L|395:52,1,104.999996795654,8|0,0:0|0:0,0:0:0:0:
250,182,84996,5,2,0:0:0:0:
315,309,85159,1,2,0:0:0:0:
375,155,85322,1,2,0:0:0:0:
237,267,85485,1,2,0:0:0:0:
431,228,85648,1,2,0:0:0:0:
297,98,85811,1,2,0:0:0:0:
315,309,85974,1,2,0:0:0:0:
375,155,86137,1,2,0:0:0:0:
172,110,86300,6,0,P|154:150|158:210,1,104.999996795654,4|0,0:0|0:0,0:0:0:0:
327,233,86790,2,0,P|295:191|247:171,1,104.999996795654,4|0,0:0|0:0,0:0:0:0:
144,304,87279,2,0,P|195:297|238:266,1,104.999996795654,4|0,0:0|0:0,0:0:0:0:
256,192,87768,12,0,88909,0:0:0:0:
