osu file format v12

[General]
AudioFilename: voice.mp3
AudioLeadIn: 1000
PreviewTime: 52306
Countdown: 0
SampleSet: Soft
StackLeniency: 0.7
Mode: 0
LetterboxInBreaks: 0
WidescreenStoryboard: 0

[Editor]
DistanceSpacing: 1.2
BeatDivisor: 4
GridSize: 4

[Metadata]
Title:VOICE (TV Size)
TitleUnicode:VOICE (TV Size)
Artist:ZAQ
ArtistUnicode:ZAQ
Creator:CloudSplash16
Version:Easy
Source:中二病でも恋がしたい!戀
Tags:chuunibyou demo koi ga shitai! ren anime opening fycho momochikun
BeatmapID:346295
BeatmapSetID:137338

[Difficulty]
HPDrainRate:2
CircleSize:3
OverallDifficulty:2
ApproachRate:3
SliderMultiplier:0.7
SliderTickRate:1

[Events]
//Background and Video events
Video,-640,"OP.avi"
0,0,"bg.jpg",0,0
//Break Periods
//Storyboard Layer 0 (Background)
//Storyboard Layer 1 (Fail)
//Storyboard Layer 2 (Pass)
//Storyboard Layer 3 (Foreground)
//Storyboard Sound Samples
//Background Colour Transformations
3,100,163,162,255

[TimingPoints]
214,326.086956521739,4,2,2,40,1,0
2822,-100,4,2,1,50,0,0
3963,-100,4,2,1,60,0,0
6735,-100,4,2,1,65,0,0
10648,-100,4,2,1,55,0,0
10974,-100,4,2,1,57,0,0
11463,-100,4,2,1,59,0,0
11953,-100,4,2,1,61,0,0
12442,-100,4,2,1,63,0,0
12931,-100,4,2,1,65,0,0
13257,-100,4,2,1,60,0,0
15866,-100,4,2,1,62,0,0
16518,-100,4,2,1,64,0,0
17170,-100,4,2,1,66,0,0
17822,-100,4,2,2,60,0,0
18474,-100,4,2,1,40,0,0
21083,-100,4,2,1,55,0,0
34127,-100,4,2,1,60,0,0
36735,-100,4,2,1,65,0,0
46518,-100,4,2,1,50,0,0
47170,-100,4,2,2,20,0,0
48800,-100,4,2,2,30,0,0
49127,-100,4,2,2,40,0,0
49453,-100,4,2,2,50,0,0
49779,-100,4,2,1,60,0,0
52387,-100,4,2,1,70,0,1
53040,-100,4,2,1,75,0,1
53692,-100,4,2,1,70,0,1
61518,-100,4,2,1,75,0,1
62170,-100,4,2,1,70,0,1
70974,-100,4,2,1,80,0,1
71300,-100,4,2,1,75,0,0
71953,-100,4,2,1,75,0,1
72279,-100,4,2,1,70,0,1
84996,-100,4,2,1,60,0,1
86300,-100,4,2,1,40,0,0
88094,-100,4,2,1,30,0,0
88420,-100,4,2,1,20,0,0
88746,-100,4,2,1,10,0,0
88909,-100,4,2,1,5,0,0

[Colours]
Combo1 : 149,255,202
Combo2 : 228,149,255
Combo3 : 149,202,255
Combo4 : 255,149,202

[HitObjects]
256,112,214,2,0,P|336:184|292:264,1,210,2|2,0:0|0:0,0:0:0:0:
256,192,1518,12,4,2822,0:0:0:0:
184,96,3963,6,0,P|252:116|328:104,1,140,4|2,0:0|0:0,0:0:0:0:
397,75,4942,1,2,0:0:0:0:
459,130,5268,6,0,B|481:166|468:215|468:215|492:231,2,105,4|4|4,0:0|0:0|0:0,0:0:0:0:
345,184,6735,2,0,B|330:223|352:269|352:269|340:281,1,105,4|4,0:0|0:0,0:0:0:0:
244,362,7713,1,2,0:0:0:0:
160,354,8040,6,0,B|114:347|114:347|80:296|86:231|123:188,1,210,4|8,0:0|0:0,0:0:0:0:
194,155,9344,2,0,B|230:158|263:149|263:149|294:171|334:179,1,140,2|0,0:0|0:0,0:0:0:0:
408,195,10322,2,0,L|391:274,1,70,8|2,0:0|0:0,0:0:0:0:
337,326,10974,6,0,P|285:338|226:319,2,105,8|8|8,0:0|0:0|0:0,0:0:0:0:
393,263,12279,2,0,L|408:195,1,70,2|0,0:0|0:0,0:0:0:0:
428,113,12931,1,8,0:0:0:0:
350,81,13257,6,0,P|289:67|216:106,1,140,4|0,0:0|0:0,0:0:0:0:
165,162,14235,1,8,0:0:0:0:
208,234,14561,2,0,P|221:283|218:315,2,70,2|8|2,0:0|0:0|0:0,0:0:0:0:
165,162,15540,1,8,0:0:0:0:
81,158,15866,6,0,L|21:206,1,70,4|8,0:0|0:0,0:0:0:0:
64,276,16518,2,0,L|118:232,1,70,4|8,0:0|0:0,0:0:0:0:
165,162,17170,2,0,P|235:138|305:173,1,140,6|2,0:0|0:0,0:0:0:0:
256,192,18474,12,2,20431,0:0:0:0:
103,168,21083,6,0,L|113:248,1,70,4|8,0:0|0:0,0:0:0:0:
100,278,21572,2,0,P|124:329|211:338,1,140,0|8,0:0|0:0,0:0:0:0:
267,291,22550,2,0,L|346:291,1,70,2|0,0:0|0:0,0:0:0:0:
456,332,23366,5,8,0:0:0:0:
484,252,23692,2,0,B|485:195|435:152|435:152|441:120,1,140,0|2,0:0|0:0,0:0:0:0:
324,80,24833,1,2,0:0:0:0:
205,122,25322,2,0,P|171:129|132:120,1,70,8|0,0:0|0:0,0:0:0:0:
58,90,25974,1,8,0:0:0:0:
66,173,26300,6,0,L|75:256,1,70,4|8,0:0|0:0,0:0:0:0:
233,296,27279,1,8,0:0:0:0:
349,176,27931,1,8,0:0:0:0:
281,128,28257,2,0,L|221:84,1,70,2|8,0:0|0:0,0:0:0:0:
192,164,28909,6,0,B|212:180|212:180|184:224|196:268,2,105,0|2|8,0:0|0:0|0:0,0:0:0:0:
36,100,30540,2,0,L|64:24,2,70,8|2|4,0:0|0:0|0:0,0:0:0:0:
9,181,31518,6,0,P|14:234|105:304,1,175,4|2,0:0|0:0,0:0:0:0:
188,303,32659,2,0,P|225:296|259:305,2,70,2|2|8,0:0|0:0|0:0,0:0:0:0:
71,349,33800,1,8,0:0:0:0:
32,274,34127,6,0,B|10:236|26:193|26:193|9:180,2,105,4|4|2,0:0|0:0|0:0,0:0:0:0:
115,277,35431,2,0,P|167:269|216:231,1,105,4|2,0:0|0:0,0:0:0:0:
231,203,36083,2,0,L|211:135,1,70,2|8,0:0|0:0,0:0:0:0:
179,57,36735,6,0,P|247:59|291:110,1,140,4|0,0:0|0:0,0:0:0:0:
314,191,37713,1,8,0:0:0:0:
316,275,38040,2,0,B|366:270|388:230|388:230|417:239,2,105,2|2|8,0:0|0:0|0:0,0:0:0:0:
240,232,39344,5,2,0:0:0:0:
224,356,39833,2,0,B|165:347|133:296|133:296|97:315,2,140,2|2|2,0:0|0:0|0:0,0:0:0:0:
346,326,41627,1,8,0:0:0:0:
410,272,41953,6,0,P|435:196|410:134,1,140,2|0,0:0|0:0,0:0:0:0:
308,76,43094,2,0,L|200:76,1,105,2|8,0:0|0:0,0:0:0:0:
128,116,43909,1,2,0:0:0:0:
92,192,44235,1,8,0:0:0:0:
128,268,44561,6,0,B|160:284|160:284|204:248|256:240|308:248|352:284|352:284|384:268,1,280,2|2,0:0|0:0,0:0:0:0:
446,211,46192,2,0,P|467:254|464:291,2,70,8|2|2,0:0|0:0|0:0,0:0:0:0:
256,192,47170,12,8,49779,0:3:0:0:
359,137,50757,6,0,L|348:255,1,105,8|8,0:3|0:3,0:0:0:0:
256,328,51735,1,8,0:3:0:0:
176,304,52061,1,4,0:3:0:0:
100,272,52387,6,0,B|88:224|128:168|128:168|96:152,2,140,4|2|2,0:0|0:0|0:0,0:0:0:0:
200,348,54181,2,0,P|252:352|308:324,1,105,2|8,0:0|0:0,0:0:0:0:
356,272,54996,6,0,B|386:301|380:348|380:348|416:360,2,105,4|4|8,0:0|0:0|0:0,0:0:0:0:
284,228,56300,2,0,B|236:216|180:256|180:256|164:224,2,140,4|2|4,0:0|0:0|0:0,0:0:0:0:
452,252,58257,6,0,L|460:176,1,70,2|8,0:0|0:0,0:0:0:0:
431,103,58909,2,0,P|391:75|291:91,1,140,2|0,0:0|0:0,0:0:0:0:
232,126,59887,1,8,0:0:0:0:
167,179,60213,6,0,L|111:226,1,70,2|8,0:0|0:0,0:0:0:0:
172,283,60866,2,0,L|237:306,1,70,2|8,0:0|0:0,0:0:0:0:
320,320,61518,2,0,B|348:304|352:244|352:244|384:228|396:200,1,140,4|2,0:0|0:0,0:0:0:0:
416,128,62496,1,8,0:0:0:0:
348,80,62822,6,0,P|276:64|212:96,1,140,4|2,0:0|0:0,0:0:0:0:
164,156,63800,1,8,0:0:0:0:
212,224,64127,2,0,P|228:296|196:360,2,140,2|2|2,0:0|0:0|0:0,0:0:0:0:
164,156,65757,6,0,L|88:156,1,70,8|2,0:0|0:0,0:0:0:0:
34,215,66409,1,8,0:0:0:0:
76,288,66735,2,0,B|120:328|204:292|204:292|236:332|272:336,1,210,2|8,0:0|0:0,0:0:0:0:
344,360,68040,6,0,L|380:252,1,105,4|4,0:0|0:0,0:0:0:0:
253,147,69181,2,0,L|227:225,1,70,4|0,0:0|0:0,0:0:0:0:
205,293,69833,1,4,0:0:0:0:
80,311,70322,2,0,P|52:279|43:241,1,70,8|2,0:0|0:0,0:0:0:0:
30,170,70974,5,4,0:0:0:0:
84,106,71300,2,0,P|159:122|219:102,1,140,4|4,0:0|0:0,0:0:0:0:
290,60,72279,1,8,0:0:0:0:
356,111,72605,2,0,L|370:185,1,70,2|8,0:0|0:0,0:0:0:0:
421,245,73257,6,0,B|447:274|444:322|444:322|468:331,2,105,4|0|8,0:0|0:0|0:0,0:0:0:0:
369,179,74561,2,0,L|292:191,1,70,2|8,0:0|0:0,0:0:0:0:
240,249,75213,2,0,L|162:260,1,70,2|8,0:0|0:0,0:0:0:0:
88,272,75866,6,0,B|62:301|65:349|65:349|41:358,2,105,4|4|8,0:0|0:0|0:0,0:0:0:0:
170,259,77170,2,0,P|148:214|121:195,1,70,4|8,0:0|0:0,0:0:0:0:
100,176,77659,2,0,P|85:119|184:58,1,175,4|2,0:0|0:0,0:0:0:0:
252,72,78800,5,2,0:0:0:0:
300,140,79127,1,2,0:0:0:0:
384,144,79453,1,2,0:0:0:0:
440,208,79779,2,0,P|456:248|448:288,1,70,2|8,0:0|0:0,0:0:0:0:
436,312,80268,2,0,L|328:336,1,105,2|8,0:0|0:0,0:0:0:0:
274,275,81083,6,0,L|200:292,2,70,4|8|2,0:0|0:0|0:0,0:0:0:0:
333,215,82061,1,8,0:0:0:0:
320,132,82387,2,0,P|284:88|196:92,2,140,6|2|4,0:0|0:0|0:0,0:0:0:0:
333,215,84018,5,8,0:0:0:0:
274,275,84344,2,0,L|200:292,1,70,2|8,0:0|0:0,0:0:0:0:
121,290,84996,2,0,L|69:234,1,70,2|2,0:0|0:0,0:0:0:0:
120,168,85648,2,0,L|167:219,1,70,2|2,0:0|0:0,0:0:0:0:
256,192,86300,12,0,88909,0:0:0:0:
