osu file format v11

[General]
AudioFilename: ZAQ.mp3
AudioLeadIn: 2000
PreviewTime: 57875
Countdown: 0
SampleSet: Normal
StackLeniency: 0.7
Mode: 1
LetterboxInBreaks: 0

[Editor]
DistanceSpacing: 0
BeatDivisor: 4
GridSize: 4

[Metadata]
Title:Sparkling Daydream (TV Size)
TitleUnicode:Sparkling Daydream (TV Size)
Artist:ZAQ
ArtistUnicode:ZAQ
Creator:No_Gu
Version:TaiGu
Source:Chu-2 byo demo KOI ga shitai!
Tags:Chuunibyou opening Netsukawa Fumika 0OoMickeyoO0 Pokie Vicho kanpakyin climbb65588
BeatmapID:193971
BeatmapSetID:60620

[Difficulty]
HPDrainRate:5
CircleSize:4
OverallDifficulty:5
ApproachRate:5
SliderMultiplier:1.4
SliderTickRate:1

[Events]
//Background and Video events
0,0,"BG.png"
Video,245,"ZAQ.avi"
//Break Periods
//Storyboard Layer 0 (Background)
//Storyboard Layer 1 (Fail)
//Storyboard Layer 2 (Pass)
//Storyboard Layer 3 (Foreground)
//Storyboard Sound Samples
//Background Colour Transformations
3,100,163,162,255

[TimingPoints]
275,342.857142857143,4,1,0,70,1,0
57875,-100,4,1,0,70,0,1
82560,-100,4,1,0,70,0,0

[Colours]
Combo1 : 128,255,128
Combo2 : 0,128,192
Combo3 : 255,128,192
Combo4 : 255,128,128

[HitObjects]
256,192,275,1,8,0:0:0
256,192,446,1,8,0:0:0
256,192,617,1,0,0:0:0
256,192,789,1,8,0:0:0
256,192,960,1,0,0:0:0
256,192,1132,1,0,0:0:0
256,192,1303,1,8,0:0:0
256,192,1475,1,0,0:0:0
256,192,1646,1,0,0:0:0
256,192,1817,1,8,0:0:0
256,192,1989,1,0,0:0:0
256,192,2160,1,0,0:0:0
256,192,2332,1,8,0:0:0
256,192,2675,1,8,0:0:0
256,192,2760,1,8,0:0:0
256,192,2846,1,0,0:0:0
256,192,3360,1,12,0:0:0
256,192,3703,1,0,0:0:0
256,192,4046,1,8,0:0:0
256,192,4303,1,8,0:0:0
256,192,4389,1,0,0:0:0
256,192,4732,1,8,0:0:0
256,192,5075,1,0,0:0:0
256,192,5246,1,0,0:0:0
256,192,5417,1,8,0:0:0
256,192,5589,1,4,0:0:0
256,192,6103,1,8,0:0:0
256,192,6446,1,0,0:0:0
256,192,6789,1,8,0:0:0
256,192,7046,1,8,0:0:0
256,192,7132,1,0,0:0:0
256,192,7475,1,8,0:0:0
256,192,7732,1,8,0:0:0
256,192,7817,1,0,0:0:0
256,192,7989,1,0,0:0:0
256,192,8160,1,8,0:0:0
256,192,8332,1,8,0:0:0
256,192,8503,1,0,0:0:0
256,192,8675,1,8,0:0:0
256,192,8846,1,0,0:0:0
256,192,9103,1,8,0:0:0
256,192,9189,1,0,0:0:0
256,192,9360,1,8,0:0:0
256,192,9532,1,0,0:0:0
256,192,9703,1,8,0:0:0
256,192,9875,1,0,0:0:0
256,192,10046,1,8,0:0:0
256,192,10217,1,0,0:0:0
256,192,10475,1,8,0:0:0
256,192,10560,1,0,0:0:0
256,192,10732,1,8,0:0:0
256,192,10903,1,0,0:0:0
256,192,11075,1,12,0:0:0
256,192,11417,1,0,0:0:0
256,192,11589,1,8,0:0:0
256,192,11932,1,0,0:0:0
256,192,12103,1,0,0:0:0
256,192,12275,1,8,0:0:0
256,192,12617,1,0,0:0:0
256,192,12960,1,8,0:0:0
256,192,13303,1,0,0:0:0
256,192,13475,1,0,0:0:0
256,192,13989,1,12,0:0:0
256,192,14846,1,8,0:0:0
256,192,15017,1,8,0:0:0
256,192,15189,1,0,0:0:0
256,192,15703,1,8,0:0:0
256,192,15875,1,8,0:0:0
256,192,16732,1,0,0:0:0
256,192,17075,1,8,0:0:0
256,192,17246,1,8,0:0:0
256,192,17589,1,0,0:0:0
256,192,17932,1,0,0:0:0
256,192,18275,1,0,0:0:0
256,192,18446,1,8,0:0:0
256,192,18617,1,8,0:0:0
256,192,19132,1,12,0:0:0
256,192,19475,1,0,0:0:0
256,192,19817,1,8,0:0:0
256,192,19989,1,8,0:0:0
256,192,20675,1,0,0:0:0
256,192,21017,1,0,0:0:0
256,192,21189,1,8,0:0:0
256,192,21360,1,8,0:0:0
256,192,21703,1,0,0:0:0
256,192,21875,1,8,0:0:0
308,108,22217,2,0,B|395:144|395:273|317:337|193:337|120:268|120:153|197:108,1,525
256,192,23932,1,8,0:0:0
256,192,24189,1,8,0:0:0
256,192,24275,1,0,0:0:0
256,192,24532,1,0,0:0:0
256,192,24789,1,8,0:0:0
256,192,25303,1,12,0:0:0
256,192,25646,1,0,0:0:0
256,192,25989,1,8,0:0:0
256,192,26332,1,0,0:0:0
256,192,26675,1,8,0:0:0
256,192,27017,1,0,0:0:0
256,192,27360,1,8,0:0:0
256,192,27703,1,0,0:0:0
256,192,27875,1,0,0:0:0
256,192,28046,1,8,0:0:0
256,192,28389,1,0,0:0:0
256,192,28732,1,8,0:0:0
256,192,29075,1,0,0:0:0
256,192,29417,1,8,0:0:0
256,192,29760,1,0,0:0:0
256,192,29932,1,0,0:0:0
256,192,30103,1,8,0:0:0
256,192,30275,1,0,0:0:0
256,192,30446,1,0,0:0:0
256,192,30617,1,0,0:0:0
256,192,30789,1,8,0:0:0
256,192,31132,1,0,0:0:0
256,192,31475,1,8,0:0:0
256,192,31646,1,0,0:0:0
256,192,31817,1,0,0:0:0
256,192,32160,1,8,0:0:0
256,192,32503,1,0,0:0:0
256,192,32675,1,8,0:0:0
256,192,32846,1,8,0:0:0
256,192,33189,1,4,0:0:0
256,192,33532,1,8,0:0:0
256,192,33875,1,0,0:0:0
256,192,34217,1,8,0:0:0
256,192,34560,1,0,0:0:0
256,192,34903,1,8,0:0:0
256,192,35246,1,0,0:0:0
256,192,35588,1,8,0:0:0
256,192,35760,1,0,0:0:0
256,192,35846,1,0,0:0:0
256,192,35932,1,0,0:0:0
256,192,36103,1,0,0:0:0
256,192,36275,1,8,0:0:0
256,192,36618,1,0,0:0:0
256,192,36960,1,8,0:0:0
256,192,37303,1,0,0:0:0
256,192,37475,1,0,0:0:0
256,192,37646,1,8,0:0:0
256,192,37989,1,0,0:0:0
256,192,38331,1,8,0:0:0
256,192,38503,1,8,0:0:0
256,192,38675,1,0,0:0:0
256,192,39018,1,8,0:0:0
256,192,39361,1,0,0:0:0
256,192,39703,1,8,0:0:0
256,192,40046,1,0,0:0:0
256,192,40217,1,0,0:0:0
256,192,40389,1,8,0:0:0
256,192,40732,1,0,0:0:0
256,192,40903,1,8,0:0:0
256,192,41075,1,8,0:0:0
256,192,41246,1,8,0:0:0
256,192,41417,1,4,0:0:0
256,192,41760,1,8,0:0:0
256,192,42103,1,0,0:0:0
256,192,42446,1,8,0:0:0
256,192,42789,1,0,0:0:0
256,192,43132,1,8,0:0:0
256,192,43475,1,0,0:0:0
256,192,43646,1,0,0:0:0
256,192,43817,1,8,0:0:0
256,192,44160,1,0,0:0:0
256,192,44503,1,8,0:0:0
256,192,44846,1,0,0:0:0
256,192,45188,1,8,0:0:0
256,192,45532,1,0,0:0:0
256,192,45703,1,8,0:0:0
256,192,45875,1,8,0:0:0
256,192,46046,1,0,0:0:0
256,192,46218,1,0,0:0:0
256,192,46560,1,8,0:0:0
256,192,46732,1,0,0:0:0
256,192,46903,1,4,0:0:0
256,192,47246,1,8,0:0:0
256,192,47503,1,8,0:0:0
256,192,47589,1,0,0:0:0
256,192,47760,1,8,0:0:0
256,192,47932,1,8,0:0:0
256,192,48275,1,0,0:0:0
256,192,48446,1,8,0:0:0
256,192,48617,1,8,0:0:0
256,192,48874,1,8,0:0:0
256,192,48960,1,0,0:0:0
256,192,49303,1,8,0:0:0
256,192,49646,1,0,0:0:0
256,192,49817,1,8,0:0:0
256,192,49989,1,8,0:0:0
256,192,50246,1,8,0:0:0
256,192,50332,1,0,0:0:0
256,192,50503,1,8,0:0:0
256,192,50675,1,8,0:0:0
256,192,50846,1,8,0:0:0
256,192,51017,1,0,0:0:0
256,192,51360,1,8,0:0:0
256,192,51617,1,8,0:0:0
256,192,51703,1,0,0:0:0
256,192,52046,1,8,0:0:0
256,192,52389,1,4,0:0:0
256,192,52732,1,8,0:0:0
256,192,53075,1,0,0:0:0
256,192,53417,1,8,0:0:0
256,192,53760,1,0,0:0:0
256,192,54103,1,8,0:0:0
256,192,54360,1,8,0:0:0
256,192,54446,1,0,0:0:0
256,192,54789,1,8,0:0:0
256,192,55132,1,0,0:0:0
256,192,55303,1,0,0:0:0
256,192,55475,1,8,0:0:0
256,192,55646,1,0,0:0:0
256,192,55817,1,0,0:0:0
256,192,55989,1,0,0:0:0
256,192,56160,1,8,0:0:0
256,192,56332,1,0,0:0:0
256,192,56503,1,8,0:0:0
256,192,56589,1,0,0:0:0
256,192,56675,1,0,0:0:0
256,192,56760,1,0,0:0:0
256,192,56846,1,0,0:0:0
256,192,57360,1,0,0:0:0
256,192,57532,1,12,0:0:0
256,192,57875,1,4,0:0:0
256,192,58217,1,8,0:0:0
256,192,58560,1,0,0:0:0
256,192,58903,1,8,0:0:0
256,192,59246,1,0,0:0:0
256,192,59588,1,8,0:0:0
256,192,59760,1,0,0:0:0
256,192,59931,1,0,0:0:0
256,192,60274,1,8,0:0:0
256,192,60617,1,0,0:0:0
256,192,60959,1,8,0:0:0
256,192,61302,1,0,0:0:0
256,192,61645,1,8,0:0:0
256,192,61988,1,0,0:0:0
256,192,62160,1,0,0:0:0
256,192,62332,1,8,0:0:0
256,192,62675,1,0,0:0:0
256,192,62932,1,0,0:0:0
256,192,63189,1,12,0:0:0
256,192,63360,1,0,0:0:0
256,192,63532,1,0,0:0:0
256,192,63703,1,8,0:0:0
256,192,64046,1,0,0:0:0
256,192,64389,1,8,0:0:0
256,192,64732,1,0,0:0:0
256,192,65075,1,8,0:0:0
256,192,65332,1,8,0:0:0
256,192,65417,1,0,0:0:0
256,192,65760,1,8,0:0:0
256,192,66103,1,0,0:0:0
256,192,66446,1,8,0:0:0
256,192,66617,1,0,0:0:0
256,192,66960,1,0,0:0:0
256,192,67132,1,8,0:0:0
256,192,67475,1,0,0:0:0
256,192,67817,1,8,0:0:0
256,192,67989,1,0,0:0:0
256,192,68160,1,0,0:0:0
256,192,68332,1,0,0:0:0
256,192,68503,1,8,0:0:0
256,192,68675,1,0,0:0:0
256,192,68846,1,4,0:0:0
256,192,69188,1,8,0:0:0
256,192,69531,1,0,0:0:0
256,192,69874,1,8,0:0:0
256,192,70217,1,0,0:0:0
256,192,70559,1,8,0:0:0
256,192,70732,1,0,0:0:0
256,192,70902,1,0,0:0:0
256,192,71075,1,8,0:0:0
256,192,71245,1,8,0:0:0
256,192,71588,1,0,0:0:0
256,192,71932,1,8,0:0:0
256,192,72275,1,0,0:0:0
256,192,72616,1,8,0:0:0
256,192,72960,1,0,0:0:0
256,192,73132,1,0,0:0:0
256,192,73303,1,8,0:0:0
256,192,73646,1,0,0:0:0
256,192,73817,1,0,0:0:0
256,192,73989,1,8,0:0:0
256,192,74160,1,8,0:0:0
256,192,74332,1,4,0:0:0
256,192,74675,1,12,0:0:0
256,192,75017,1,0,0:0:0
256,192,75360,1,12,0:0:0
256,192,75703,1,0,0:0:0
256,192,76046,1,12,0:0:0
256,192,76389,1,0,0:0:0
256,192,76560,1,0,0:0:0
256,192,76732,1,12,0:0:0
256,192,77075,1,0,0:0:0
256,192,77418,1,12,0:0:0
256,192,77760,1,0,0:0:0
256,192,78103,1,12,0:0:0
256,192,78446,1,0,0:0:0
256,192,78789,1,12,0:0:0
256,192,79131,1,0,0:0:0
256,192,79303,1,0,0:0:0
256,192,79474,1,12,0:0:0
256,192,79817,1,0,0:0:0
256,192,80160,1,8,0:0:0
256,192,80503,1,0,0:0:0
256,192,80846,1,8,0:0:0
256,192,81189,1,0,0:0:0
256,192,81360,1,0,0:0:0
256,192,81532,1,8,0:0:0
256,192,82046,1,0,0:0:0
256,192,82217,1,8,0:0:0
256,192,82303,1,8,0:0:0
256,192,82389,1,8,0:0:0
256,192,82560,1,4,0:0:0
256,192,82903,1,8,0:0:0
256,192,83246,1,0,0:0:0
256,192,83589,1,8,0:0:0
256,192,83932,1,0,0:0:0
256,192,84275,1,8,0:0:0
256,192,84446,1,0,0:0:0
256,192,84617,1,0,0:0:0
256,192,84960,1,8,0:0:0
256,192,85046,1,0,0:0:0
256,192,85132,1,0,0:0:0
256,192,85303,1,0,0:0:0
256,192,85475,1,8,0:0:0
256,192,85646,1,8,0:0:0
256,192,85817,1,0,0:0:0
256,192,85989,1,8,0:0:0
256,192,86160,1,8,0:0:0
256,192,86332,1,0,0:0:0
256,192,86503,1,8,0:0:0
256,192,86675,1,8,0:0:0
256,192,86846,1,0,0:0:0
256,192,87017,1,8,0:0:0
256,192,87189,1,8,0:0:0
256,192,87360,1,0,0:0:0
256,192,87532,1,0,0:0:0
256,192,87703,1,8,0:0:0
256,192,87875,1,4,0:0:0
