osu file format v11

[General]
AudioFilename: ZAQ.mp3
AudioLeadIn: 2000
PreviewTime: 57875
Countdown: 0
SampleSet: Soft
StackLeniency: 0.3
Mode: 0
LetterboxInBreaks: 0

[Editor]
DistanceSpacing: 1
BeatDivisor: 4
GridSize: 4

[Metadata]
Title:Sparkling Daydream (TV Size)
TitleUnicode:Sparkling Daydream (TV Size)
Artist:ZAQ
ArtistUnicode:ZAQ
Creator:No_Gu
Version:Insane
Source:Chu-2 byo demo KOI ga shitai!
Tags:Chuunibyou opening Netsukawa Fumika 0OoMickeyoO0 Pokie Vicho kanpakyin climbb65588
BeatmapID:181199
BeatmapSetID:60620

[Difficulty]
HPDrainRate:7
CircleSize:4
OverallDifficulty:7
ApproachRate:9
SliderMultiplier:1.76
SliderTickRate:1

[Events]
//Background and Video events
Video,245,"ZAQ.avi"
0,0,"BG.png"
//Break Periods
//Storyboard Layer 0 (Background)
//Storyboard Layer 1 (Fail)
//Storyboard Layer 2 (Pass)
//Storyboard Layer 3 (Foreground)
//Storyboard Sound Samples
//Background Colour Transformations
3,100,163,162,255

[TimingPoints]
275,342.857142857143,4,2,1,30,1,0
789,-100,4,2,1,50,0,0
960,-100,4,2,1,40,0,0
1303,-100,4,2,1,60,0,0
1475,-100,4,2,1,50,0,0
1817,-100,4,2,1,60,0,0
1989,-100,4,2,1,50,0,0
2160,-100,4,2,1,60,0,0
2332,-100,4,2,1,70,0,0
2846,-100,4,2,1,80,0,1
2932,-100,4,1,1,80,0,0
3360,-100,4,2,2,80,0,0
3446,-100,4,2,1,80,0,0
3703,-100,4,1,1,80,0,0
3789,-100,4,2,1,80,0,0
4046,-100,4,1,1,80,0,0
4132,-100,4,2,1,80,0,0
4303,-100,4,1,1,80,0,0
4389,-100,4,2,1,80,0,0
4732,-100,4,1,1,80,0,0
4903,-100,4,2,1,80,0,0
5246,-100,4,1,1,80,0,0
5417,-100,4,2,1,80,0,0
6103,-100,4,1,1,80,0,0
6189,-100,4,2,1,80,0,0
7046,-100,4,1,1,80,0,0
7217,-100,4,2,1,80,0,0
7732,-100,4,1,1,80,0,0
8160,-100,4,2,1,80,0,0
9189,-100,4,1,1,80,0,0
9360,-100,4,2,1,80,0,0
9532,-100,4,1,1,80,0,0
9703,-100,4,2,1,80,0,0
10046,-100,4,1,1,80,0,0
10217,-100,4,2,1,80,0,0
10560,-100,4,1,1,80,0,0
10732,-100,4,2,1,80,0,0
10903,-100,4,1,1,80,0,0
11075,-100,4,2,1,80,0,0
13303,-100,4,1,1,80,0,0
13989,-100,4,2,1,50,0,0
22217,-100,4,2,1,60,0,0
24275,-100,4,1,1,60,0,0
25303,-100,4,2,1,60,0,0
25646,-100,4,2,1,60,0,0
27703,-100,4,1,1,40,0,0
28046,-100,4,2,1,60,0,0
29760,-100,4,1,1,40,0,0
30617,-100,4,2,1,60,0,0
35932,-100,4,1,1,40,0,0
36275,-100,4,2,1,60,0,0
36617,-100,4,1,1,40,0,0
36960,-100,4,2,1,60,0,0
40046,-100,4,1,1,40,0,0
40389,-100,4,2,1,60,0,0
40732,-100,4,1,1,60,0,0
40903,-100,4,2,1,60,0,0
46560,-100,4,1,1,40,0,0
47503,-100,4,2,1,40,0,0
47589,-100,4,1,1,40,0,0
47760,-100,4,2,1,40,0,0
47932,-100,4,1,1,40,0,0
48103,-100,4,2,1,40,0,0
48275,-100,4,1,1,20,0,0
48446,-100,4,2,1,40,0,0
48617,-100,4,1,1,40,0,0
48875,-100,4,2,1,40,0,0
48960,-100,4,1,1,40,0,0
49132,-100,4,2,1,40,0,0
49303,-100,4,1,1,40,0,0
49475,-100,4,2,1,40,0,0
49646,-100,4,1,1,50,0,0
49817,-100,4,2,1,40,0,0
49989,-100,4,1,1,40,0,0
50160,-100,4,2,1,40,0,0
50246,-100,4,1,1,40,0,0
50332,-100,4,2,1,40,0,0
50417,-100,4,1,1,40,0,0
50503,-100,4,2,1,40,0,0
50675,-100,4,1,1,40,0,0
50846,-100,4,2,1,40,0,0
51017,-100,4,1,1,50,0,0
51360,-100,4,1,1,40,0,0
51532,-100,4,2,1,40,0,0
51617,-100,4,1,1,40,0,0
51703,-100,4,2,1,40,0,0
51789,-100,4,1,1,40,0,0
52217,-100,4,2,1,40,0,0
52389,-100,4,1,1,60,0,0
52903,-100,4,2,1,60,0,0
53075,-100,4,1,1,60,0,0
53246,-100,4,2,1,60,0,0
53417,-100,4,1,1,60,0,0
53589,-100,4,2,1,60,0,0
53760,-100,4,1,1,60,0,0
53932,-100,4,2,1,60,0,0
54103,-100,4,1,1,60,0,0
54275,-100,4,2,1,60,0,0
54446,-100,4,1,1,60,0,0
54617,-100,4,2,1,60,0,0
54789,-100,4,1,1,60,0,0
54960,-100,4,2,1,60,0,0
55132,-100,4,1,1,60,0,0
55732,-100,4,2,1,60,0,0
55817,-100,4,1,1,60,0,0
57532,-100,4,2,2,60,0,0
57617,-100,4,1,1,30,0,0
57875,-100,4,1,1,80,0,1
58046,-100,4,2,1,80,0,1
58217,-100,4,1,1,80,0,1
58389,-100,4,2,1,80,0,1
58560,-100,4,1,1,80,0,1
58732,-100,4,2,1,80,0,1
58903,-100,4,1,1,80,0,1
59075,-100,4,2,1,80,0,1
59246,-100,4,1,1,80,0,1
59417,-100,4,2,1,80,0,1
59589,-100,4,1,1,80,0,1
59760,-100,4,2,1,80,0,1
59932,-100,4,1,1,80,0,1
60103,-100,4,2,1,80,0,1
60275,-100,4,1,1,80,0,1
60446,-100,4,2,1,80,0,1
60617,-100,4,1,1,80,0,1
60789,-100,4,2,1,80,0,1
60960,-100,4,1,1,80,0,1
61132,-100,4,2,1,80,0,1
61303,-100,4,1,1,80,0,1
61475,-100,4,2,1,80,0,1
61646,-100,4,1,1,80,0,1
61817,-100,4,2,1,80,0,1
61989,-100,4,1,1,80,0,1
62503,-100,4,2,1,80,0,1
62675,-100,4,1,1,80,0,1
62846,-100,4,2,1,80,0,1
62932,-100,4,1,1,80,0,1
63189,-100,4,2,1,80,0,1
63360,-100,4,1,1,80,0,1
63532,-100,4,2,1,80,0,1
63703,-100,4,1,1,80,0,1
63875,-100,4,2,1,80,0,1
64046,-100,4,1,1,80,0,1
64217,-100,4,2,1,80,0,1
64389,-100,4,1,1,80,0,1
64560,-100,4,2,1,80,0,1
64732,-100,4,1,1,80,0,1
64903,-100,4,2,1,80,0,1
65075,-100,4,1,1,80,0,1
65246,-100,4,2,1,80,0,1
65417,-100,4,1,1,80,0,1
65589,-100,4,2,1,80,0,1
65760,-100,4,1,1,80,0,1
65932,-100,4,2,1,80,0,1
66103,-100,4,1,1,80,0,1
66275,-100,4,2,1,80,0,1
66446,-100,4,1,1,80,0,1
67303,-100,4,2,1,80,0,1
67475,-100,4,1,1,80,0,1
67646,-100,4,2,1,80,0,1
67817,-100,4,1,1,80,0,1
67989,-100,4,2,1,80,0,1
68160,-100,4,1,1,40,0,1
68332,-100,4,1,1,50,0,1
68503,-100,4,1,1,60,0,1
68675,-100,4,1,1,70,0,1
68760,-100,4,1,1,80,0,0
68846,-100,4,1,1,80,0,1
69017,-100,4,2,1,80,0,1
69188,-100,4,1,1,80,0,1
69360,-100,4,2,1,80,0,1
69531,-100,4,1,1,80,0,1
69703,-100,4,2,1,80,0,1
69874,-100,4,1,1,80,0,1
70046,-100,4,2,1,80,0,1
70217,-100,4,1,1,80,0,1
70388,-100,4,2,1,80,0,1
70560,-100,4,1,1,80,0,1
70731,-100,4,2,1,80,0,1
70903,-100,4,1,1,80,0,1
71074,-100,4,2,1,80,0,1
71246,-100,4,1,1,80,0,1
71417,-100,4,2,1,80,0,1
71588,-100,4,1,1,80,0,1
71760,-100,4,2,1,80,0,1
71931,-100,4,1,1,80,0,1
72103,-100,4,2,1,80,0,1
72274,-100,4,1,1,80,0,1
72446,-100,4,2,1,80,0,1
72617,-100,4,1,1,80,0,1
72788,-100,4,2,1,80,0,1
72960,-100,4,1,1,80,0,1
73903,-100,4,1,1,50,0,1
74331,-100,4,1,1,80,0,1
74503,-100,4,2,1,80,0,1
74674,-100,4,1,1,80,0,1
74846,-100,4,2,1,80,0,1
75017,-100,4,1,1,80,0,1
75188,-100,4,2,1,80,0,1
75360,-100,4,1,1,80,0,1
75531,-100,4,2,1,80,0,1
75703,-100,4,1,1,80,0,1
75874,-100,4,2,1,80,0,1
76046,-100,4,1,1,80,0,1
76217,-100,4,2,1,40,0,1
76388,-100,4,1,1,80,0,1
76560,-100,4,2,1,80,0,1
76731,-100,4,1,1,80,0,1
76903,-100,4,2,1,80,0,1
77074,-100,4,1,1,80,0,1
77246,-100,4,2,1,80,0,1
77417,-100,4,1,1,80,0,1
77589,-100,4,2,1,80,0,1
77760,-100,4,1,1,80,0,1
77932,-100,4,2,1,80,0,1
78103,-100,4,1,1,80,0,1
78274,-100,4,2,1,80,0,1
78446,-100,4,1,1,80,0,1
78617,-100,4,2,1,80,0,1
78788,-100,4,1,1,80,0,1
78960,-100,4,2,1,80,0,1
79131,-100,4,1,1,80,0,1
79303,-100,4,2,1,80,0,1
79475,-100,4,1,1,80,0,1
79646,-100,4,2,1,80,0,1
79817,-100,4,1,1,80,0,1
79989,-100,4,2,1,80,0,1
80160,-100,4,1,1,80,0,1
80332,-100,4,2,1,80,0,1
80503,-100,4,1,1,80,0,1
80675,-100,4,2,1,80,0,1
80846,-100,4,1,1,80,0,1
81017,-100,4,2,1,80,0,1
81189,-100,4,1,1,80,0,1
81703,-100,4,2,1,80,0,1
81789,-100,4,2,1,40,0,1
81875,-100,4,3,1,40,0,1
82046,-100,4,1,1,65,0,1
82560,-100,4,1,1,60,0,0
82732,-100,4,2,1,60,0,0
83246,-100,4,1,1,60,0,0
83417,-100,4,2,1,60,0,0
83932,-100,4,1,1,50,0,0
84446,-100,4,1,1,55,0,0
84960,-100,4,1,1,60,0,0
85303,-100,4,1,1,60,0,0
85475,-100,4,2,1,35,0,0
85817,-100,4,1,1,60,0,0
85989,-100,4,2,1,35,0,0
86332,-100,4,1,1,60,0,0
86503,-100,4,2,1,35,0,0
86846,-100,4,1,1,60,0,0
87017,-100,4,2,1,35,0,0
87360,-100,4,1,1,60,0,0
87875,-100,4,1,0,50,0,1
87960,-100,4,2,1,80,0,0

[Colours]
Combo1 : 128,255,128
Combo2 : 0,128,192
Combo3 : 255,128,192
Combo4 : 255,128,128

[HitObjects]
40,88,275,1,2,0:0:0
100,144,446,1,0,0:0:0
180,120,617,1,0,0:0:0
192,40,789,1,2,0:0:0
156,204,960,5,0,0:0:0
229,232,1131,1,0,0:0:0
285,174,1303,1,2,0:0:0
168,284,1475,5,0,0:0:0
210,349,1646,1,0,0:0:0
289,335,1818,1,2,0:0:0
391,214,1989,1,0,0:0:0
440,364,2160,1,2,0:0:0
376,303,2332,5,2,0:0:0
355,287,2417,1,0,0:0:0
334,270,2503,1,2,0:0:0
313,253,2589,1,0,0:0:0
275,242,2675,1,2,1:0:0
241,215,2760,1,0,1:0:0
207,187,2846,6,0,B|193:136|93:115|59:178|93:221|175:226|162:145|116:102,1,264,4|4,1:0|0:0,0:0:0
448,240,3703,1,0,0:0:0
344,192,3875,1,0,0:0:0
272,280,4046,2,0,B|230:302|186:286,1,88,0|0,0:0|0:0,0:0:0
124,332,4303,5,0,0:0:0
124,332,4389,2,0,B|36:340,1,88
228,204,4732,2,0,B|316:212,1,88,0|0,0:0|0:0,0:0:0
140,64,5075,1,0,1:0:0
228,80,5246,1,0,0:0:0
316,96,5417,1,8,0:0:0
340,244,5589,6,0,B|296:276|240:244|240:200|240:200|260:160,1,176,4|0,0:0|0:0,0:0:0
168,192,6103,2,0,B|124:208|80:184,1,88
48,112,6446,1,0,1:0:0
56,272,6617,1,0,0:0:0
200,344,6789,2,0,B|292:344,1,88,8|0,0:0|0:0,0:0:0
344,288,7046,5,0,0:0:0
344,288,7132,2,0,B|388:304|428:280,1,88,0|0,0:0|0:0,0:0:0
312,156,7475,2,0,B|268:140|228:164,1,88,8|0,0:0|0:0,0:0:0
188,232,7732,1,0,0:0:0
188,232,7817,2,0,B|100:224,1,88
344,288,8160,2,0,B|432:280,1,88,8|4,0:0|0:0,0:0:0
496,204,8503,5,0,1:0:0
456,112,8675,1,0,2:0:0
356,104,8846,2,0,B|320:132|256:120|240:84,1,132,8|0,0:0|0:0,0:0:0
236,48,9189,1,0,0:0:0
104,120,9360,1,2,0:0:0
236,48,9532,1,0,0:0:0
104,120,9703,1,2,0:0:0
104,120,10046,5,0,0:0:0
60,204,10217,2,0,B|32:272|84:328,1,132,8|0,0:0|0:0,0:0:0
112,344,10560,1,0,0:0:0
248,280,10732,1,2,0:0:0
112,344,10903,1,0,0:0:0
248,280,11075,6,0,B|264:224|352:212|392:264,1,176,4|2,0:0|0:0,0:0:0
324,332,11589,1,8,0:0:0
164,312,11760,2,0,B|108:296|96:208|148:168,1,176,2|2,0:0|0:0,0:0:0
240,200,12275,1,8,0:0:0
296,120,12446,6,0,B|356:120|356:120|408:144|408:144|468:144,1,176,2|2,0:0|0:0,0:0:0
504,60,12960,2,0,B|416:60,1,88,8|2,0:0|0:0,0:0:0
88,268,13303,2,0,B|176:268,1,88
440,296,13989,6,0,B|376:320|320:244|356:192,1,176,4|0,0:0|0:0,0:0:0
432,216,14503,1,2,0:0:0
304,112,14675,2,0,B|256:96|216:124,1,88,0|2,0:0|0:0,0:0:0
272,188,15017,1,2,0:0:0
340,36,15189,6,0,B|244:4|164:60,1,176,2|0,0:0|0:0,0:0:0
116,132,15703,1,2,0:0:0
116,132,15875,2,0,B|140:308,1,176,2|2,0:0|0:0,0:0:0
224,360,16389,1,2,0:0:0
224,360,16475,1,0,0:0:0
224,360,16560,2,0,B|268:376|308:348,1,88,0|2,0:0|0:0,0:0:0
408,264,16903,6,0,B|424:308|396:348,1,88,0|2,0:0|0:0,0:0:0
396,347,17246,2,0,B|484:340,1,88,2|0,0:0|0:0,0:0:0
416,176,17589,2,0,B|240:191,1,176,2|2,0:0|0:0,0:0:0
20,296,18275,5,2,0:0:0
80,356,18446,1,2,0:0:0
80,356,18617,2,0,B|120:396|208:356|196:292|196:292|240:324|288:300,1,264,2|2,0:0|0:0,0:0:0
316,224,19303,1,0,0:0:0
416,116,19475,6,0,B|412:152|384:172|384:172|420:228|384:276,1,176,2|2,0:0|0:0,0:0:0
385,274,19989,1,2,0:0:0
280,160,20160,1,0,0:0:0
144,236,20332,2,0,B|112:280|40:256|36:212|36:212|48:176,2,176,0|2|2,0:0|0:0|0:0,0:0:0
196,128,21189,5,2,0:0:0
196,128,21360,1,2,0:0:0
296,196,21532,2,0,B|352:196|352:196|404:216|404:216|468:216,1,176,0|2,0:0|0:0,0:0:0
284,44,22217,6,0,B|240:40,3,44,2|0|2|0,0:0|0:0|0:0|0:0,0:0:0
124,88,22560,2,0,B|168:84,3,44,2|0|2|0,0:0|0:0|0:0|0:0,0:0:0
320,136,22903,2,0,B|276:132,3,44,2|0|2|0,0:0|0:0|0:0|0:0,0:0:0
80,176,23246,2,0,B|124:172,3,44,2|0|2|0,0:0|0:0|0:0|0:0,0:0:0
372,308,23760,5,2,0:0:0
448,344,23932,2,8,B|468:312|452:276|452:276|484:280|512:248,1,132
452,200,24275,2,0,B|320:216,2,132
208,108,25303,6,0,B|172:112|144:92|144:92|128:120|88:132,1,132,4|0,0:0|0:0,0:0:0
52,156,25646,6,0,B|40:244,1,88,2|0,0:0|0:0,0:0:0
168,308,25989,2,0,B|180:220,1,88,8|0,0:0|0:0,0:0:0
264,168,26332,6,0,B|348:196|436:160,1,176,2|8,0:0|0:0,0:0:0
476,84,26846,1,0,0:0:0
496,228,27017,2,0,B|512:272|492:312,1,88,2|0,0:0|0:0,0:0:0
344,364,27360,2,0,B|328:320|348:280,1,88,8|0,0:0|0:0,0:0:0
408,216,27703,5,0,0:0:0
280,232,27875,1,0,0:0:0
172,160,28046,1,8,0:0:0
296,128,28217,2,0,B|320:224|268:296,1,176,2|2,0:0|0:0,0:0:0
140,364,28732,1,8,0:0:0
16,296,28903,6,0,B|-8:200|44:128,1,176,2|2,0:0|0:0,0:0:0
140,52,29417,2,0,B|133:95|167:132,1,88,8|0,0:0|0:0,0:0:0
299,253,29760,1,0,0:0:0
259,116,29932,1,0,0:0:0
372,204,30103,1,8,0:0:0
229,199,30275,1,0,0:0:0
347,119,30446,5,2,0:0:0
460,208,30617,1,0,0:0:0
380,328,30789,1,8,0:0:0
380,328,31132,2,0,B|360:332|336:320|336:320|292:376|216:352,1,176,2|8,0:0|0:0,0:0:0
260,272,31646,6,0,B|276:96,1,176,2|0,0:0|0:0,0:0:0
104,120,32160,1,8,0:0:0
192,132,32332,1,0,0:0:0
93,257,32503,1,2,0:0:0
164,204,32675,1,0,0:0:0
191,359,32846,1,8,0:0:0
204,272,33018,1,0,0:0:0
336,340,33189,6,0,B|384:384|464:360|476:300,1,176,4|8,0:0|0:0,0:0:0
348,188,33703,1,0,0:0:0
348,188,33789,1,0,0:0:0
348,188,33875,2,0,B|320:148|332:104,1,88
488,136,34217,2,8,B|516:176|504:220,1,88,8|0,0:0|0:0,0:0:0
440,284,34560,5,2,0:0:0
352,268,34732,1,0,0:0:0
304,192,34903,2,0,B|260:184|216:196,1,88,8|0,0:0|0:0,0:0:0
64,308,35246,1,2,0:0:0
64,308,35589,1,8,0:0:0
64,308,35932,5,0,0:0:0
112,220,36103,1,0,0:0:0
208,188,36275,2,0,B|236:148|224:104,1,88,8|0,0:0|0:0,0:0:0
192,288,36617,2,0,B|372:276,1,176,0|8,0:0|0:0,0:0:0
444,196,37132,1,0,0:0:0
444,196,37217,1,0,0:0:0
444,196,37303,6,0,B|468:152|452:108,1,88,2|0,0:0|0:0,0:0:0
304,88,37646,2,0,B|280:132|296:176,1,88,8|0,0:0|0:0,0:0:0
372,140,37989,2,0,B|196:116,1,176,2|8,0:0|0:0,0:0:0
64,88,38503,1,8,0:0:0
84,224,38675,6,0,B|172:200,1,88,2|0,0:0|0:0,0:0:0
176,340,39017,2,0,B|221:260,1,88,10|0,0:0|0:0,0:0:0
320,360,39360,2,0,B|296:272,1,88,2|0,0:0|0:0,0:0:0
436,268,39702,2,0,B|356:222,1,88,10|2,0:0|0:0,0:0:0
304,144,40046,5,0,0:0:0
332,52,40217,1,0,0:0:0
428,36,40389,1,8,0:0:0
428,36,40732,1,0,0:0:0
304,144,40903,1,8,0:0:0
332,52,41075,1,8,0:0:0
359,224,41246,1,8,0:0:0
260,232,41417,6,0,B|200:220|168:160|168:160|172:188|152:212,1,176,4|8,0:0|0:0,0:0:0
16,184,41932,2,0,B|44:200|76:188|76:188|64:228|80:272|120:284,1,176
104,104,42446,2,0,B|140:72|188:80,1,88,8|0,0:0|0:0,0:0:0
264,144,42789,5,2,0:0:0
360,112,42960,1,2,0:0:0
392,16,43132,1,10,0:0:0
440,180,43303,1,2,0:0:0
392,16,43475,1,0,0:0:0
264,144,43646,1,0,0:0:0
204,228,43817,2,0,B|156:236|117:220,1,88,8|0,0:0|0:0,0:0:0
360,288,44160,6,0,B|327:296|303:268|303:268|292:304|247:328|211:316,1,176,2|8,0:0|0:0,0:3:0
360,212,44675,2,0,B|372:168|372:168|404:132|456:136|488:168,1,176,0|2,0:0|0:0,0:0:0
428,248,45189,1,8,0:0:0
292,148,45360,6,0,B|280:192|280:192|248:228|196:224|164:192,1,176,2|2,0:0|0:0,0:0:0
148,168,45789,1,0,0:0:0
136,144,45875,1,10,0:0:0
132,120,45960,1,0,0:0:0
136,92,46046,1,2,0:0:0
152,68,46132,1,0,0:0:0
176,56,46217,1,2,0:0:0
204,52,46303,1,0,0:0:0
232,56,46389,1,2,0:0:0
256,64,46475,1,0,0:0:0
280,72,46560,6,0,P|340:60,1,44,10|0,0:0|0:0,0:0:0
448,120,46732,2,0,P|404:128,1,44,2|0,0:0|0:0,0:0:0
428,248,46903,5,4,0:0:0
112,272,47246,2,0,B|152:244|208:248|236:272,1,132,8|8,0:0|0:0,0:0:0
288,332,47589,2,0,B|324:300|308:252,2,88,0|0|8,0:0|0:0|0:0,0:0:0
212,348,48103,1,0,0:0:0
376,192,48275,6,0,B|464:216,1,88,2|0,0:0|0:0,0:0:0
316,120,48617,2,0,B|183:156,1,132,8|8,0:0|0:0,0:0:0
124,212,48960,2,0,B|108:256|132:300,1,88
56,156,49303,2,0,B|72:112|48:68,1,88,8|0,0:0|0:0,0:0:0
168,152,49646,5,2,0:0:0
308,180,49817,1,0,0:0:0
444,132,49989,1,8,0:0:0
320,292,50160,1,0,0:0:0
320,292,50246,1,8,0:0:0
320,292,50332,1,0,0:0:0
320,292,50417,1,8,0:0:0
320,292,50503,2,0,B|408:304,1,88,8|8,0:0|0:0,0:0:0
440,184,50846,1,0,0:0:0
332,124,51017,6,0,B|272:96|292:32|292:32|312:60|348:64,1,176,2|8,0:0|0:0,0:0:0
224,148,51532,1,0,0:0:0
224,148,51617,1,8,0:0:0
224,148,51703,1,0,0:0:0
224,148,51789,1,8,0:0:0
224,148,51875,2,0,B|180:164|136:144,1,88,8|8,0:0|0:0,0:0:0
20,64,52217,1,0,0:0:0
8,244,52389,6,0,B|96:276|184:236,1,176,6|8,0:0|0:0,0:0:0
304,328,52903,1,0,0:0:0
304,328,52989,1,0,0:0:0
304,328,53075,2,0,B|392:320,1,88,2|0,0:0|0:0,0:0:0
472,200,53417,2,0,B|384:208,1,88,8|0,0:0|0:0,0:0:0
300,164,53760,6,0,B|276:124|296:80,1,88,2|0,0:0|0:0,0:0:0
376,36,54103,1,8,0:0:0
204,112,54275,1,0,0:0:0
280,284,54446,2,0,B|272:372,1,88,2|0,0:0|0:0,0:0:0
128,296,54789,2,0,B|136:208,1,88,8|0,0:0|0:0,0:0:0
196,144,55132,5,0,0:0:0
369,116,55303,1,0,0:0:0
306,280,55475,1,0,0:0:0
292,180,55646,1,0,0:0:0
292,180,55732,1,0,0:0:0
292,180,55817,1,0,0:0:0
389,224,55989,1,0,0:0:0
217,251,56160,1,0,0:0:0
280,88,56332,1,0,0:0:0
306,280,56503,5,0,0:0:0
306,280,56589,1,0,0:0:0
306,280,56675,1,0,0:0:0
306,280,56760,1,0,0:0:0
304,280,56846,1,0,0:0:0
8,100,57360,5,0,0:0:0
144,88,57532,1,4,0:0:0
144,88,57617,1,0,0:0:0
144,88,57703,1,0,0:0:0
200,212,57875,5,4,0:0:0
176,304,58046,1,2,0:0:0
256,136,58217,2,0,B|292:108|340:120,1,88,8|2,0:0|0:0,0:0:0
200,212,58560,1,0,0:0:0
112,240,58732,1,2,0:0:0
100,256,58817,1,0,0:0:0
84,272,58903,2,0,B|36:284|0:256,1,88,8|2,0:0|0:0,0:0:0
44,92,59246,6,0,B|92:80|128:108,1,88,0|2,0:0|0:0,0:0:0
168,188,59589,1,8,0:0:0
252,144,59760,2,0,B|280:104|268:60,2,88,2|0|2,0:0|0:0|0:0,0:0:0
80,172,60275,1,8,0:0:0
196,300,60446,1,2,0:0:0
196,300,60532,1,0,0:0:0
196,300,60617,6,0,B|284:296,1,88,0|2,0:0|0:0,0:0:0
432,212,60960,2,0,B|344:216,1,88,8|2,0:0|0:0,0:0:0
176,320,61303,6,0,B|264:316,1,88,0|2,0:0|0:0,0:0:0
448,192,61646,2,0,B|360:196,1,88,8|2,0:0|0:0,0:0:0
272,152,61989,5,0,0:0:0
256,56,62160,1,0,0:0:0
216,228,62332,1,8,0:0:0
41,214,62503,1,0,0:0:0
44,37,62675,2,0,B|132:28,1,88
169,47,62932,2,0,B|98:76|44:37,1,132,0|4,0:0|0:0,0:0:0
248,88,63360,5,0,0:0:0
268,176,63532,1,2,0:0:0
204,240,63703,2,0,B|160:228|116:232,1,88,8|2,0:0|0:0,0:0:0
292,268,64046,2,0,B|372:304|468:284,1,176,2|8,0:0|0:0,0:0:0
424,192,64560,1,0,0:0:0
512,348,64732,6,0,B|432:384|336:364,2,176,2|8|2,0:0|0:0|0:0,0:0:0
424,192,65589,1,0,0:0:0
492,28,65760,1,8,0:0:0
372,88,65932,1,0,0:0:0
348,104,66017,1,0,0:0:0
324,120,66103,6,0,B|352:36,1,88,2|0,0:0|0:0,0:0:0
324,240,66446,1,8,0:0:0
184,292,66617,2,0,B|240:124,1,176,0|0,0:0|0:0,0:0:0
324,240,67132,1,8,0:0:0
324,240,67475,6,0,B|368:248|412:236,2,88,2|0|8,0:0|0:0|0:0,0:0:0
248,184,67989,1,0,0:0:0
248,184,68075,1,0,0:0:0
248,184,68160,2,0,B|204:188,3,44
172,216,68503,2,0,B|128:212,3,44
100,180,68846,6,0,B|84:136|92:92,1,88,4|2,0:0|0:0,0:0:0
240,40,69189,2,0,B|256:84|248:128,1,88,8|2,0:0|0:0,0:0:0
184,176,69532,1,0,0:0:0
332,112,69703,1,2,0:0:0
332,112,69789,1,0,0:0:0
332,112,69875,2,0,B|376:100|420:112,1,88,8|2,0:0|0:0,0:0:0
484,192,70217,5,0,0:0:0
468,296,70389,1,2,0:0:0
368,324,70560,1,8,0:0:0
248,256,70732,1,2,0:0:0
144,344,70903,2,0,B|56:336,2,88,0|2|8,0:0|0:0|0:0,0:0:0
324,264,71417,1,2,0:0:0
244,84,71589,6,0,B|200:76|160:100,1,88,0|2,0:0|0:0,0:0:0
240,224,71932,2,0,B|214:187|169:175,1,88,8|2,0:0|0:0,0:0:0
140,320,72275,2,0,B|148:276|124:236,1,88,0|2,0:0|0:0,0:0:0
0,316,72617,2,0,B|36:290|48:245,1,88,8|2,0:0|0:0,0:0:0
24,164,72960,5,0,0:0:0
124,96,73132,1,0,0:0:0
56,16,73303,1,8,0:0:0
56,16,73646,1,0,0:0:0
124,96,73817,1,0,0:0:0
24,164,73989,1,8,0:0:0
124,228,74160,1,8,0:0:0
236,184,74332,6,0,B|280:172|324:192,1,88,4|0,0:0|0:0,0:0:0
380,272,74675,1,10,0:0:0
452,212,74846,2,0,B|472:168|456:124,1,88
360,64,75189,1,0,0:0:0
248,104,75360,2,0,B|156:128|72:88,1,176,10|0,0:0|0:0,0:0:0
0,144,75875,5,0,0:0:0
56,216,76046,2,0,B|56:308,1,88,8|8,0:0|0:0,0:0:0
120,360,76389,2,0,B|180:364|220:324|220:324|248:348|284:344,1,176,0|10,0:0|0:0,0:0:0
360,276,76903,1,0,0:0:0
408,184,77075,6,0,B|424:140|400:96,2,88,0|0|10,0:0|0:0|0:0,0:0:0
276,224,77589,1,0,0:0:0
164,148,77760,2,0,B|96:112|40:164|40:164|52:144|48:120,1,176,0|10,0:0|0:0,0:0:0
112,220,78275,1,0,0:0:0
200,228,78446,6,0,B|240:216|264:156|244:116,1,132
268,136,78789,2,0,B|312:144|356:128,1,88,10|0,0:0|0:0,0:0:0
416,72,79132,2,0,B|400:116|356:128|356:128|388:172|372:212,1,176,0|10,0:0|0:0,0:0:0
280,288,79646,1,0,0:0:0
172,244,79817,6,0,B|108:172|12:184,1,176,4|8,0:0|0:0,0:0:0
140,120,80332,2,0,B|204:192|300:180,1,176,2|0,0:0|0:0,0:0:0
360,124,80846,1,8,0:0:0
360,124,81189,5,0,0:0:0
440,161,81360,1,0,0:0:0
400,241,81532,1,8,0:0:0
320,205,81703,1,2,0:0:0
320,205,81789,5,8,0:0:0
320,205,81875,1,0,0:0:0
198,136,82046,1,0,0:0:0
123,254,82217,1,8,0:0:0
123,254,82303,1,8,0:0:0
123,254,82389,1,0,0:0:0
245,323,82560,6,0,B|334:344|418:302,1,176,4|8,0:0|0:0,0:0:0
267,61,83246,2,0,B|178:40|94:82,1,176,0|8,0:0|0:0,0:0:0
304,208,83932,5,0,0:0:0
380,188,84103,1,0,0:0:0
392,108,84275,1,8,0:0:0
360,268,84446,5,0,0:0:0
433,296,84617,1,0,0:0:0
489,238,84789,1,0,0:0:0
372,348,84961,5,0,0:0:0
368,352,85046,1,0,0:0:0
364,356,85132,1,0,0:0:0
172,300,85303,5,4,0:0:0
60,240,85475,2,8,B|16:248,2,44
166,266,85817,1,2,0:0:0
90,165,85989,2,8,B|46:153,2,44
176,234,86332,1,2,0:0:0
150,110,86504,2,8,B|115:81,2,44
198,209,86846,1,2,0:0:0
227,85,87018,2,8,B|207:44,2,44
228,196,87361,5,2,0:0:0
304,144,87532,1,8,0:0:0
360,244,87703,1,10,0:0:0
440,72,87875,1,4,0:0:0
