osu file format v10

[General]
AudioFilename: Chuunibyou-1.mp3
AudioLeadIn: 2000
PreviewTime: 57886
Countdown: 0
SampleSet: Soft
StackLeniency: 0.7
Mode: 0
LetterboxInBreaks: 0

[Editor]
Bookmarks: 14063,25377,57949
DistanceSpacing: 0.6
BeatDivisor: 4
GridSize: 4

[Metadata]
Title:Sparkling Daydream (TV Size)
TitleUnicode:Sparkling Daydream (TV Size)
Artist:ZAQ
ArtistUnicode:ZAQ
Creator:NoHitter
Version:Normal
Source:Chuunibyou demo Koi ga Shitai!
Tags:yuuta rikka dark flame master opening
BeatmapID:181862
BeatmapSetID:60511

[Difficulty]
HPDrainRate:3
CircleSize:4
OverallDifficulty:3
ApproachRate:4
SliderMultiplier:1.44
SliderTickRate:2

[Events]
//Background and Video events
0,0,"bg.png"
Video,-150,"Chuunibyou-1.avi"
//Break Periods
//Storyboard Layer 0 (Background)
//Storyboard Layer 1 (Fail)
//Storyboard Layer 2 (Pass)
//Storyboard Layer 3 (Foreground)
//Storyboard Sound Samples
//Background Colour Transformations
3,100,163,162,255

[TimingPoints]
270,342.857142857143,4,2,0,60,1,0
2841,-100,4,1,0,60,0,0
3012,-100,4,2,0,60,0,0
3698,-100,4,1,0,60,0,0
3783,-100,4,2,0,60,0,0
4384,-100,4,1,0,60,0,0
4469,-100,4,2,0,60,0,0
5070,-100,4,1,0,60,0,0
5155,-100,4,2,0,60,0,0
5755,-100,4,1,0,60,0,0
5840,-100,4,2,0,60,0,0
6441,-100,4,1,0,60,0,0
6612,-100,4,2,0,60,0,0
7127,-100,4,1,0,60,0,0
7212,-100,4,2,0,60,0,0
7812,-100,4,1,0,60,0,0
7897,-100,4,2,0,60,0,0
11241,-100,4,1,0,60,0,0
11326,-100,4,2,0,60,0,0
11927,-100,4,1,0,60,0,0
12012,-100,4,2,0,60,0,0
12612,-100,4,1,0,60,0,0
12697,-100,4,2,0,60,0,0
12955,-100,4,1,0,60,0,0
13040,-100,4,2,0,60,0,0
13984,-133.333333333333,4,1,0,60,0,0
14069,-133.333333333333,4,2,0,60,0,0
23927,-100,4,2,0,60,0,0
24270,-100,4,1,0,60,0,0
24355,-100,4,2,0,60,0,0
24783,-100,4,1,0,60,0,0
24868,-100,4,2,0,60,0,0
25298,-100,4,1,0,60,0,0
25727,-100,4,2,0,60,0,0
27012,-100,4,1,0,60,0,0
27097,-100,4,2,0,60,0,0
27698,-100,4,1,0,60,0,0
27783,-100,4,2,0,60,0,0
28384,-100,4,1,0,60,0,0
28469,-100,4,2,0,60,0,0
29755,-100,4,1,0,60,0,0
29840,-100,4,2,0,60,0,0
31127,-100,4,1,0,60,0,0
31212,-100,4,2,0,60,0,0
31812,-100,4,1,0,60,0,0
31897,-100,4,2,0,60,0,0
32498,-100,4,1,0,60,0,0
32583,-100,4,2,0,60,0,0
33870,-100,4,1,0,60,0,0
33955,-100,4,2,0,60,0,0
35241,-100,4,1,0,60,0,0
35326,-100,4,2,0,60,0,0
42098,-100,4,1,0,60,0,0
42183,-100,4,2,0,60,0,0
43470,-100,4,1,0,60,0,0
43555,-100,4,2,0,60,0,0
44841,-100,4,1,0,60,0,0
44926,-100,4,2,0,60,0,0
57527,-100,4,1,0,60,0,0
57612,-100,4,2,0,60,0,0
57870,-100,4,2,0,75,0,1
58212,-100,4,1,0,75,0,1
58383,-100,4,2,0,75,0,1
58898,-100,4,1,0,75,0,1
59069,-100,4,2,0,75,0,1
59584,-100,4,1,0,75,0,1
59755,-100,4,2,0,75,0,1
60098,-100,4,1,0,75,0,1
60441,-100,4,2,0,75,0,1
60955,-100,4,1,0,75,0,1
61126,-100,4,2,0,75,0,1
61641,-100,4,1,0,75,0,1
61726,-100,4,2,0,75,0,1
62327,-100,4,1,0,75,0,1
62412,-100,4,2,0,75,0,1
63698,-100,4,1,0,75,0,1
63783,-100,4,2,0,75,0,1
64384,-100,4,1,0,75,0,1
64469,-100,4,2,0,75,0,1
65070,-100,4,1,0,75,0,1
65154,-100,4,2,0,75,0,1
65584,-100,4,1,0,75,0,1
65840,-100,4,2,0,75,0,1
66441,-100,4,1,0,75,0,1
66526,-100,4,2,0,75,0,1
67127,-100,4,1,0,75,0,1
67212,-100,4,2,0,75,0,1
67812,-100,4,1,0,75,0,1
67897,-100,4,2,0,75,0,1
68327,-100,4,1,0,75,0,1
68584,-100,4,2,0,75,0,1
68755,-100,4,2,0,75,0,0
68840,-100,4,2,0,75,0,1
69184,-100,4,1,0,75,0,1
69269,-100,4,2,0,75,0,1
69870,-100,4,1,0,75,0,1
69955,-100,4,2,0,75,0,1
70555,-100,4,1,0,75,0,1
70640,-100,4,2,0,75,0,1
71070,-100,4,1,0,75,0,1
71327,-100,4,2,0,75,0,1
71927,-100,4,1,0,75,0,1
72012,-100,4,2,0,75,0,1
72612,-100,4,1,0,75,0,1
72697,-100,4,2,0,75,0,1
73298,-100,4,1,0,75,0,1
73383,-100,4,2,0,75,0,1
73812,-100,4,1,0,75,0,1
74069,-100,4,2,1,75,0,1
82555,-100,4,2,0,75,0,0
88041,-100,4,2,0,60,0,0
88383,-100,4,2,0,40,0,0
88725,-100,4,2,0,20,0,0
89070,-100,4,2,0,5,0,0

[Colours]
Combo1 : 0,121,151
Combo2 : 5,26,163
Combo3 : 234,17,71
Combo4 : 242,210,162

[HitObjects]
256,192,270,12,0,2841,0:0:0
198,76,3355,6,0,B|226:28|286:28|314:76,2,144,8|0|8,0:0|0:0|0:0,0:0:0
136,136,4384,2,0,B|121:190|164:233|217:218,1,144,0|8,0:0|0:0,0:0:0
304,217,5069,2,0,B|357:231|400:188|385:134,1,144,0|8,0:0|0:0,0:0:0
344,56,5755,5,0,0:0:0
432,56,6098,1,8,0:0:0
488,124,6441,1,0,0:0:0
464,208,6784,1,8,0:0:0
396,264,7127,6,0,B|367:215|307:215|278:263,1,144,0|8,0:0|0:0,0:0:0
216,320,7812,1,0,0:0:0
216,320,7984,2,0,B|187:369|127:369|98:321,1,144,2|4,0:0|0:0,0:0:0
160,208,8841,5,10,0:0:0
220,44,9527,2,8,B|296:44,1,72,10|0,0:0|0:0,0:0:0
352,160,10212,1,10,0:0:0
292,324,10898,2,8,B|220:324,1,72,10|4,0:0|0:0,0:0:0
180,200,11584,5,8,0:0:0
256,240,11927,1,0,0:0:0
332,200,12270,1,8,0:0:0
315,115,12612,2,0,B|286:66|226:66|197:114,2,144,0|0|4,0:0|0:0|0:0,0:0:0
315,115,13470,1,4,0:0:0
404,152,13984,6,0,B|504:148|512:48,2,162.00000617981,0|2|2,0:0|0:0|0:0,0:0:0
344,196,15355,2,0,B|244:200|236:300,2,162.00000617981,0|2|2,0:0|0:0|0:0,0:0:0
340,120,16727,6,0,B|280:96|296:32,1,108.000004119873,0|2,0:0|0:0,0:0:0
216,33,17412,2,0,B|232:96|172:120,1,108.000004119873,0|2,0:0|0:0,0:0:0
172,195,18098,2,0,B|232:219|216:281,1,108.000004119873,0|2,0:0|0:0,0:0:0
295,281,18784,2,0,B|279:218|339:194,1,108.000004119873,0|2,0:0|0:0,0:0:0
388,136,19470,5,4,0:0:0
404,64,19812,1,2,0:0:0
336,36,20155,2,0,B|256:16|176:36,2,162.00000617981,0|2|2,0:0|0:0|0:0,0:0:0
404,64,21527,1,2,0:0:0
343,202,22212,6,0,B|311:274|199:274|167:202,2,216.000008239746,2|2|2,0:0|0:0|0:0,0:0:0
328,116,23927,1,4,0:0:0
256,64,24270,1,0,0:0:0
184,116,24612,1,0,0:0:0
184,116,24784,2,0,B|108:96|43:169|80:252,1,216,0|4,0:0|0:0,0:0:0
56,332,25641,5,0,0:0:0
140,304,25984,1,8,0:0:0
220,332,26327,2,0,B|288:372|356:332,1,144,0|8,0:0|0:0,0:0:0
428,284,27012,5,0,0:0:0
352,240,27355,1,8,0:0:0
424,196,27698,2,0,B|372:132|296:172,1,144,0|8,0:0|0:0,0:0:0
216,208,28384,2,0,B|139:248|87:184,1,144,0|8,0:0|0:0,0:0:0
80,100,29070,2,0,B|36:40,2,72,0|0|8,0:0|0:0|0:0,0:0:0
160,140,29755,5,0,0:0:0
212,76,30098,1,8,0:0:0
298,76,30441,1,4,0:0:0
352,144,30784,1,8,0:0:0
324,224,31127,2,0,B|256:264|188:224,1,144,0|8,0:0|0:0,0:0:0
120,172,31812,2,0,B|51:210|50:289,1,144,0|8,0:0|0:0,0:0:0
88,368,32498,2,0,B|12:368,2,72,0|0|8,0:0|0:0|0:0,0:0:0
172,344,33184,5,4,0:0:0
256,368,33527,1,8,0:0:0
256,368,33698,1,2,0:0:0
340,344,34041,1,2,0:0:0
315,261,34384,2,0,B|287:213|227:213|199:261,1,144,2|2,0:0|0:0,0:0:0
198,261,34898,1,8,0:0:0
140,200,35241,5,0,0:0:0
76,256,35584,1,8,0:0:0
20,192,35927,1,4,0:0:0
84,132,36270,2,0,B|98:78|156:63|195:102,1,144,8|2,0:0|0:0,0:0:0
192,188,36955,1,8,0:0:0
256,244,37298,1,4,0:0:0
320,188,37641,1,8,0:0:0
315,103,37984,2,0,B|355:63|413:78|428:132,1,144,2|8,0:0|0:0,0:0:0
420,220,38669,5,4,0:0:0
360,284,39012,2,0,B|272:304|256:372|256:372|240:304|152:284,1,288,8|8,0:0|0:0,0:0:0
92,220,40041,1,2,0:0:0
152,156,40384,2,0,B|240:136|256:68|256:68|272:136|360:156,1,288,8|8,0:0|0:0,0:0:0
420,220,41412,5,4,0:0:0
344,64,42098,1,0,0:0:0
168,64,42784,1,2,0:0:0
92,220,43470,1,0,0:0:0
168,372,44155,5,4,0:0:0
344,372,44841,1,0,0:0:0
356,200,45527,2,0,B|332:84|180:84|156:200,2,288,2|2|4,0:0|0:0|0:0,0:0:0
432,240,47241,6,0,B|484:264|484:324|436:356,2,144,8|2|8,0:0|0:0|0:0,0:0:0
360,192,48270,1,2,0:0:0
312,264,48612,2,0,B|288:316|224:316|200:264,1,144,8|2,0:0|0:0,0:0:0
256,200,49298,1,8,0:0:0
180,156,49641,6,0,B|104:128|72:64,2,144,4|8|2,0:0|0:0|0:0,0:0:0
256,116,50670,1,8,0:0:0
332,156,51012,2,0,B|408:128|440:64,2,144,2|8|2,0:0|0:0|0:0,0:0:0
256,200,52041,1,8,0:0:0
256,288,52384,5,4,0:0:0
180,244,52727,2,0,B|164:156,1,72,0|4,0:0|0:0,0:0:0
220,104,53241,2,0,B|300:104,1,72,0|4,0:0|0:0,0:0:0
344,172,53755,5,2,0:0:0
308,252,54098,1,2,0:0:0
368,316,54441,1,2,0:0:0
448,284,54784,1,2,0:0:0
460,204,55127,6,0,B|316:168,1,144,4|2,0:0|0:0,0:0:0
328,128,55641,2,0,B|256:112|184:128,1,144,4|2,0:0|0:0,0:0:0
192,168,56155,2,0,B|53:203,1,144,4|2,0:0|0:0,0:0:0
52,203,57527,5,8,0:0:0
76,120,57870,6,0,B|132:72|204:52,1,144,4|0,0:0|0:0,0:0:0
256,120,58555,2,0,B|256:200,2,72,2|0|0,0:0|0:0|0:0,0:0:0
312,52,59241,2,0,B|382:72|438:120,1,144,4|0,0:0|0:0,0:0:0
412,204,59927,2,0,B|448:272,2,72,2|0|0,0:0|0:0|0:0,0:0:0
328,184,60612,6,0,B|256:200|184:184,1,144,4|0,0:0|0:0,0:0:0
112,228,61298,2,0,B|36:220,2,72,2|0|0,0:0|0:0|0:0,0:0:0
184,280,61984,2,0,B|256:264|328:280,1,144,4|0,0:0|0:0,0:0:0
412,300,62670,2,0,B|448:192|416:88,1,216,2|4,0:0|0:0,0:0:0
296,40,63698,6,0,B|154:66,1,144,0|2,0:0|0:0,0:0:0
176,152,64384,2,0,B|324:124,1,144,0|2,0:3|0:0,0:0:0
340,208,65070,1,0,0:0:0
256,232,65412,2,0,B|256:312,2,72
212,156,66098,6,0,B|157:141|115:183|130:237,2,144,4|0|2,0:0|0:0|0:0,0:0:0
300,156,67127,2,0,B|354:141|396:183|381:237,2,144,0|4|0,0:0|0:0|0:0,0:0:0
256,80,68155,2,0,B|256:8,2,72
256,168,68841,5,4,0:0:0
213,243,69184,2,0,B|217:322|148:364,2,144,0|2|0,0:0|0:0|0:0,0:0:0
299,243,70212,2,0,B|294:322|363:364,1,144
384,280,70898,2,0,B|452:240,2,72
363,194,71584,6,0,B|436:170|459:95,2,144,4|0|2,0:0|0:0|0:0,0:0:0
276,196,72612,2,0,B|130:196,1,144,0|2,0:0|0:0,0:0:0
149,111,73298,1,0,0:0:0
185,87,73470,2,0,B|255:71|327:87,1,144,2|0,0:0|0:0,0:0:0
365,111,73984,1,0,0:0:0
372,200,74327,6,0,B|456:171,2,72,4|0|10,0:0|0:0|0:0,0:0:0
355,239,74841,2,0,B|405:289,2,72,4|0|2,0:0|0:0|0:0,0:0:0
315,256,75355,2,0,B|286:340,2,72,8|0|0,0:0|0:0|0:0,0:0:0
288,172,76041,1,8,0:0:0
324,92,76384,2,0,B|256:52|184:92,1,144,4|4,0:0|0:0,0:0:0
168,176,77070,6,0,B|88:112,2,72,4|0|10,0:0|0:0|0:0,0:0:0
148,216,77584,2,0,B|56:216,2,72,4|0|2,0:0|0:0|0:0,0:0:0
164,256,78098,2,0,B|108:304,1,72,4|2,0:0|0:0,0:0:0
188,336,78612,2,0,B|256:376|328:336,2,144,4|2|4,0:0|0:0|0:0,0:0:0
216,200,79812,6,0,B|212:252|212:252|256:313|300:252|300:252|296:200,2,216,4|4|4,0:0|0:0|0:0,0:0:0
216,113,81184,2,0,B|212:61|212:61|256:0|300:61|300:61|296:113,2,216,4|2|2,0:0|0:0|0:0,0:0:0
256,192,82555,12,4,85298,0:0:0
152,128,85812,6,0,B|256:80|360:128,1,216,4|4,0:0|0:0,0:0:0
360,256,86841,2,8,B|256:304|152:256,2,216,4|4|4,0:0|0:0|0:0,0:0:0
256,192,88041,12,0,89070,0:0:0
