osu file format v10

[General]
AudioFilename: Chuunibyou-1.mp3
AudioLeadIn: 2000
PreviewTime: 57886
Countdown: 0
SampleSet: Soft
StackLeniency: 0.7
Mode: 0
LetterboxInBreaks: 0

[Editor]
Bookmarks: 14063,25377,57949
DistanceSpacing: 1.1
BeatDivisor: 4
GridSize: 4

[Metadata]
Title:Sparkling Daydream (TV Size)
TitleUnicode:Sparkling Daydream (TV Size)
Artist:ZAQ
ArtistUnicode:ZAQ
Creator:NoHitter
Version:Hard
Source:Chuunibyou demo Koi ga Shitai!
Tags:yuuta rikka dark flame master opening
BeatmapID:181255
BeatmapSetID:60511

[Difficulty]
HPDrainRate:6
CircleSize:4
OverallDifficulty:6
ApproachRate:7
SliderMultiplier:1.72
SliderTickRate:2

[Events]
//Background and Video events
0,0,"bg.png"
Video,-150,"Chuunibyou-1.avi"
//Break Periods
//Storyboard Layer 0 (Background)
//Storyboard Layer 1 (Fail)
//Storyboard Layer 2 (Pass)
//Storyboard Layer 3 (Foreground)
//Storyboard Sound Samples
//Background Colour Transformations
3,100,163,162,255

[TimingPoints]
270,342.857142857143,4,2,0,60,1,0
2841,-100,4,1,0,60,0,0
3012,-100,4,2,0,60,0,0
3698,-100,4,1,0,60,0,0
3783,-100,4,2,0,60,0,0
4384,-100,4,1,0,60,0,0
4469,-100,4,2,0,60,0,0
5070,-100,4,1,0,60,0,0
5155,-100,4,2,0,60,0,0
5755,-100,4,1,0,60,0,0
5840,-100,4,2,0,60,0,0
6441,-100,4,1,0,60,0,0
6612,-100,4,2,0,60,0,0
7127,-100,4,1,0,60,0,0
7212,-100,4,2,0,60,0,0
7812,-100,4,1,0,60,0,0
7897,-100,4,2,0,60,0,0
11927,-100,4,1,0,60,0,0
12012,-100,4,2,0,60,0,0
12612,-100,4,1,0,60,0,0
12697,-100,4,2,0,60,0,0
12955,-100,4,1,0,60,0,0
13040,-100,4,2,0,60,0,0
13984,-133.333333333333,4,1,0,60,0,0
14069,-133.333333333333,4,2,0,60,0,0
23927,-100,4,2,0,60,0,0
24270,-100,4,1,0,60,0,0
24355,-100,4,2,0,60,0,0
24783,-100,4,1,0,60,0,0
24868,-100,4,2,0,60,0,0
25298,-100,4,1,0,60,0,0
25727,-100,4,2,0,60,0,0
27012,-100,4,1,0,60,0,0
27097,-100,4,2,0,60,0,0
27698,-100,4,1,0,60,0,0
27783,-100,4,2,0,60,0,0
28384,-100,4,1,0,60,0,0
28469,-100,4,2,0,60,0,0
29755,-100,4,1,0,60,0,0
29840,-100,4,2,0,60,0,0
31127,-100,4,1,0,60,0,0
31212,-100,4,2,0,60,0,0
31812,-100,4,1,0,60,0,0
31897,-100,4,2,0,60,0,0
32498,-100,4,1,0,60,0,0
32583,-100,4,2,0,60,0,0
33870,-100,4,1,0,60,0,0
33955,-100,4,2,0,60,0,0
35241,-100,4,1,0,60,0,0
35326,-100,4,2,0,60,0,0
42098,-100,4,1,0,60,0,0
42183,-100,4,2,0,60,0,0
43470,-100,4,1,0,60,0,0
43555,-100,4,2,0,60,0,0
44841,-100,4,1,0,60,0,0
44926,-100,4,2,0,60,0,0
57527,-100,4,1,0,60,0,0
57612,-100,4,2,0,60,0,0
57870,-100,4,2,0,75,0,1
58212,-100,4,1,0,75,0,1
58383,-100,4,2,0,75,0,1
58898,-100,4,1,0,75,0,1
59069,-100,4,2,0,75,0,1
59584,-100,4,1,0,75,0,1
59755,-100,4,2,0,75,0,1
60098,-100,4,1,0,75,0,1
60441,-100,4,2,0,75,0,1
60955,-100,4,1,0,75,0,1
61126,-100,4,2,0,75,0,1
61641,-100,4,1,0,75,0,1
61726,-100,4,2,0,75,0,1
62327,-100,4,1,0,75,0,1
62412,-100,4,2,0,75,0,1
63698,-100,4,1,0,75,0,1
63783,-100,4,2,0,75,0,1
64384,-100,4,1,0,75,0,1
64469,-100,4,2,0,75,0,1
65070,-100,4,1,0,75,0,1
65154,-100,4,2,0,75,0,1
65584,-100,4,1,0,75,0,1
65840,-100,4,2,0,75,0,1
66441,-100,4,1,0,75,0,1
66526,-100,4,2,0,75,0,1
67127,-100,4,1,0,75,0,1
67212,-100,4,2,0,75,0,1
67812,-100,4,1,0,75,0,1
67897,-100,4,2,0,75,0,1
68327,-100,4,1,0,75,0,1
68584,-100,4,2,0,75,0,1
68755,-100,4,2,0,75,0,0
68840,-100,4,2,0,75,0,1
69184,-100,4,1,0,75,0,1
69269,-100,4,2,0,75,0,1
69870,-100,4,1,0,75,0,1
69955,-100,4,2,0,75,0,1
70555,-100,4,1,0,75,0,1
70640,-100,4,2,0,75,0,1
71070,-100,4,1,0,75,0,1
71327,-100,4,2,0,75,0,1
71927,-100,4,1,0,75,0,1
72012,-100,4,2,0,75,0,1
72612,-100,4,1,0,75,0,1
72697,-100,4,2,0,75,0,1
73298,-100,4,1,0,75,0,1
73383,-100,4,2,0,75,0,1
73812,-100,4,1,0,75,0,1
74069,-100,4,2,1,75,0,1
82555,-100,4,2,0,75,0,0
88041,-100,4,2,0,60,0,0
88383,-100,4,2,0,40,0,0
88725,-100,4,2,0,20,0,0
89070,-100,4,2,0,5,0,0

[Colours]
Combo1 : 0,121,151
Combo2 : 5,26,163
Combo3 : 234,17,71
Combo4 : 242,210,162

[HitObjects]
40,76,270,2,0,B|72:44|116:40,1,86
184,76,612,1,0,0:0:0
252,40,784,1,2,0:0:0
320,76,955,6,0,B|352:108|396:112,1,86
468,88,1298,1,2,0:0:0
456,164,1470,6,0,B|480:204|464:248,1,86
396,212,1812,1,2,0:0:0
320,204,1984,5,0,0:0:0
248,228,2155,1,2,0:0:0
184,272,2327,2,0,B|152:236,6,43,2|0|0|0|0|0|0,0:0|0:0|0:0|0:0|0:0|0:0|0:0,0:0:0
44,340,3184,5,0,0:0:0
40,264,3355,2,0,B|36:88,1,172,8|0,0:0|0:0,0:0:0
180,36,4041,5,8,0:0:0
256,20,4212,1,0,0:0:0
328,44,4384,2,0,B|404:84|496:64,1,172,0|8,0:0|0:0,0:0:0
504,140,4898,1,0,0:0:0
508,216,5069,1,0,0:0:0
384,308,5412,1,8,0:0:0
268,208,5755,2,0,B|184:189|100:232,1,172,0|8,0:0|0:0,0:0:0
48,288,6269,1,0,0:0:0
112,328,6441,2,0,B|195:346|279:303,1,172,0|8,0:0|0:0,0:0:0
352,146,7127,6,0,B|324:54,1,86
256,180,7469,2,0,B|256:94,1,86,8|0,0:0|0:0,0:0:0
160,146,7812,2,0,B|185:63,1,86
256,22,8155,1,8,0:0:0
256,22,8327,1,4,0:0:0
448,156,8841,5,10,0:0:0
140,200,9527,1,10,0:0:0
140,200,9698,1,0,0:0:0
372,200,10212,1,10,0:0:0
64,156,10898,1,10,0:0:0
64,156,11070,1,4,0:0:0
256,24,11584,5,8,0:0:0
180,160,11927,1,0,0:0:0
256,140,12098,1,0,0:0:0
332,160,12270,1,8,0:0:0
356,312,12612,6,0,B|296:376,1,86
214,374,12955,2,0,B|156:312,1,86
218,266,13298,1,4,0:0:0
295,266,13470,1,4,0:0:0
384,40,13984,6,0,B|453:38|489:105,1,129.00000492096,0|2,0:0|0:0,0:0:0
488,245,14670,2,0,B|418:246|382:179,1,129.00000492096,0|2,0:0|0:0,0:0:0
272,92,15355,1,0,0:0:0
256,160,15527,1,0,0:0:0
240,228,15698,1,2,0:0:0
145,339,16041,6,0,B|89:387|29:339,1,129.00000492096,0|2,0:0|0:0,0:0:0
28,196,16727,2,0,B|84:148|146:197,1,129.00000492096,0|2,0:0|0:0,0:0:0
268,268,17412,1,0,0:0:0
340,244,17584,1,0,0:0:0
408,220,17755,1,2,0:0:0
476,192,17927,6,0,B|476:128|476:128|471:51|392:46,1,193.50000738144,2|2,0:0|0:0,0:0:0
324,68,18612,1,0,0:0:0
256,48,18784,1,0,0:0:0
188,68,18955,1,0,0:0:0
118,45,19127,2,0,B|41:54|36:128,1,129.00000492096,2|4,0:0|0:0,0:0:0
32,272,19812,6,0,B|44:356,1,64.5000024604798,2|0,0:0|0:0,0:0:0
112,320,20155,1,0,0:0:0
184,304,20327,2,0,B|244:280|312:304,1,129.00000492096,0|2,0:0|0:0,0:0:0
424,216,21012,1,0,0:0:0
352,200,21184,2,0,B|292:224|224:200,1,129.00000492096,2|2,0:0|0:0,0:0:0
52,48,22212,6,0,B|12:12,16,32.2500012302399,2|0|0|0|2|0|0|0|2|0|0|0|2|0|0|0|2,0:0|0:0|0:0|0:0|0:0|0:0|0:0|0:0|0:0|0:0|0:0|0:0|0:0|0:0|0:0|0:0|0:0,0:0:0
108,100,23755,2,4,B|164:148,1,64.5000024604798
220,188,24098,5,0,0:0:0
292,156,24270,1,0,0:0:0
364,188,24441,2,0,B|424:176|472:243|440:303,1,172
292,340,25127,1,0,0:0:0
292,340,25298,1,4,0:0:0
136,336,25641,6,0,B|36:316,1,86,0|2,0:0|0:0,0:0:0
64,244,25984,2,0,B|160:264,1,86,8|0,0:0|0:0,0:0:0
212,308,26327,1,0,0:0:0
256,176,26670,1,8,0:0:0
360,264,27012,1,0,0:0:0
432,236,27184,1,2,0:0:0
500,204,27355,2,0,B|488:108,1,86,8|2,0:0|0:0,0:0:0
476,44,27698,5,0,0:0:0
328,12,28041,1,8,0:0:0
180,64,28384,1,0,0:0:0
104,56,28555,1,2,0:0:0
36,92,28727,2,0,B|-21:111|-30:193|27:229,1,172,8|4,0:0|0:0,0:0:0
180,244,29412,1,8,0:0:0
256,224,29584,5,2,0:0:0
328,248,29755,1,0,0:0:0
404,228,29927,2,0,B|448:224|496:228,1,86,0|8,0:0|0:0,0:0:0
508,304,30270,1,2,0:0:0
488,380,30441,1,4,0:0:0
340,336,30784,6,0,B|256:300|172:336,1,172,8|0,0:0|0:0,0:0:0
108,296,31298,1,2,0:0:0
48,248,31470,1,8,0:0:0
92,184,31641,6,0,B|176:144|220:68,1,172,2|2,0:0|0:0,0:0:0
293,70,32155,2,0,B|336:144|420:184,1,172,8|0,0:0|0:0,0:0:0
256,192,32841,1,8,0:0:0
188,228,33012,6,0,B|172:272|188:312,1,86,2|4,0:0|0:0,0:0:0
256,268,33355,1,0,0:0:0
324,312,33527,2,0,B|340:272|324:228,1,86,8|2,0:0|0:0,0:0:0
256,88,34041,1,2,0:0:0
184,60,34212,1,8,0:0:0
108,36,34384,2,0,B|49:23|0:90|31:150,1,172,2|2,0:0|0:0,0:0:0
56,224,34898,1,8,0:0:0
172,324,35241,6,0,B|268:336,1,86,0|0,0:0|0:0,0:0:0
336,344,35584,1,8,0:0:0
412,352,35755,1,2,0:0:0
488,360,35927,1,4,0:0:0
432,216,36270,5,8,0:0:0
420,140,36441,1,0,0:0:0
492,164,36612,1,2,0:0:0
328,56,36955,5,8,0:0:0
256,28,37127,1,0,0:0:0
184,56,37298,1,4,0:0:0
60,152,37641,5,8,0:0:0
120,200,37812,1,0,0:0:0
48,228,37984,1,2,0:0:0
184,336,38327,5,8,0:0:0
256,360,38498,1,0,0:0:0
328,336,38669,2,0,B|296:256|296:164,1,172,4|8,0:0|0:0,0:0:0
256,20,39355,1,2,0:0:0
256,96,39527,1,0,0:0:0
215,168,39698,2,0,B|215:255|183:335,1,172,8|2,0:0|0:0,0:0:0
68,232,40384,1,8,0:0:0
40,80,40727,1,2,0:0:0
104,40,40898,1,0,0:0:0
108,116,41069,5,8,0:0:0
172,76,41241,1,0,0:0:0
244,104,41412,2,0,B|272:160|356:160|384:104,2,172,4|8|0,0:0|0:0|0:0,0:0:0
315,65,42269,1,0,0:0:0
315,65,42441,1,8,0:0:0
424,168,42784,2,0,B|508:220|480:316,1,172,2|8,0:0|0:0,0:0:0
332,268,43469,1,0,0:0:0
256,248,43641,1,0,0:0:0
180,264,43812,5,8,0:0:0
104,248,43984,2,0,B|12:252,1,86,2|4,0:0|0:0,0:0:0
56,100,44498,1,8,0:0:0
56,100,44669,1,2,0:0:0
216,132,45012,1,2,0:0:0
256,72,45184,1,8,0:0:0
296,132,45355,1,2,0:0:0
256,280,45698,6,0,B|256:328,14,43,2|0|0|0|0|0|2|0|0|0|2|0|0|0|4,0:0|0:0|0:0|0:0|0:0|0:0|0:0|0:0|0:0|0:0|0:0|0:0|0:0|0:0|0:0,0:0:0
256,124,47241,5,8,0:0:0
324,88,47412,1,0,0:0:0
400,104,47584,1,2,0:0:0
496,224,47927,2,0,B|492:316,1,86,8|0,0:0|0:0,0:0:0
416,296,48269,1,2,0:0:0
344,328,48441,1,0,0:0:0
268,308,48612,1,8,0:0:0
192,328,48784,2,0,B|108:308|24:344,1,172,2|2,0:0|0:0,0:0:0
4,268,49298,1,8,0:0:0
32,108,49641,5,4,0:0:0
60,36,49812,1,0,0:0:0
108,96,49984,2,0,B|192:100|280:76,1,172,8|2,0:0|0:0,0:0:0
420,52,50669,1,8,0:0:0
496,52,50841,1,0,0:0:0
460,120,51012,2,0,B|448:212|492:292,1,172,2|8,0:0|0:0,0:0:0
332,268,51698,1,2,0:0:0
256,248,51869,1,0,0:0:0
180,268,52041,1,8,0:0:0
108,72,52384,5,4,0:0:0
256,28,52727,1,0,0:0:0
256,28,52898,1,4,0:0:0
404,72,53241,1,0,0:0:0
404,72,53412,1,4,0:0:0
256,112,53755,5,2,0:0:0
136,212,54098,1,2,0:0:0
180,360,54441,1,2,0:0:0
332,360,54784,1,2,0:0:0
376,212,55127,6,0,B|460:172,2,86,4|0|2,0:0|0:0|0:0,0:0:0
300,196,55641,2,0,B|216:236,2,86,4|0|2,0:0|0:0|0:0,0:0:0
352,140,56155,1,4,0:0:0
420,104,56327,1,0,0:0:0
488,72,56498,2,0,B|524:52,6,43,2|0|0|0|2|0|0,0:0|0:0|0:0|0:0|0:0|0:0|0:0,0:0:0
488,72,57527,5,8,0:0:0
336,36,57869,6,0,B|292:44|244:36,1,86,4|0,0:0|0:0,0:0:0
172,28,58212,1,0,0:0:0
96,48,58384,2,0,B|52:56|16:76,1,86,2|0,0:0|0:0,0:0:0
24,152,58727,1,2,0:0:0
36,228,58898,2,0,B|52:320,1,86
124,340,59241,5,2,0:0:0
204,220,59584,1,0,0:0:0
204,220,59755,1,2,0:0:0
280,228,59927,2,0,B|324:228|364:240,1,86
440,256,60269,1,0,0:0:0
472,328,60441,5,4,0:0:0
396,320,60612,1,2,0:0:0
448,176,60955,1,0,0:0:0
332,68,61298,1,2,0:0:0
180,68,61641,1,0,0:0:0
64,176,61984,5,0,0:0:0
92,248,62155,1,0,0:0:0
16,236,62327,1,0,0:0:0
48,308,62498,1,0,0:0:0
124,320,62669,2,0,B|188:340|252:336,2,129,2|2|4,0:0|0:0|0:0,0:0:0
40,104,63698,5,0,0:0:0
180,40,64041,1,2,0:0:0
256,24,64212,1,0,0:0:0
332,40,64384,2,0,B|337:104|405:135|457:98,2,172,0|2|0,0:0|0:0|0:0,0:0:0
408,40,65241,2,0,B|332:200,1,172,2|0,0:0|0:0,0:0:0
296,264,65755,1,0,0:0:0
256,332,65927,1,2,0:0:0
216,264,66098,1,4,0:0:0
128,108,66441,5,0,0:0:0
88,44,66612,1,0,0:0:0
48,108,66784,1,2,0:0:0
148,224,67127,1,0,0:0:0
217,189,67298,1,0,0:0:0
294,189,67469,1,4,0:0:0
364,220,67641,2,0,B|408:240|416:284,1,86,2|0,0:0|0:0,0:0:0
340,300,67984,2,0,B|256:308|168:300,1,172,2|0,0:0|0:0,0:0:0
96,284,68498,1,0,0:0:0
64,132,68841,5,4,0:0:0
44,56,69012,1,2,0:0:0
120,36,69184,1,0,0:0:0
144,108,69355,2,0,B|228:80|228:80|260:112|308:88,1,172,2|2,0:0|0:0,0:0:0
372,48,69869,1,0,0:0:0
448,56,70041,1,0,0:0:0
500,112,70212,6,0,B|480:152|492:196,1,86,2|0,0:0|0:0,0:0:0
484,272,70555,1,0,0:0:0
420,228,70727,1,0,0:0:0
412,304,70898,2,0,B|376:330|330:326,1,86,2|0,0:0|0:0,0:0:0
256,300,71241,1,0,0:0:0
184,328,71412,5,0,0:0:0
184,328,71584,1,4,0:0:0
74,218,71927,1,0,0:0:0
183,109,72269,1,2,0:0:0
292,218,72612,1,0,0:0:0
184,328,72955,1,2,0:0:0
74,218,73298,1,0,0:0:0
112,148,73469,2,0,B|141:204|220:204|252:148,1,172
183,109,73984,1,0,0:0:0
328,60,74327,5,4,0:0:0
404,40,74498,1,0,0:0:0
480,52,74669,1,10,0:0:0
488,128,74841,2,0,B|496:220,1,86,4|0,0:0|0:0,0:0:0
500,292,75184,1,2,0:0:0
428,324,75355,5,8,0:0:0
352,300,75527,1,0,0:0:0
284,336,75698,1,2,0:0:0
212,308,75869,2,0,B|104:316,1,86,4|10,0:0|0:0,0:0:0
28,196,76384,1,4,0:0:0
24,120,76555,1,0,0:0:0
20,44,76727,1,8,0:0:0
172,68,77069,5,4,0:0:0
244,40,77241,1,0,0:0:0
232,116,77412,1,10,0:0:0
304,88,77584,2,0,B|388:56,1,86,4|0,0:0|0:0,0:0:0
456,32,77927,1,2,0:0:0
488,104,78098,5,8,0:0:0
484,180,78269,1,0,0:0:0
480,256,78441,1,2,0:0:0
476,332,78612,2,0,B|368:348,1,86,4|10,0:0|0:0,0:0:0
320,316,78955,1,4,0:0:0
248,344,79127,2,0,B|162:331,1,86,2|4,0:0|0:0,0:0:0
256,60,79812,5,4,0:0:0
256,60,79984,1,0,0:0:0
152,172,80327,1,4,0:0:0
152,172,80498,1,0,0:0:0
256,284,80841,1,4,0:0:0
360,172,81184,5,4,0:0:0
296,212,81355,1,2,0:0:0
256,144,81527,1,2,0:0:0
216,212,81698,1,2,0:0:0
152,172,81869,2,0,B|92:172,6,43,2|0|2|0|2|0|4,0:0|0:0|0:0|0:0|0:0|0:0|0:0,0:0:0
256,192,82555,12,4,85298,0:0:0
256,32,85641,5,0,0:0:0
256,32,85812,1,4,0:0:0
180,136,86155,1,0,0:0:0
180,136,86327,1,4,0:0:0
332,136,86669,1,0,0:0:0
332,136,86841,1,4,0:0:0
256,248,87184,5,0,0:0:0
192,296,87355,1,4,0:0:0
216,368,87527,1,0,0:0:0
296,368,87698,1,0,0:0:0
320,296,87870,1,4,0:0:0
256,192,87955,12,0,89070,0:0:0
