osu file format v10

[General]
AudioFilename: Chuunibyou-1.mp3
AudioLeadIn: 2000
PreviewTime: 57886
Countdown: 0
SampleSet: Soft
StackLeniency: 0.7
Mode: 0
LetterboxInBreaks: 0

[Editor]
Bookmarks: 14063,25377,57949
DistanceSpacing: 0.8
BeatDivisor: 4
GridSize: 4

[Metadata]
Title:Sparkling Daydream (TV Size)
TitleUnicode:Sparkling Daydream (TV Size)
Artist:ZAQ
ArtistUnicode:ZAQ
Creator:NoHitter
Version:Easy
Source:Chuunibyou demo Koi ga Shitai!
Tags:yuuta rikka dark flame master opening
BeatmapID:181378
BeatmapSetID:60511

[Difficulty]
HPDrainRate:2
CircleSize:3
OverallDifficulty:2
ApproachRate:2
SliderMultiplier:1.04
SliderTickRate:2

[Events]
//Background and Video events
0,0,"bg.png"
Video,-150,"Chuunibyou-1.avi"
//Break Periods
//Storyboard Layer 0 (Background)
//Storyboard Layer 1 (Fail)
//Storyboard Layer 2 (Pass)
//Storyboard Layer 3 (Foreground)
//Storyboard Sound Samples
//Background Colour Transformations
3,100,163,162,255

[TimingPoints]
270,342.857142857143,4,2,0,60,1,0
2841,-100,4,1,0,60,0,0
3012,-100,4,2,0,60,0,0
4384,-100,4,1,0,60,0,0
4469,-100,4,2,0,60,0,0
5070,-100,4,1,0,60,0,0
5155,-100,4,2,0,60,0,0
5755,-100,4,1,0,60,0,0
5840,-100,4,2,0,60,0,0
6441,-100,4,1,0,60,0,0
6612,-100,4,2,0,60,0,0
7127,-100,4,1,0,60,0,0
7212,-100,4,2,0,60,0,0
12612,-100,4,1,0,60,0,0
12697,-100,4,2,0,60,0,0
13984,-133.333333333333,4,1,0,60,0,0
14069,-133.333333333333,4,2,0,60,0,0
23927,-100,4,2,0,60,0,0
24270,-100,4,1,0,60,0,0
24355,-100,4,2,0,60,0,0
24783,-100,4,1,0,60,0,0
24868,-100,4,2,0,60,0,0
25298,-100,4,1,0,60,0,0
25727,-100,4,2,0,60,0,0
27012,-100,4,1,0,60,0,0
27097,-100,4,2,0,60,0,0
27698,-100,4,1,0,60,0,0
27783,-100,4,2,0,60,0,0
28384,-100,4,1,0,60,0,0
28469,-100,4,2,0,60,0,0
29755,-100,4,1,0,60,0,0
29840,-100,4,2,0,60,0,0
31812,-100,4,1,0,60,0,0
31897,-100,4,2,0,60,0,0
32498,-100,4,1,0,60,0,0
32583,-100,4,2,0,60,0,0
33870,-100,4,1,0,60,0,0
33955,-100,4,2,0,60,0,0
35241,-100,4,1,0,60,0,0
35326,-100,4,2,0,60,0,0
42098,-100,4,1,0,60,0,0
42183,-100,4,2,0,60,0,0
44841,-100,4,1,0,60,0,0
44926,-100,4,2,0,60,0,0
57870,-100,4,2,0,75,0,1
58212,-100,4,1,0,75,0,1
58383,-100,4,2,0,75,0,1
58898,-100,4,1,0,75,0,1
59069,-100,4,2,0,75,0,1
59584,-100,4,1,0,75,0,1
59755,-100,4,2,0,75,0,1
60098,-100,4,1,0,75,0,1
60441,-100,4,2,0,75,0,1
60955,-100,4,1,0,75,0,1
61126,-100,4,2,0,75,0,1
61641,-100,4,1,0,75,0,1
61726,-100,4,2,0,75,0,1
62327,-100,4,1,0,75,0,1
62412,-100,4,2,0,75,0,1
63698,-100,4,1,0,75,0,1
63783,-100,4,2,0,75,0,1
64384,-100,4,1,0,75,0,1
64469,-100,4,2,0,75,0,1
65070,-100,4,1,0,75,0,1
65154,-100,4,2,0,75,0,1
65584,-100,4,1,0,75,0,1
65840,-100,4,2,0,75,0,1
66441,-100,4,1,0,75,0,1
66526,-100,4,2,0,75,0,1
67127,-100,4,1,0,75,0,1
67212,-100,4,2,0,75,0,1
67812,-100,4,1,0,75,0,1
67897,-100,4,2,0,75,0,1
68327,-100,4,1,0,75,0,1
68584,-100,4,2,0,75,0,1
68755,-100,4,2,0,75,0,0
68840,-100,4,2,0,75,0,1
69184,-100,4,1,0,75,0,1
69269,-100,4,2,0,75,0,1
69870,-100,4,1,0,75,0,1
69955,-100,4,2,0,75,0,1
70555,-100,4,1,0,75,0,1
70640,-100,4,2,0,75,0,1
71070,-100,4,1,0,75,0,1
71327,-100,4,2,0,75,0,1
71927,-100,4,1,0,75,0,1
72012,-100,4,2,0,75,0,1
72612,-100,4,1,0,75,0,1
72697,-100,4,2,0,75,0,1
73298,-100,4,1,0,75,0,1
73383,-100,4,2,0,75,0,1
73812,-100,4,1,0,75,0,1
74069,-100,4,2,1,75,0,1
82555,-100,4,2,0,75,0,0
88041,-100,4,2,0,60,0,0
88383,-100,4,2,0,40,0,0
88725,-100,4,2,0,20,0,0
89070,-100,4,2,0,5,0,0

[Colours]
Combo1 : 0,121,151
Combo2 : 5,26,163
Combo3 : 234,17,71
Combo4 : 242,210,162

[HitObjects]
256,192,270,12,0,2841,0:0:0
132,180,3355,6,0,B|112:92|112:92|180:116|212:56,1,208,8|8,0:0|0:0,0:0:0
300,56,4384,2,0,B|332:116|400:92|400:92|380:180,2,208
256,216,6441,1,0,0:0:0
172,72,7127,6,0,B|60:92|8:192|60:292|172:312,1,364,0|4,0:0|0:0,0:0:0
256,216,8841,5,8,0:0:0
336,68,9527,2,0,B|360:172,1,104,10|0,0:0|0:0,0:0:0
440,156,10212,1,8,0:0:0
480,316,10898,2,0,B|464:252,1,52,2|4,0:0|0:0,0:0:0
340,220,11584,6,0,B|284:176|256:91|256:91|228:176|172:220,1,312,8|0,0:0|0:0,0:0:0
256,364,13298,2,0,B|256:292,1,52,4|4,0:0|0:0,0:0:0
339,220,13984,6,0,B|377:147|333:71,1,156.000005950928,0|2,0:0|0:0,0:0:0
178,71,15355,2,0,B|134:147|173:220,1,156.000005950928,0|2,0:0|0:0,0:0:0
30,284,16727,6,0,B|109:260|175:318,1,156.000005950928,0|2,0:0|0:0,0:0:0
337,318,18098,2,0,B|402:260|482:283,1,156.000005950928,0|2,0:0|0:0,0:0:0
450,130,19470,6,0,B|418:78|354:78|322:130,1,156.000005950928,4|2,0:0|0:0,0:0:0
190,212,20841,2,0,B|158:264|94:264|62:212,1,156.000005950928,0|2,0:0|0:0,0:0:0
124,69,22212,6,0,B|188:25|188:25|256:93|324:25|324:25|388:69,1,312.000011901856,2|2,0:0|0:0,0:0:0
452,120,23927,1,8,0:0:0
420,196,24270,2,0,B|368:272|432:340,2,156,0|0|4,0:0|0:0|0:0,0:0:0
356,144,25641,5,0,0:0:0
336,64,25984,1,8,0:0:0
256,36,26327,2,0,B|136:36,1,104,2|8,0:0|0:0,0:0:0
72,60,27012,5,0,0:0:0
32,132,27355,2,0,B|8:180|20:236,1,104,8|0,0:0|0:0,0:0:0
52,312,28041,1,8,0:0:0
132,284,28384,1,0,0:0:0
216,280,28727,2,0,B|269:268|317:292,1,104,8|0,0:0|0:0,0:0:0
400,320,29412,5,8,0:0:0
476,356,29755,1,0,0:0:0
472,272,30098,2,0,B|464:148,1,104,8|4,0:0|0:0,0:0:0
464,84,30784,6,0,B|352:64,1,104,8|2,0:0|0:0,0:0:0
280,48,31470,1,8,0:0:0
280,132,31812,2,0,B|168:140,1,104,0|8,0:0|0:0,0:0:0
92,148,32498,1,0,0:0:0
48,220,32841,2,0,B|40:272|56:324,1,104,8|4,0:0|0:0,0:0:0
212,260,33870,5,0,0:0:0
356,340,34555,1,2,0:0:0
432,304,34898,1,8,0:0:0
504,268,35241,6,0,B|488:168|476:52,1,208,0|4,0:0|0:0,0:0:0
312,36,36612,1,8,0:0:0
148,60,37298,2,0,B|137:166|121:266,1,208,4|8,0:0|0:0,0:0:0
256,168,38670,5,4,0:0:0
364,60,39355,1,8,0:0:0
344,224,40041,2,0,B|292:288|220:288|168:224,1,208,2|8,0:0|0:0,0:0:0
256,84,41412,5,4,0:0:0
92,44,42098,1,0,0:0:0
48,204,42784,2,0,B|76:284|20:352,2,156,2|2|2,0:0|0:0|0:0,0:0:0
48,120,44155,5,4,0:0:0
184,24,44841,1,0,0:0:0
340,76,45527,2,0,B|406:124|476:105|510:30,2,208,2|2|4,0:0|0:0|0:0,0:0:0
260,48,47241,5,8,0:0:0
180,72,47584,1,2,0:0:0
256,220,48270,2,0,B|364:252,1,104,2|8,0:0|0:0,0:0:0
436,276,48955,1,2,0:0:0
276,320,49641,6,0,B|176:292|176:292|148:340|84:324,1,208,4|2,0:0|0:0,0:0:0
104,244,50670,1,8,0:0:0
96,160,51012,2,0,B|160:156|179:209|179:209|283:198,1,208,4|2,0:0|0:0,0:0:0
364,52,52384,6,4,B|448:40|448:40|472:108,2,156
308,112,53755,2,4,B|196:112,1,104,2|2,0:0|0:0,0:0:0
148,52,54441,2,4,B|40:36,1,104,2|2,0:0|0:0,0:0:0
256,192,55127,12,2,56841,0:0:0
44,104,57870,6,0,B|80:60|136:60,1,104,4|0,0:0|0:0,0:0:0
204,104,58555,2,0,B|316:104,1,104,2|0,0:0|0:0,0:0:0
377,60,59241,2,0,B|432:60|468:104,1,104,4|0,0:0|0:0,0:0:0
444,184,59927,2,0,B|460:296,1,104,2|0,0:0|0:0,0:0:0
468,368,60612,5,4,0:0:0
388,344,60955,1,0,0:0:0
308,372,61298,2,0,B|180:372,1,104,2|0,0:0|0:0,0:0:0
128,340,61984,1,2,0:0:0
48,368,62327,2,4,B|16:244|28:108,1,260,0|4,0:0|0:0,0:0:0
136,48,63698,5,0,0:0:0
220,36,64041,2,0,B|336:40,1,104,2|0,0:0|0:0,0:0:0
408,56,64727,1,2,0:0:0
492,64,65070,1,0,0:0:0
504,148,65412,2,0,B|496:200|500:256,1,104,2|0,0:0|0:0,0:0:0
496,336,66098,6,0,B|428:332|412:264|412:264|320:256,1,208,4|2,0:0|0:0,0:0:0
256,208,67127,1,0,0:0:0
187,256,67470,2,0,B|100:264|100:264|84:332|16:336,1,208,4|2,0:0|0:0,0:0:0
12,252,68498,1,0,0:0:0
44,176,68841,6,0,B|80:136|80:80,1,104,4|0,0:0|0:0,0:0:0
152,36,69527,1,0,0:0:0
236,36,69870,1,0,0:0:0
308,76,70212,2,0,B|308:132|344:172,1,104,4|0,0:0|0:0,0:0:0
396,104,70898,2,0,B|504:80,1,104
500,164,71584,5,4,0:0:0
348,228,72270,1,2,0:0:0
216,128,72955,1,2,0:0:0
132,116,73298,2,0,B|16:100,2,104
163,192,74327,6,4,B|153:271|153:271|67:256,2,156,4|4|8,0:0|0:0|0:0,0:0:0
215,128,75698,1,0,0:0:0
298,128,76041,1,8,0:0:0
349,192,76384,2,4,B|358:272|358:272|361:313,1,104,4|8,0:0|0:0,0:0:0
303,357,77070,6,4,B|349:392|410:380|435:329,2,156,4|4|8,0:0|0:0|0:0,0:0:0
256,288,78441,1,0,0:0:0
209,357,78784,2,4,B|163:392|102:380|77:329,1,156,8|4,0:0|0:0,0:0:0
52,208,79812,6,0,B|24:44,2,156,4|4|4,0:0|0:0|0:0,0:0:0
136,192,81184,2,0,B|164:356,2,156,4|2|2,0:0|0:0|0:0,0:0:0
256,192,82555,12,4,85298,0:0:0
132,104,85812,6,4,B|168:68|168:68|240:72|256:24|256:24|272:72|344:68|344:68|380:104,1,312
476,180,87355,1,4,0:0:0
380,260,87870,2,4,B|344:296|344:296|272:292|256:376|256:376|240:292|168:296|168:296|132:260,1,364,4|0,0:0|0:0,0:0:0
