osu file format v12

[General]
AudioFilename: chu2koi.mp3
AudioLeadIn: 1500
PreviewTime: 57794
Countdown: 0
SampleSet: Soft
StackLeniency: 0.4
Mode: 0
LetterboxInBreaks: 1

[Editor]
Bookmarks: 2680,2765,2851,4308,5680,7051,7737,9622,11851,17337,24194,26080,32937,50251,51622,55737,68165,68422,68680,82308,85051
DistanceSpacing: 1.1
BeatDivisor: 4
GridSize: 4

[Metadata]
Title:Sparkling Daydream (TV Size)
TitleUnicode:Sparkling Daydream (TV Size)
Artist:ZAQ
ArtistUnicode:ZAQ
Creator:Melophobia
Version:Normal
Source:Chu-2 byo demo KOI ga shitai
Tags:
BeatmapID:189823
BeatmapSetID:63727

[Difficulty]
HPDrainRate:4
CircleSize:3
OverallDifficulty:4
ApproachRate:5
SliderMultiplier:1
SliderTickRate:2

[Events]
//Background and Video events
0,0,"chu2koi.jpg",0,0
//Break Periods
//Storyboard Layer 0 (Background)
//Storyboard Layer 1 (Fail)
//Storyboard Layer 2 (Pass)
//Storyboard Layer 3 (Foreground)
//Storyboard Sound Samples
//Background Colour Transformations
3,100,163,162,255

[TimingPoints]
280,342.857142857143,4,2,1,50,1,0
1222,-100,4,2,1,60,0,0
2251,-100,4,2,1,70,0,0
13822,-100,4,2,1,40,0,0
13908,-100,4,2,1,50,0,0
21880,-100,4,2,1,40,0,0
22222,-100,4,2,1,30,0,0
23765,-100,4,2,1,40,0,0
23937,-100,4,2,1,60,0,0
24108,-100,4,2,1,70,0,0
35765,-100,4,2,1,60,0,0
41422,-100,4,2,1,70,0,0
46908,-100,4,2,1,60,0,0
52394,-100,4,2,1,70,0,0
55051,-100,4,2,1,60,0,0
56851,-200,4,2,1,60,0,0
57537,-100,4,2,2,70,0,0
57880,-100,4,2,1,80,0,1
82394,-100,4,2,1,70,0,1
83937,-100,4,1,1,50,0,1
84108,-100,4,1,1,55,0,1
84280,-100,4,1,1,60,0,1
84451,-100,4,1,1,65,0,1
84622,-100,4,1,1,70,0,1
84794,-100,4,1,1,75,0,1
84965,-100,4,1,1,80,0,1
85308,-100,4,2,1,100,0,0
85394,-100,4,2,1,70,0,0

[Colours]
Combo1 : 244,189,0
Combo2 : 175,240,4
Combo3 : 2,158,242
Combo4 : 252,167,220

[HitObjects]
24,104,280,2,0,P|92:72|164:80,1,150
248,224,1308,2,0,P|180:256|107:249,2,150
372,116,2851,6,0,P|406:174|402:254,1,150
328,336,3708,1,0,0:0:0:0:
224,300,4051,1,0,0:0:0:0:
120,336,4394,2,0,P|108:288|112:232,1,100
152,136,5080,1,0,0:0:0:0:
256,172,5422,1,0,0:0:0:0:
316,80,5765,6,0,P|364:64|432:72,2,100
256,172,6794,1,0,0:0:0:0:
200,264,7137,2,0,P|152:280|103:277,1,100
28,200,7822,2,0,L|20:148,1,50
88,64,8337,6,0,P|156:36|229:46,1,150
336,76,9194,2,0,P|347:122|346:175,1,100
280,264,9880,2,0,P|233:275|181:274,1,100
108,192,10565,1,0,0:0:0:0:
152,92,10908,5,0,0:0:0:0:
152,92,11080,2,0,P|232:68|296:77,1,150
392,136,11937,2,0,L|460:116,2,50
424,240,12622,2,0,L|492:220,2,50
464,344,13308,2,0,L|532:324,1,50
348,352,13994,6,0,P|304:340|240:340,1,100
144,364,14680,1,0,0:0:0:0:
52,304,15022,1,0,0:0:0:0:
52,304,15194,2,0,P|36:232|56:152,1,150
124,76,16051,2,0,P|172:60|224:64,1,100
316,116,16737,6,0,P|385:125|461:105,1,150
508,204,17594,1,0,0:0:0:0:
436,288,17937,6,0,P|366:278|290:298,1,150
188,340,18794,1,0,0:0:0:0:
84,300,19137,1,0,0:0:0:0:
44,200,19480,6,0,P|38:147|48:96,1,100
132,32,20165,1,0,0:0:0:0:
176,64,20337,2,0,P|224:68|284:56,1,100
364,120,21022,1,0,0:0:0:0:
364,120,21194,2,0,P|414:111|462:115,2,100
288,200,22222,6,0,P|101:117|186:32,1,400
276,88,23937,1,0,0:0:0:0:
380,48,24280,2,0,L|464:40,2,75
296,192,25308,6,0,P|243:184|188:156,1,100
96,136,25994,1,0,0:0:0:0:
96,136,26165,2,0,P|68:208|84:296,1,150
144,368,27022,1,0,0:0:0:0:
220,288,27365,1,0,0:0:0:0:
320,336,27708,6,0,P|368:320|420:328,1,100
468,344,28222,2,0,P|492:272|481:200,1,150
464,148,28908,2,0,L|300:148,1,150
224,88,29765,2,0,P|228:62|228:28,2,50
196,136,30280,5,0,0:0:0:0:
196,136,30451,2,0,P|185:188|196:244,1,100
280,304,31137,1,0,0:0:0:0:
384,272,31480,1,0,0:0:0:0:
384,272,31651,2,0,P|404:200|386:128,1,150
316,44,32508,2,0,L|208:28,1,100
116,68,33194,6,0,P|108:120|120:176,1,100
144,212,33708,2,0,P|190:203|242:211,1,100
292,232,34222,1,0,0:0:0:0:
344,248,34394,2,0,P|432:248|504:208,1,150
496,112,35251,1,0,0:0:0:0:
412,40,35594,1,0,0:0:0:0:
312,88,35937,6,0,P|260:88|216:69,1,100
108,44,36622,2,0,P|56:48|13:68,1,100
4,180,37308,2,0,P|6:225|24:284,1,100
108,344,37994,2,0,P|156:320|201:316,1,100
256,320,38508,1,0,0:0:0:0:
304,348,38680,5,0,0:0:0:0:
412,360,39022,1,0,0:0:0:0:
480,272,39365,2,0,P|492:220|481:175,1,100
456,124,39880,2,0,P|404:80|324:68,1,150
228,124,40737,2,0,P|180:136|124:124,1,100
80,104,41251,1,0,0:0:0:0:
28,124,41422,6,0,P|20:176|32:232,1,100
76,320,42108,2,0,P|124:340|180:344,1,100
248,268,42794,2,0,P|296:256|356:260,1,100
452,284,43480,1,0,0:0:0:0:
420,180,43822,1,0,0:0:0:0:
452,76,44165,6,0,P|396:74|356:96,1,100
276,168,44851,2,0,P|224:164|176:144,1,100
132,120,45365,2,0,P|-23:183|70:297,1,350
164,292,46908,6,0,P|216:304|252:331,1,100
364,340,47594,2,0,P|408:320|440:281,1,100
468,176,48280,1,0,0:0:0:0:
364,140,48622,2,0,P|356:92|364:40,1,100
252,28,49308,1,0,0:0:0:0:
152,76,49651,6,0,P|100:88|48:72,1,100
8,176,50337,2,0,P|6:230|16:292,1,100
88,356,51022,2,0,P|136:364|186:355,1,100
232,324,51537,2,0,P|303:302|392:328,1,150
348,212,52394,6,0,P|420:227|491:206,2,150
284,124,53765,1,0,0:0:0:0:
184,80,54108,1,0,0:0:0:0:
88,136,54451,1,0,0:0:0:0:
76,244,54794,1,0,0:0:0:0:
256,192,55137,12,0,56851,0:0:0:0:
304,272,57537,6,0,P|256:280|205:269,1,100
156,172,58222,5,0,0:0:0:0:
232,92,58565,2,0,P|280:84|330:94,1,100
436,128,59251,1,0,0:0:0:0:
360,208,59594,1,0,0:0:0:0:
420,300,59937,2,0,P|447:301|488:300,2,50
360,208,60622,6,0,P|312:200|248:212,1,100
176,280,61308,1,0,0:0:0:0:
80,228,61651,1,0,0:0:0:0:
80,116,61994,2,0,L|20:108,2,50
180,68,62680,2,0,P|216:56|276:52,1,75
332,36,63194,6,0,P|376:132|365:223,1,200
312,320,64222,2,0,L|384:336,2,50
264,288,64737,2,0,P|216:276|148:284,1,100
116,300,65251,1,0,0:0:0:0:
24,240,65594,2,0,P|12:188|24:124,1,100
48,96,66108,6,0,L|146:78,1,100
196,104,66622,2,0,L|294:86,1,100,0|0,0:0|0:0,0:0:0:0:
348,108,67137,1,0,0:0:0:0:
452,144,67480,2,0,P|464:196|460:248,1,100
404,336,68165,2,0,P|443:348|488:352,2,75
360,304,68851,6,0,P|308:300|244:316,1,100
156,336,69537,2,0,L|124:224,1,100
56,156,70222,1,0,0:0:0:0:
104,56,70565,1,0,0:0:0:0:
212,76,70908,2,0,P|264:73|324:60,1,100
420,60,71594,5,0,0:0:0:0:
468,160,71937,1,0,0:0:0:0:
364,188,72280,1,0,0:0:0:0:
412,288,72623,1,0,0:0:0:0:
304,304,72965,2,0,P|248:300|192:316,1,100
156,332,73480,2,0,L|92:324,2,50
40,216,74337,6,0,P|36:163|52:100,1,100
116,36,75022,1,0,0:0:0:0:
204,104,75365,2,0,P|256:100|308:84,1,100
388,20,76051,1,0,0:0:0:0:
468,92,76394,1,0,0:0:0:0:
484,144,76565,1,0,0:0:0:0:
492,200,76737,2,0,P|496:252|489:299,1,100
396,356,77422,5,0,0:0:0:0:
320,276,77765,1,0,0:0:0:0:
232,344,78108,2,0,P|180:348|132:336,1,100
84,240,78794,1,0,0:0:0:0:
116,136,79137,2,0,L|72:104,2,50
208,192,79822,6,0,P|224:112|190:56,2,150
108,240,81194,2,0,L|44:240,2,50
252,320,82051,2,0,P|328:344|392:320,1,150
464,240,82908,5,0,0:0:0:0:
412,144,83251,2,0,P|364:132|308:144,1,100
208,168,83937,2,0,P|96:152|236:68,1,400
336,192,85822,6,0,B|388:200|420:144|420:144|465:150,2,150
176,192,87365,2,0,B|124:200|92:144|92:144|46:150,1,150,0|4,0:0|0:0,0:0:0:0:
256,192,88051,12,0,89080,0:0:0:0:
