osu file format v12

[General]
AudioFilename: chu2koi.mp3
AudioLeadIn: 1500
PreviewTime: 57794
Countdown: 0
SampleSet: Soft
StackLeniency: 0.5
Mode: 0
LetterboxInBreaks: 0

[Editor]
Bookmarks: 2680,2765,2851,4308,5680,7051,7737,9622,11851,17337,24194,26080,32937,48880,50251,51622,55737,68165,68422,68680,82308,85051
DistanceSpacing: 1.1
BeatDivisor: 4
GridSize: 4

[Metadata]
Title:Sparkling Daydream (TV Size)
TitleUnicode:Sparkling Daydream (TV Size)
Artist:ZAQ
ArtistUnicode:ZAQ
Creator:Melophobia
Version:Insane
Source:Chu-2 byo demo KOI ga shitai
Tags:
BeatmapID:188064
BeatmapSetID:63727

[Difficulty]
HPDrainRate:7
CircleSize:4
OverallDifficulty:8
ApproachRate:9
SliderMultiplier:1.8
SliderTickRate:2

[Events]
//Background and Video events
0,0,"chu2koi.jpg",0,0
//Break Periods
//Storyboard Layer 0 (Background)
//Storyboard Layer 1 (Fail)
//Storyboard Layer 2 (Pass)
//Storyboard Layer 3 (Foreground)
//Storyboard Sound Samples
//Background Colour Transformations
3,100,163,162,255

[TimingPoints]
280,342.857142857143,4,2,4,50,1,0
2251,-100,4,2,4,70,0,0
2351,-100,4,2,4,70,0,0
13308,-100,4,1,4,50,0,0
13994,-133.333333333333,4,2,4,40,0,0
21880,-133.333333333333,4,2,4,40,0,0
22222,-100,4,2,4,30,0,0
23765,-100,4,1,4,50,0,0
25308,-66.6666666666667,4,2,4,70,0,0
25565,-100,4,2,4,70,0,0
35765,-100,4,2,4,60,0,0
41422,-100,4,2,4,70,0,0
46908,-100,4,2,4,60,0,0
52394,-100,4,2,4,70,0,0
55051,-100,4,2,4,60,0,0
56851,-200,4,2,4,60,0,0
57537,-66.6666666666667,4,2,4,70,0,0
57880,-100,4,2,4,80,0,1
63708,-100,4,2,4,70,0,1
63794,-100,4,2,4,80,0,1
83937,-100,4,1,4,50,0,1
84108,-100,4,1,4,55,0,1
84280,-100,4,1,4,60,0,1
84451,-100,4,1,4,65,0,1
84622,-100,4,1,4,70,0,1
84794,-100,4,1,4,75,0,1
84965,-100,4,1,4,80,0,1
85308,-100,4,2,4,70,0,0
87965,-100,4,2,4,5,0,0

[Colours]
Combo1 : 244,189,0
Combo2 : 175,240,4
Combo3 : 2,158,242
Combo4 : 252,167,220

[HitObjects]
96,95,280,1,2,0:0:0:0:
160,252,451,1,0,0:0:0:0:
172,156,623,1,0,0:0:0:0:
84,191,794,1,2,0:0:0:0:
248,289,965,1,0,0:0:0:0:
264,136,1137,1,0,0:0:0:0:
160,252,1308,1,2,0:0:0:0:
312,218,1480,1,0,0:0:0:0:
172,156,1651,1,0,0:0:0:0:
248,289,1822,1,2,0:0:0:0:
400,228,1994,1,0,0:0:0:0:
400,228,2165,1,2,0:0:0:0:
428,104,2337,5,2,0:0:0:0:
398,77,2422,1,0,0:0:0:0:
363,56,2508,1,0,0:0:0:0:
326,44,2594,1,0,0:0:0:0:
286,40,2679,1,0,0:0:0:0:
246,43,2765,1,0,0:0:0:0:
208,56,2851,6,0,P|140:152|136:216,1,180,4|0,0:0|0:0,0:0:0:0:
304,328,3365,2,0,P|372:232|376:168,1,180,12|2,0:0|0:0,0:0:0:0:
328,84,3880,1,0,0:0:0:0:
244,136,4051,2,0,P|180:164|120:148,1,135,8|8,0:0|0:0,0:0:0:0:
119,147,4394,6,0,L|101:59,1,90,2|0,0:0|0:0,0:0:0:0:
20,152,4737,2,0,L|38:240,1,90,8|0,0:0|0:0,0:0:0:0:
100,320,5080,2,0,P|144:312|208:288,1,90,2|0,0:0|0:0,0:0:0:0:
264,236,5422,1,8,0:0:0:0:
328,312,5594,5,4,0:0:0:0:
328,312,5680,1,8,0:0:0:0:
328,312,5765,2,0,P|368:232|324:148,1,180,2|8,0:0|0:0,0:0:0:0:
184,60,6280,2,0,P|172:104|176:168,1,90,0|2,0:0|0:0,0:0:0:0:
224,336,6622,2,0,P|236:292|235:247,1,90,0|8,0:0|0:0,0:0:0:0:
60,128,6965,5,0,0:0:0:0:
60,128,7051,1,8,0:0:0:0:
60,128,7137,2,0,P|52:188|56:216,1,90,2|0,0:0|0:0,0:0:0:0:
8,304,7480,2,0,P|68:276|140:280,1,135,0|8,0:0|0:0,0:0:0:0:
184,292,7822,2,0,P|232:296|280:276,1,90,2|0,0:0|0:0,0:0:0:0:
292,184,8165,1,8,0:0:0:0:
416,312,8337,6,0,P|444:224|404:152,1,180,4|0,0:0|0:0,0:0:0:0:
324,92,8851,1,8,0:0:0:0:
292,184,9022,1,0,0:0:0:0:
240,48,9194,2,0,P|196:52|148:84,1,90,2|0,0:0|0:0,0:0:0:0:
184,216,9537,1,8,0:0:0:0:
184,216,9622,1,8,0:0:0:0:
184,216,9708,1,0,0:0:0:0:
274,348,9880,6,0,P|280:304|272:260,1,90,2|0,0:0|0:0,0:0:0:0:
82,127,10222,2,0,P|75:170|84:216,1,90,8|0,0:0|0:0,0:0:0:0:
164,304,10565,1,2,0:0:0:0:
272,260,10737,1,0,0:0:0:0:
272,260,10822,1,0,0:0:0:0:
272,260,10908,1,8,0:0:0:0:
336,164,11080,6,0,P|392:228|352:332,1,180,4|0,0:0|0:0,0:0:0:0:
164,304,11594,1,8,0:0:0:0:
180,188,11765,1,0,0:0:0:0:
180,188,11851,1,8,0:0:0:0:
180,188,11937,1,2,0:0:0:0:
348,80,12108,1,0,0:0:0:0:
332,196,12279,1,8,0:0:0:0:
192,64,12451,6,0,P|232:44|288:40,1,90,0|2,0:0|0:0,0:0:0:0:
432,88,12794,1,0,0:0:0:0:
416,248,12965,2,0,P|356:292|256:264,1,180,8|0,0:0|0:0,0:0:0:0:
256,80,13480,1,0,0:0:0:0:
260,84,13994,6,0,P|196:68|128:84,1,135.000005149842,6|0,0:0|0:0,0:0:0:0:
64,160,14508,1,2,0:0:0:0:
112,248,14680,1,0,0:0:0:0:
56,332,14851,6,0,L|-16:320,1,67.5000025749208,2|0,0:0|0:0,0:0:0:0:
112,248,15194,2,0,L|178:259,1,67.5000025749208,2|0,0:0|0:0,0:0:0:0:
292,184,15537,2,0,L|225:172,2,67.5000025749208,0|8|0,0:0|0:0|0:0,0:0:0:0:
384,140,16051,2,0,P|392:212|358:261,1,135.000005149842,2|0,0:0|0:0,0:0:0:0:
264,296,16565,5,0,0:0:0:0:
264,296,16651,1,0,0:0:0:0:
264,296,16737,2,0,L|124:272,1,135.000005149842,2|0,0:0|0:0,0:0:0:0:
81,82,17251,2,0,P|48:132|56:204,1,135.000005149842,2|2,0:0|0:0,0:0:0:0:
132,272,17765,1,0,0:0:0:0:
204,152,17937,6,0,P|268:132|331:150,1,135.000005149842,2|2,0:0|0:0,0:0:0:0:
404,80,18451,1,8,0:0:0:0:
284,248,18622,2,0,P|321:254|351:254,1,67.5000025749208,2|0,0:0|0:0,0:0:0:0:
268,92,18965,2,0,P|238:92|200:98,1,67.5000025749208,0|2,0:0|0:0,0:0:0:0:
124,160,19308,1,0,0:0:0:0:
56,88,19480,6,0,P|24:148|44:220,1,135.000005149842,2|10,0:0|0:0,0:0:0:0:
124,160,19994,1,8,0:0:0:0:
124,160,20165,1,0,0:0:0:0:
84,312,20337,2,0,P|84:344|88:380,1,67.5000025749208,2|0,0:0|0:0,0:0:0:0:
228,272,20680,6,0,P|232:236|232:204,1,67.5000025749208,2|0,0:0|0:0,0:0:0:0:
192,120,21022,1,2,0:0:0:0:
228,272,21194,2,0,P|316:268|352:224,1,135.000005149842,8|2,0:0|0:0,0:0:0:0:
360,140,21708,1,0,0:0:0:0:
264,112,21880,2,0,P|263:148|272:200,1,67.5000025749208
432,272,22222,6,0,L|440:192,3,45,2|0|0|0,0:0|0:0|0:0|0:0,0:0:0:0:
412,204,22565,2,0,L|420:124,3,45,2|0|0|0,0:0|0:0|0:0|0:0,0:0:0:0:
392,132,22908,5,2,0:0:0:0:
364,108,22994,1,0,0:0:0:0:
328,96,23080,1,0,0:0:0:0:
292,96,23165,1,0,0:0:0:0:
256,108,23251,1,2,0:0:0:0:
220,116,23337,1,0,0:0:0:0:
184,112,23422,1,0,0:0:0:0:
152,96,23508,1,0,0:0:0:0:
120,80,23594,6,0,P|78:68|16:72,1,90
136,256,23937,2,0,P|136:208|121:167,1,90,0|0,0:0|2:0,0:0:0:0:
16,324,24280,5,0,0:0:0:0:
120,80,24537,1,0,0:0:0:0:
280,292,24794,1,0,0:0:0:0:
284,296,25137,1,2,2:0:0:0:
192,124,25308,6,0,P|176:188|191:254,1,135.000005149842,12|0,0:0|0:0,0:0:0:0:
92,356,25651,6,0,P|100:308|88:252,1,90,2|0,0:0|0:0,0:0:0:0:
24,140,25994,1,8,0:0:0:0:
24,140,26080,1,0,0:0:0:0:
24,140,26165,2,0,P|80:136|116:120,1,90,2|0,0:0|0:0,0:0:0:0:
236,212,26508,1,0,0:0:0:0:
389,80,26680,6,0,P|348:73|300:72,1,90,8|0,0:0|0:0,0:0:0:0:
336,276,27022,2,0,P|377:283|425:284,1,90,2|0,0:0|0:0,0:0:0:0:
328,156,27365,1,8,0:0:0:0:
236,213,27537,6,0,P|228:254|227:302,1,90,0|2,0:0|0:0,0:0:0:0:
88,236,27880,2,0,P|87:188|79:146,1,90,0|8,0:0|0:0,0:0:0:0:
104,40,28222,2,0,P|192:52|288:24,1,180,2|0,0:0|0:0,0:0:0:0:
356,92,28737,1,8,0:0:0:0:
372,128,28822,1,0,0:0:0:0:
376,168,28908,1,2,0:0:0:0:
440,32,29080,6,0,P|476:104|472:204,1,180,0|8,0:0|0:0,0:0:0:0:
396,268,29594,2,0,L|268:296,1,90,0|2,0:0|0:0,0:0:0:0:
224,340,29937,1,0,0:0:0:0:
224,340,30108,1,8,0:0:0:0:
192,200,30280,1,0,0:0:0:0:
120,280,30451,6,0,P|116:328|128:376,1,90,2|0,0:0|0:0,0:0:0:0:
284,236,30794,2,0,P|288:188|276:140,1,90,8|0,0:0|0:0,0:0:0:0:
216,68,31137,1,2,0:0:0:0:
105,184,31308,2,0,P|148:200|192:200,1,90,0|8,0:0|0:0,0:0:0:0:
380,152,31651,5,2,0:0:0:0:
380,152,31737,1,0,0:0:0:0:
380,152,31822,2,0,L|368:241,1,90
280,152,32165,2,0,L|291:62,1,90,8|0,0:0|0:0,0:0:0:0:
368,240,32508,2,0,P|292:272|196:236,1,180,2|8,0:0|0:0,0:0:0:0:
144,144,33022,1,0,0:0:0:0:
64,228,33194,6,0,P|32:152|68:56,1,180,6|8,0:0|0:0,0:0:0:0:
200,28,33708,2,0,P|216:72|216:116,1,90,0|2,0:0|0:0,0:0:0:0:
280,272,34051,2,0,P|280:229|296:185,1,90,0|8,0:0|0:0,0:0:0:0:
380,128,34394,1,0,0:0:0:0:
460,184,34565,6,0,P|484:264|436:348,1,180,2|8,0:0|0:0,0:0:0:0:
344,364,35080,1,0,0:0:0:0:
280,288,35251,1,2,0:0:0:0:
244,268,35337,1,0,0:0:0:0:
204,260,35422,1,0,0:0:0:0:
164,264,35508,1,0,0:0:0:0:
124,276,35594,2,0,P|96:276|80:268,3,45,10|0|0|0,0:0|0:0|0:0|0:0,0:0:0:0:
4,264,35937,6,0,P|4:308|10:353,1,90,6|0,0:0|0:0,0:0:0:0:
124,276,36280,2,0,P|124:232|117:186,1,90
224,344,36622,2,0,P|312:356|392:308,1,180,2|8,0:0|0:0,0:0:0:0:
408,204,37137,1,0,0:0:0:0:
492,272,37308,6,0,P|504:184|456:104,1,180,2|0,0:0|0:0,0:0:0:0:
372,48,37822,1,0,0:0:0:0:
320,144,37994,2,0,P|243:187|155:175,1,180,2|8,0:0|0:0,0:0:0:0:
72,104,38508,1,0,0:0:0:0:
144,24,38680,5,2,0:0:0:0:
96,260,39022,2,0,P|172:303|260:291,1,180,0|2,0:0|0:0,0:0:0:0:
348,228,39537,1,0,0:0:0:0:
312,128,39708,1,8,0:0:0:0:
388,328,39880,6,0,P|440:272|436:172,1,180,2|0,0:0|0:0,0:0:0:0:
272,32,40394,2,0,P|220:88|224:188,1,180,2|0,0:0|0:0,0:0:0:0:
348,228,40908,1,0,0:0:0:0:
312,128,41080,1,8,0:0:0:0:
256,300,41251,1,0,0:0:0:0:
312,128,41422,6,0,P|256:76|156:80,1,180,6|8,0:0|0:0,0:0:0:0:
80,192,41937,1,0,0:0:0:0:
80,192,42108,1,2,0:0:0:0:
156,256,42280,2,0,P|176:208|176:160,1,90,0|8,0:0|0:0,0:0:0:0:
72,12,42622,2,0,P|52:60|52:108,1,90,0|2,0:0|0:0,0:0:0:0:
80,192,42965,5,0,0:0:0:0:
208,64,43137,1,8,0:0:0:0:
284,200,43308,1,0,0:0:0:0:
208,260,43480,2,0,P|192:220|192:164,1,90,2|0,0:0|0:0,0:0:0:0:
332,44,43822,2,0,P|348:84|348:140,1,90,8|0,0:0|0:0,0:0:0:0:
292,312,44165,6,0,P|212:348|128:316,1,180,2|8,0:0|0:0,0:0:0:0:
64,152,44680,2,0,P|56:200|68:256,2,90,0|2|0,0:0|0:0|0:0,0:0:0:0:
164,48,45194,1,8,0:0:0:0:
288,208,45365,2,0,P|296:160|290:120,1,90,2|0,0:0|0:0,0:0:0:0:
176,160,45708,5,2,0:0:0:0:
170,190,45793,1,0,0:0:0:0:
172,222,45879,1,8,0:0:0:0:
181,252,45965,1,0,0:0:0:0:
198,278,46050,1,2,0:0:0:0:
221,300,46136,1,0,0:0:0:0:
248,315,46222,1,0,0:0:0:0:
279,323,46307,1,0,0:0:0:0:
310,323,46393,1,2,0:0:0:0:
341,316,46479,1,0,0:0:0:0:
368,301,46565,6,0,L|376:244,1,45,2|0,0:0|0:0,0:0:0:0:
292,164,46737,2,0,L|286:208,1,45
456,196,46908,1,6,0:0:0:0:
180,52,47251,6,0,P|136:56|88:76,1,90,8|0,0:0|0:0,0:0:0:0:
220,156,47594,1,2,0:0:0:0:
96,76,47765,1,0,0:0:0:0:
88,260,47937,2,0,P|132:256|180:236,1,90,8|0,0:0|0:0,0:0:0:0:
384,216,48280,6,0,P|392:264|388:312,2,90,2|0|8,0:0|0:0|0:0,0:0:0:0:
316,144,48794,1,0,0:0:0:0:
316,144,48880,1,8,0:0:0:0:
316,144,48965,1,2,0:0:0:0:
220,168,49137,1,0,0:0:0:0:
288,240,49308,1,8,0:0:0:0:
248,72,49480,1,0,0:0:0:0:
192,264,49651,6,0,P|120:296|32:240,1,180,2|8,0:0|0:0,0:0:0:0:
36,124,50165,1,0,0:0:0:0:
36,124,50251,1,8,0:0:0:0:
36,124,50337,1,2,0:0:0:0:
248,72,50508,1,0,0:0:0:0:
156,160,50680,1,8,0:0:0:0:
128,36,50851,1,0,0:0:0:0:
280,192,51022,6,0,P|368:136|372:60,1,180,2|8,0:0|0:0,0:0:0:0:
196,32,51537,1,0,0:0:0:0:
196,32,51622,1,8,0:0:0:0:
196,32,51708,2,0,P|192:76|200:124,1,90,2|0,0:0|0:0,0:0:0:0:
92,280,52051,2,0,P|96:236|88:188,1,90,8|0,0:0|0:0,0:0:0:0:
216,312,52394,6,0,P|304:320|372:256,1,180,6|8,0:0|0:0,0:0:0:0:
372,132,52908,2,0,L|476:112,2,90,0|2|0,0:0|0:0|0:0,0:0:0:0:
212,88,53422,2,0,P|212:144|228:188,1,90,8|0,0:0|0:0,0:0:0:0:
216,312,53765,6,0,P|172:324|128:320,1,90,2|0,0:0|0:0,0:0:0:0:
20,200,54108,2,0,P|80:176|151:188,1,135,8|8,0:0|0:0,0:0:0:0:
224,216,54451,2,0,P|272:212|324:192,1,90,2|0,0:0|0:0,0:0:0:0:
204,48,54794,2,0,P|156:52|104:72,1,90,8|0,0:0|0:0,0:0:0:0:
148,236,55137,5,6,0:0:0:0:
68,169,55309,1,0,0:0:0:0:
50,271,55480,1,10,0:0:0:0:
159,238,55652,5,2,0:0:0:0:
64,157,55822,1,0,0:0:0:0:
42,280,55995,1,2,0:0:0:0:
173,240,56166,5,2,0:0:0:0:
59,144,56338,1,0,0:0:0:0:
33,291,56508,2,0,L|40:352,1,45,0|0,0:0|0:0,0:0:0:0:
184,244,56680,2,0,L|178:199,1,45
292,320,56851,6,0,P|352:344|414:318,1,135,2|0,0:0|0:0,0:0:0:0:
280,124,57537,6,0,P|220:100|157:125,1,135,10|0,0:0|0:0,0:0:0:0:
24,264,57880,6,0,P|68:268|109:250,1,90,6|0,0:0|0:0,0:0:0:0:
280,124,58222,1,8,0:0:0:0:
184,88,58394,2,0,P|180:132|192:180,1,90,0|2,0:0|0:0,0:0:0:0:
324,272,58737,2,0,L|424:260,2,90,0|8|0,0:0|0:0|0:0,0:0:0:0:
180,324,59251,5,2,0:0:0:0:
180,324,59337,1,0,0:0:0:0:
180,324,59422,1,0,0:0:0:0:
208,172,59594,1,8,0:0:0:0:
324,272,59765,1,0,0:0:0:0:
248,336,59937,2,0,P|232:296|233:249,1,90,2|0,0:0|0:0,0:0:0:0:
368,100,60280,2,0,P|384:140|382:186,1,90,8|0,0:0|0:0,0:0:0:0:
248,336,60622,6,0,L|124:352,1,90,2|0,0:0|0:0,0:0:0:0:
84,216,60965,2,0,P|164:176|236:200,1,135,8|0,0:0|0:0,0:0:0:0:
252,200,61308,2,0,P|260:152|253:111,1,90,2|0,0:0|0:0,0:0:0:0:
84,28,61651,2,0,P|76:76|82:116,1,90,8|0,0:0|0:0,0:0:0:0:
140,200,61994,5,2,0:0:0:0:
140,200,62165,1,2,0:0:0:0:
284,70,62337,1,8,0:0:0:0:
324,259,62509,1,2,0:0:0:0:
146,62,62680,5,10,0:0:0:0:
399,144,62937,1,10,0:0:0:0:
201,322,63194,6,0,P|108:328|32:280,1,180,6|0,0:0|0:0,0:0:0:0:
44,108,63708,2,0,P|137:102|213:150,1,180,8|2,0:0|0:0,0:0:0:0:
288,208,64222,2,0,P|336:200|372:182,1,90,0|8,0:0|0:0,0:0:0:0:
272,52,64565,1,0,0:0:0:0:
200,248,64737,6,0,P|106:253|30:205,1,180,2|8,0:0|0:0,0:0:0:0:
44,108,65251,1,2,0:0:0:0:
44,108,65337,1,0,0:0:0:0:
44,108,65422,1,0,0:0:0:0:
240,128,65594,1,2,0:0:0:0:
104,176,65765,1,8,0:0:0:0:
144,76,65937,1,2,0:0:0:0:
204,220,66108,5,2,0:0:0:0:
208,224,66451,1,8,0:0:0:0:
164,312,66622,2,0,P|104:240|144:148,1,180,2|2,0:0|0:0,0:0:0:0:
288,52,67137,2,0,P|312:100|312:144,1,90,8|0,0:0|0:0,0:0:0:0:
219,265,67480,5,2,0:0:0:0:
313,135,67651,1,0,0:0:0:0:
313,296,67822,1,10,0:0:0:0:
219,166,67995,1,2,0:0:0:0:
372,216,68165,5,8,0:0:0:0:
372,216,68251,1,0,0:0:0:0:
240,356,68422,1,8,0:0:0:0:
240,356,68508,1,0,0:0:0:0:
104,220,68680,1,8,0:0:0:0:
184,160,68851,6,0,P|200:204|199:246,1,90,6|0,0:0|0:0,0:0:0:0:
44,352,69194,2,0,P|28:308|28:265,1,90,8|0,0:0|0:0,0:0:0:0:
68,128,69537,1,2,0:0:0:0:
199,247,69708,2,0,P|242:247|286:231,2,90,0|8|0,0:0|0:0|0:0,0:0:0:0:
104,220,70222,5,2,0:0:0:0:
136,56,70394,1,0,0:0:0:0:
199,247,70565,1,8,0:0:0:0:
68,128,70737,1,0,0:0:0:0:
136,56,70908,2,0,P|160:96|162:138,1,90,2|0,0:0|0:0,0:0:0:0:
36,292,71251,2,0,P|12:252|9:209,1,90,8|0,0:0|0:0,0:0:0:0:
162,138,71594,6,0,L|251:128,1,90,2|0,0:0|0:0,0:0:0:0:
318,202,71937,2,0,L|407:192,2,90,8|0|2,0:0|0:0|0:0,0:0:0:0:
251,128,72451,1,0,0:0:0:0:
318,290,72622,2,0,P|326:246|318:202,1,90,8|0,0:0|0:0,0:0:0:0:
154,82,72965,6,0,P|146:126|154:170,1,90,6|0,0:0|0:0,0:0:0:0:
112,312,73308,2,0,P|156:304|200:312,1,90,8|0,0:0|0:0,0:0:0:0:
251,128,73651,1,2,0:0:0:0:
384,284,73822,2,0,P|424:208|384:108,1,180,4|2,0:0|0:0,0:0:0:0:
312,68,74337,6,0,P|264:76|212:56,1,90,6|0,0:0|0:0,0:0:0:0:
128,48,74680,1,8,0:0:0:0:
52,112,74851,2,0,P|44:176|64:228,1,90,0|2,0:0|0:0,0:0:0:0:
84,292,75194,1,0,0:0:0:0:
180,268,75365,2,0,P|226:262|272:272,1,90,8|0,0:0|0:0,0:0:0:0:
444,236,75708,6,0,P|397:241|352:232,1,90,2|0,0:0|0:0,0:0:0:0:
276,172,76051,1,8,0:0:0:0:
364,136,76222,1,0,0:0:0:0:
268,272,76394,1,2,0:0:0:0:
288,72,76565,1,2,0:0:0:0:
356,232,76737,2,0,P|368:284|360:332,1,90,8|0,0:0|0:0,0:0:0:0:
248,368,77080,6,0,P|204:360|144:372,1,90,2|0,0:0|0:0,0:0:0:0:
28,288,77422,2,0,P|16:240|17:199,1,90,8|0,0:0|0:0,0:0:0:0:
128,116,77765,2,0,P|140:164|139:205,2,90,2|0|8,0:0|0:0|0:0,0:0:0:0:
212,60,78280,6,0,P|256:56|299:67,1,90,0|2,0:0|0:0,0:0:0:0:
440,146,78622,1,0,0:0:0:0:
281,165,78793,1,8,0:0:0:0:
398,56,78965,1,0,0:0:0:0:
368,213,79137,1,2,0:0:0:0:
300,68,79308,1,2,0:0:0:0:
300,68,79394,1,0,0:0:0:0:
300,68,79480,1,8,0:0:0:0:
336,336,79822,6,0,P|252:296|156:316,1,180,6|8,0:0|0:0,0:0:0:0:
104,236,80337,2,0,P|48:240|16:232,2,90,0|2|0,0:0|0:0|0:0,0:0:0:0:
128,69,80851,2,0,P|153:115|160:152,1,90,8|0,0:0|0:0,0:0:0:0:
104,236,81194,5,2,0:0:0:0:
248,131,81365,1,2,0:0:0:0:
269,308,81537,2,0,P|360:316|436:276,1,180,8|2,0:0|0:0,0:0:0:0:
444,84,82051,2,0,P|400:88|356:120,1,90,8|2,0:0|0:0,0:0:0:0:
348,140,82308,1,0,0:0:0:0:
348,140,82394,1,0,0:0:0:0:
264,196,82565,6,0,P|172:192|96:128,2,180,6|8|2,0:0|0:0|0:0,0:0:0:0:
300,104,83422,1,0,0:0:0:0:
224,40,83594,2,0,P|208:84|212:136,1,90,8|0,0:0|0:0,0:0:0:0:
136,193,83937,5,0,0:0:0:0:
324,256,84108,1,0,0:0:0:0:
210,127,84280,1,8,0:2:0:0:
251,321,84451,1,0,0:0:0:0:
304,158,84623,1,0,0:0:0:0:
157,290,84794,1,0,0:0:0:0:
229,223,84965,1,8,0:2:0:0:
229,223,85051,1,0,0:0:0:0:
229,223,85137,1,0,0:0:0:0:
424,304,85308,6,0,P|440:256|424:196,1,90,4|2,0:0|0:0,0:0:0:0:
332,76,85651,1,8,0:0:0:0:
316,172,85822,6,0,P|356:170|400:146,1,90,4|2,0:0|0:0,0:0:0:0:
160,50,86165,1,8,0:0:0:0:
236,112,86336,6,0,P|254:76|255:26,1,90,4|2,0:0|0:0,0:0:0:0:
48,182,86680,1,8,0:0:0:0:
140,148,86851,6,0,P|118:114|75:88,1,90,4|2,0:0|0:0,0:0:0:0:
107,344,87194,1,8,0:0:0:0:
124,248,87365,6,0,P|83:250|40:272,1,90,4|2,0:0|0:0,0:0:0:0:
276,376,87708,2,0,P|288:324|276:268,1,90,8|4,0:0|0:0,0:0:0:0:
256,192,87965,12,0,89080,0:0:0:0:
