osu file format v14

[General]
AudioFilename: ZAQ.mp3
AudioLeadIn: 0
PreviewTime: 57875
Countdown: 0
SampleSet: Normal
StackLeniency: 0.7
Mode: 0
LetterboxInBreaks: 0
WidescreenStoryboard: 1

[Editor]
DistanceSpacing: 1
BeatDivisor: 4
GridSize: 4
TimelineZoom: 2.7

[Metadata]
Title:Sparkling Daydream (TV Size)
TitleUnicode:Sparkling Daydream (TV Size)
Artist:ZAQ
ArtistUnicode:ZAQ
Creator:Line-
Version:Normal
Source:Chu-2 byo demo KOI ga shitai!
Tags:
BeatmapID:725516
BeatmapSetID:323540

[Difficulty]
HPDrainRate:3
CircleSize:3
OverallDifficulty:4
ApproachRate:5
SliderMultiplier:1.2
SliderTickRate:1

[Events]
//Background and Video events
0,0,"BG.png",0,0
//Break Periods
//Storyboard Layer 0 (Background)
//Storyboard Layer 1 (Fail)
//Storyboard Layer 2 (Pass)
//Storyboard Layer 3 (Foreground)
//Storyboard Sound Samples

[TimingPoints]
275,342.857142857143,4,1,0,45,1,0
2846,-100,4,1,0,65,0,0
13989,-100,4,1,0,45,0,0
23760,-100,4,1,0,5,0,0
25303,-100,4,1,0,55,0,0
56503,-100,4,1,0,5,0,0
57532,-100,4,1,0,65,0,0
57875,-100,4,1,0,65,0,1
87875,-100,4,1,0,65,0,0

[HitObjects]
116,83,275,6,0,P|169:61|224:83,1,120
166,188,960,2,0,P|219:210|274:188,1,120
379,130,1646,2,0,L|379:256,1,120
499,248,2332,2,0,B|491:302|439:380|358:368,1,180,0|4,0:0|0:0,0:0:0:0:
214,304,3360,6,0,L|147:204,1,120,8|0,0:0|0:0,0:0:0:0:
27,204,4046,1,8,0:0:0:0:
27,83,4389,2,0,P|85:95|143:83,1,120,0|8,0:0|0:0,0:0:0:0:
232,1,5075,2,0,P|263:61|258:120,1,120,0|8,0:0|0:0,0:0:0:0:
260,111,5589,1,4,0:0:0:0:
439,130,6103,6,0,L|439:250,1,120,8|0,0:0|0:0,0:0:0:0:
439,370,6789,1,8,0:0:0:0:
318,370,7132,2,0,P|265:330|247:271,1,120,0|8,0:0|0:0,0:0:0:0:
366,257,7817,2,8,L|418:213,1,60
431,98,8332,6,0,P|352:57|262:56,1,180,4|8,0:0|0:0,0:0:0:0:
262,175,9189,2,0,P|205:160|162:119,1,120,0|8,0:0|0:0,0:0:0:0:
93,217,9875,2,0,L|32:111,1,120,0|8,0:0|0:0,0:0:0:0:
117,27,10560,2,0,P|175:14|233:27,1,120,0|8,0:0|0:0,0:0:0:0:
233,27,11075,1,4,0:0:0:0:
406,76,11589,6,0,P|423:133|405:189,1,120,8|0,0:0|0:0,0:0:0:0:
299,131,12275,1,8,0:0:0:0:
179,131,12617,2,0,P|125:153|91:207,1,120,0|8,0:0|0:0,0:0:0:0:
209,257,13303,1,8,0:0:0:0:
209,257,13475,1,8,0:0:0:0:
256,80,13989,5,0,0:0:0:0:
423,145,14503,2,0,L|423:206,2,60
490,45,15189,2,0,P|419:26|319:82,1,180
304,128,15875,1,0,0:0:0:0:
280,184,16046,2,0,P|219:226|160:217,1,120
150,168,16560,2,0,P|89:126|30:135,1,120
59,248,17246,2,0,P|44:315|65:368,2,120
168,304,18275,5,0,0:0:0:0:
224,280,18446,1,0,0:0:0:0:
280,256,18617,2,0,P|344:200|352:144,1,120
357,108,19132,2,0,P|401:91|420:94,2,60
242,72,19817,2,0,L|210:132,1,60
154,137,20160,2,0,L|122:197,1,60
20,248,20675,2,0,P|54:289|126:311,1,120
162,273,21189,2,0,P|218:291|257:335,1,120
256,192,22217,12,0,23760,0:0:0:0:
256,192,24789,5,0,0:0:0:0:
149,335,25303,2,0,B|196:265|326:366|376:336,1,240,4|8,0:0|0:0,0:0:0:0:
495,316,26332,2,0,P|459:249|418:224,1,120,0|8,0:0|0:0,0:0:0:0:
340,139,27017,2,0,P|281:143|233:109,1,120,0|8,0:0|0:0,0:0:0:0:
176,90,27532,6,0,P|117:88|71:125,1,120
25,235,28217,2,0,L|67:347,1,120
126,334,28732,1,8,0:0:0:0:
184,347,28903,2,0,L|226:234,1,120
181,122,29589,6,0,P|258:120|315:153,1,120
341,175,30103,2,0,P|370:165|394:148,2,60,8|0|0,0:0|0:0|0:0,0:0:0:0:
453,220,30789,1,8,0:0:0:0:
361,297,31132,1,0,0:0:0:0:
360,297,31303,2,0,P|304:315|244:314,1,120
124,314,31989,2,0,L|124:243,2,60,0|8|0,0:0|0:0|0:0,0:0:0:0:
63,314,32503,2,0,P|23:251|23:190,1,120,0|8,0:0|0:0,0:0:0:0:
47,90,33189,6,0,L|174:84,1,120,0|8,0:0|0:0,0:0:0:0:
188,28,33703,2,0,P|223:58|208:124,2,120
368,28,34903,1,8,0:0:0:0:
464,99,35246,2,0,L|464:219,1,120,0|8,0:0|0:0,0:0:0:0:
464,339,35932,6,0,B|357:329|357:234|298:234,1,180,4|0,0:0|0:0,0:0:0:0:
264,261,36617,2,0,P|210:282|156:260,1,120,0|8,0:0|0:0,0:0:0:0:
89,160,37303,2,0,B|196:150|196:55|255:55,1,180
288,82,37989,2,0,P|342:103|396:81,1,120,0|8,0:0|0:0,0:0:0:0:
491,155,38675,5,0,0:0:0:0:
492,274,39017,1,8,0:0:0:0:
398,349,39360,2,0,P|318:349|266:326,1,120,0|8,0:0|0:0,0:0:0:0:
243,288,39875,2,0,P|172:240|75:230,1,180,0|8,0:0|0:0,0:0:0:0:
40,116,40732,2,0,P|76:109|114:114,2,60,0|8|8,0:0|0:0|0:0,0:0:0:0:
80,229,41417,6,0,P|148:219|201:173,1,120,4|8,0:0|0:0,0:0:0:0:
193,129,41932,2,0,L|325:130,2,120
362,68,43132,2,0,P|379:136|364:191,2,120,8|0|8,0:0|0:0|0:0,0:0:0:0:
244,39,44160,6,0,P|185:43|137:78,1,120,0|8,0:0|0:0,0:0:0:0:
124,137,44675,2,0,P|139:194|124:251,2,120
304,137,45875,2,0,L|424:137,1,120,8|0,0:0|0:0,0:0:0:0:
424,257,46560,1,8,0:0:0:0:
474,366,46903,6,0,P|419:374|356:356,1,120,4|8,0:0|0:0,0:0:0:0:
300,372,47417,1,0,0:0:0:0:
240,368,47589,2,0,P|184:375|121:357,1,120,0|8,0:0|0:0,0:0:0:0:
40,272,48275,2,0,L|116:168,1,120,0|8,0:0|0:0,0:0:0:0:
84,121,48789,2,0,P|148:125|169:180,1,120
169,170,49303,1,8,0:0:0:0:
261,248,49646,6,0,P|312:288|370:288,1,120,0|8,0:0|0:0,0:0:0:0:
457,212,50332,2,0,P|406:172|348:172,1,120,0|8,0:0|0:0,0:0:0:0:
302,61,51017,2,0,L|172:104,1,120,0|8,0:0|0:0,0:0:0:0:
147,53,51532,2,0,P|132:133|211:155,1,180,0|8,0:0|0:0,0:0:0:0:
330,146,52389,6,0,P|385:209|380:302,2,180,4|0|8,0:0|0:0|0:0,0:0:0:0:
279,251,53760,2,0,L|145:306,1,120,0|8,0:0|0:0,0:0:0:0:
74,220,54446,2,0,L|208:165,1,120,0|8,0:0|0:0,0:0:0:0:
256,192,55132,12,0,56503,0:0:0:0:
256,192,57532,5,8,0:0:0:0:
152,131,57875,6,0,P|206:80|255:72,1,120,4|8,0:0|0:0,0:0:0:0:
309,71,58389,2,0,B|299:144|388:153|421:208,1,180,0|8,0:0|0:0,0:0:0:0:
315,266,59246,2,0,P|261:317|212:325,1,120,0|8,0:0|0:0,0:0:0:0:
158,326,59760,2,0,B|168:253|79:244|46:189,1,180,0|8,0:0|0:0,0:0:0:0:
51,73,60617,6,0,P|109:62|167:73,1,120,0|8,0:0|0:0,0:0:0:0:
222,180,61303,2,0,P|280:191|338:180,1,120,0|8,0:0|0:0,0:0:0:0:
386,70,61989,2,0,P|421:68|450:77,2,60,0|0|8,0:0|0:0|0:0,0:0:0:0:
274,23,62675,2,8,P|265:67|274:111,2,90,8|8|4,0:0|0:0|0:0,0:0:0:0:
105,84,63703,6,0,P|116:142|104:200,1,120,8|0,0:0|0:0,0:0:0:0:
100,321,64389,1,8,0:0:0:0:
213,359,64732,2,0,P|214:293|186:237,1,120,0|8,0:0|0:0,0:0:0:0:
172,186,65246,2,0,P|228:168|288:168,2,120
56,48,66446,6,0,L|56:181,1,120,8|0,0:0|0:0,0:0:0:0:
56,228,66960,2,0,L|57:300,1,60,0|8,0:0|0:0,0:0:0:0:
174,308,67475,2,0,P|223:339|280:325,1,120,0|8,0:0|0:0,0:0:0:0:
313,275,67989,2,0,P|369:260|419:292,1,120
436,112,68846,6,0,L|317:69,1,120,4|8,0:0|0:0,0:0:0:0:
289,121,69360,2,0,B|223:111|170:162|114:158,1,180,0|8,0:0|0:0,0:0:0:0:
75,271,70217,2,0,L|194:314,1,120,0|8,0:0|0:0,0:0:0:0:
222,262,70732,2,0,B|288:272|341:221|397:225,1,180,0|8,0:0|0:0,0:0:0:0:
455,120,71589,6,0,P|397:105|339:119,1,120,0|8,0:0|0:0,0:0:0:0:
219,120,72275,2,0,P|161:105|103:119,1,120,0|8,0:0|0:0,0:0:0:0:
104,240,72960,1,0,0:0:0:0:
208,299,73303,1,8,0:0:0:0:
328,299,73646,2,0,L|393:299,2,60,0|0|8,0:0|0:0|0:0,0:0:0:0:
328,178,74332,5,0,0:0:0:0:
382,71,74675,2,8,P|304:61|208:181,1,240,12|8,0:0|0:0,0:0:0:0:
95,215,75703,1,0,0:0:0:0:
34,318,76046,2,8,B|96:365|232:294|285:318,1,240,12|8,0:0|0:0,0:0:0:0:
390,321,77075,5,0,0:0:0:0:
490,258,77417,2,8,L|350:62,1,240,12|8,0:0|0:0,0:0:0:0:
256,140,78446,1,0,0:0:0:0:
164,62,78789,2,8,L|24:257,1,240,12|8,0:0|0:0,0:0:0:0:
136,302,79817,6,0,P|222:323|308:302,2,180,0|0|8,0:0|0:0|0:0,0:0:0:0:
222,218,81189,2,0,L|222:156,2,60,0|0|8,0:0|0:0|0:0,0:0:0:0:
166,111,81875,2,0,P|221:92|277:110,1,120,0|8,0:0|0:0,0:0:0:0:
363,27,82560,6,0,L|424:129,1,120,0|8,0:0|0:0,0:0:0:0:
425,250,83246,2,0,L|363:352,1,120,0|8,0:0|0:0,0:0:0:0:
243,351,83932,2,0,P|185:366|128:351,1,120,0|8,0:0|0:0,0:0:0:0:
51,258,84617,2,0,P|36:201|51:144,1,120,0|8,0:0|0:0,0:0:0:0:
132,55,85303,6,4,P|219:34|309:34,1,180
463,127,86332,2,4,P|483:214|483:304,1,180
320,227,87360,2,4,P|255:279|191:226,1,180
