osu file format v12

[General]
AudioFilename: Chuunibyou-1.mp3
AudioLeadIn: 2000
PreviewTime: 57886
Countdown: 0
SampleSet: None
StackLeniency: 0.7
Mode: 1
LetterboxInBreaks: 0

[Editor]
Bookmarks: 14063,25377,57949
DistanceSpacing: 1.1
BeatDivisor: 4
GridSize: 32

[Metadata]
Title:Sparkling Daydream (TV Size)
TitleUnicode:Sparkling Daydream (TV Size)
Artist:ZAQ
ArtistUnicode:ZAQ
Creator:KinomiCandy
Version:Taiko Oni
Source:Chuunibyou demo Koi ga Shitai!
Tags:yuuta rikka dark flame master opening
BeatmapID:233803
BeatmapSetID:84962

[Difficulty]
HPDrainRate:5
CircleSize:4
OverallDifficulty:5
ApproachRate:5
SliderMultiplier:1.4
SliderTickRate:2

[Events]
//Background and Video events
0,0,"bg.png",0,0
//Break Periods
//Storyboard Layer 0 (Background)
//Storyboard Layer 1 (Fail)
//Storyboard Layer 2 (Pass)
//Storyboard Layer 3 (Foreground)
//Storyboard Sound Samples
//Background Colour Transformations
3,100,163,162,255

[TimingPoints]
280,342.857142857143,4,1,0,70,1,0
57870,-100,4,1,0,70,0,1
82555,-100,4,1,0,70,0,0

[Colours]
Combo1 : 234,17,71
Combo2 : 5,26,163

[HitObjects]
256,192,280,1,0,0:0:0:0:
256,192,451,1,8,0:0:0:0:
256,192,622,1,8,0:0:0:0:
256,192,794,1,8,0:0:0:0:
256,192,965,1,0,0:0:0:0:
256,192,1137,1,8,0:0:0:0:
256,192,1308,1,8,0:0:0:0:
256,192,1480,1,0,0:0:0:0:
256,192,1651,1,8,0:0:0:0:
256,192,1822,1,8,0:0:0:0:
256,192,1994,1,0,0:0:0:0:
256,192,2165,1,8,0:0:0:0:
256,192,2337,1,0,0:0:0:0:
256,192,2422,1,8,0:0:0:0:
256,192,2508,1,0,0:0:0:0:
256,192,2594,1,8,0:0:0:0:
256,192,2680,1,0,0:0:0:0:
256,192,2765,1,8,0:0:0:0:
256,192,2851,1,0,0:0:0:0:
256,192,3022,1,0,0:0:0:0:
256,192,3194,1,0,0:0:0:0:
256,192,3365,1,12,0:0:0:0:
256,192,3537,1,0,0:0:0:0:
256,192,3622,1,0,0:0:0:0:
256,192,3708,1,0,0:0:0:0:
256,192,3880,1,8,0:0:0:0:
256,192,4051,1,0,0:0:0:0:
256,192,4222,1,0,0:0:0:0:
256,192,4308,1,0,0:0:0:0:
256,192,4394,1,8,0:0:0:0:
256,192,4651,1,0,0:0:0:0:
256,192,4737,1,0,0:0:0:0:
256,192,4908,1,0,0:0:0:0:
256,192,5079,1,8,0:0:0:0:
256,192,5251,1,0,0:0:0:0:
256,192,5422,1,8,0:0:0:0:
256,192,5594,1,4,0:0:0:0:
256,192,5765,1,8,0:0:0:0:
256,192,5937,1,0,0:0:0:0:
256,192,6022,1,0,0:0:0:0:
256,192,6108,1,8,0:0:0:0:
256,192,6279,1,8,0:0:0:0:
256,192,6451,1,0,0:0:0:0:
256,192,6537,1,0,0:0:0:0:
256,192,6622,1,8,0:0:0:0:
256,192,6708,1,8,0:0:0:0:
256,192,6794,1,0,0:0:0:0:
256,192,6965,1,8,0:0:0:0:
256,192,7137,1,0,0:0:0:0:
256,192,7308,1,8,0:0:0:0:
256,192,7394,1,8,0:0:0:0:
256,192,7479,1,0,0:0:0:0:
256,192,7651,1,8,0:0:0:0:
256,192,7822,1,0,0:0:0:0:
256,192,7908,1,8,0:0:0:0:
256,192,7994,1,0,0:0:0:0:
256,192,8165,1,0,0:0:0:0:
256,192,8337,1,12,0:0:0:0:
256,192,8679,1,0,0:0:0:0:
256,192,8851,1,8,0:0:0:0:
256,192,9022,1,0,0:0:0:0:
256,192,9108,1,0,0:0:0:0:
256,192,9194,1,0,0:0:0:0:
256,192,9365,1,0,0:0:0:0:
256,192,9537,1,8,0:0:0:0:
256,192,9708,1,0,0:0:0:0:
256,192,9879,1,0,0:0:0:0:
256,192,9965,1,0,0:0:0:0:
256,192,10051,1,8,0:0:0:0:
256,192,10137,1,8,0:0:0:0:
256,192,10222,1,0,0:0:0:0:
256,192,10394,1,8,0:0:0:0:
256,192,10565,1,0,0:0:0:0:
256,192,10651,1,0,0:0:0:0:
256,192,10737,1,0,0:0:0:0:
256,192,10822,1,0,0:0:0:0:
256,192,10908,1,8,0:0:0:0:
256,192,11080,1,4,0:0:0:0:
256,192,11422,1,0,0:0:0:0:
256,192,11594,1,8,0:0:0:0:
256,192,11765,1,0,0:0:0:0:
256,192,11851,1,0,0:0:0:0:
256,192,11937,1,8,0:0:0:0:
256,192,12108,1,8,0:0:0:0:
256,192,12280,1,0,0:0:0:0:
256,192,12451,1,8,0:0:0:0:
256,192,12622,1,0,0:0:0:0:
256,192,12708,1,0,0:0:0:0:
256,192,12794,1,0,0:0:0:0:
256,192,12880,1,8,0:0:0:0:
256,192,12965,1,0,0:0:0:0:
256,192,13137,1,8,0:0:0:0:
256,192,13308,1,4,0:0:0:0:
256,192,13480,1,4,0:0:0:0:
256,192,13994,1,12,0:0:0:0:
256,192,14337,1,0,0:0:0:0:
256,192,14508,1,0,0:0:0:0:
256,192,14680,1,0,0:0:0:0:
256,192,14851,1,8,0:0:0:0:
256,192,15022,1,8,0:0:0:0:
256,192,15194,1,0,0:0:0:0:
256,192,15365,1,0,0:0:0:0:
256,192,15708,1,0,0:0:0:0:
256,192,15880,1,0,0:0:0:0:
256,192,16051,1,0,0:0:0:0:
256,192,16222,1,8,0:0:0:0:
256,192,16280,1,8,0:0:0:0:
256,192,16337,1,8,0:0:0:0:
256,192,16394,1,8,0:0:0:0:
256,192,16565,1,8,0:0:0:0:
256,192,16737,1,0,0:0:0:0:
256,192,17080,1,0,0:0:0:0:
256,192,17422,1,0,0:0:0:0:
256,192,17594,1,8,0:0:0:0:
256,192,17937,1,12,0:0:0:0:
256,192,18280,1,8,0:0:0:0:
256,192,18451,1,8,0:0:0:0:
256,192,18622,1,8,0:0:0:0:
256,192,18794,1,0,0:0:0:0:
256,192,18965,1,8,0:0:0:0:
256,192,19051,1,8,0:0:0:0:
256,192,19137,1,8,0:0:0:0:
256,192,19308,1,8,0:0:0:0:
256,192,19480,1,0,0:0:0:0:
256,192,19822,1,12,0:0:0:0:
256,192,20165,1,0,0:0:0:0:
256,192,20337,1,0,0:0:0:0:
256,192,20508,1,0,0:0:0:0:
256,192,20680,1,12,0:0:0:0:
256,192,21022,1,8,0:0:0:0:
256,192,21194,1,8,0:0:0:0:
256,192,21537,1,0,0:0:0:0:
256,192,21880,1,8,0:0:0:0:
256,192,22222,1,8,0:0:0:0:
256,192,22308,1,8,0:0:0:0:
256,192,22394,1,8,0:0:0:0:
256,192,22480,1,8,0:0:0:0:
256,192,22565,1,0,0:0:0:0:
256,192,22651,1,0,0:0:0:0:
256,192,22737,1,0,0:0:0:0:
256,192,22822,1,0,0:0:0:0:
256,192,22908,1,8,0:0:0:0:
256,192,22994,1,8,0:0:0:0:
256,192,23080,1,8,0:0:0:0:
256,192,23165,1,8,0:0:0:0:
256,192,23251,1,0,0:0:0:0:
256,192,23337,1,0,0:0:0:0:
256,192,23422,1,0,0:0:0:0:
256,192,23508,1,0,0:0:0:0:
256,192,23594,1,8,0:0:0:0:
256,192,23765,1,0,0:0:0:0:
256,192,23937,1,12,0:0:0:0:
256,192,24280,1,0,0:0:0:0:
256,192,24451,1,8,0:0:0:0:
256,192,24537,1,0,0:0:0:0:
256,192,24708,1,0,0:0:0:0:
256,192,24794,1,8,0:0:0:0:
256,192,25308,1,12,0:0:0:0:
256,192,25565,1,0,0:0:0:0:
256,192,25651,1,8,0:0:0:0:
256,192,25822,1,0,0:0:0:0:
256,192,25994,1,8,0:0:0:0:
256,192,26165,1,8,0:0:0:0:
256,192,26251,1,8,0:0:0:0:
256,192,26337,1,8,0:0:0:0:
256,192,26508,1,0,0:0:0:0:
256,192,26680,1,8,0:0:0:0:
256,192,26851,1,0,0:0:0:0:
256,192,27022,1,8,0:0:0:0:
256,192,27108,1,8,0:0:0:0:
256,192,27194,1,0,0:0:0:0:
256,192,27280,1,0,0:0:0:0:
256,192,27365,1,8,0:0:0:0:
256,192,27537,1,0,0:0:0:0:
256,192,27708,1,8,0:0:0:0:
256,192,27965,1,0,0:0:0:0:
256,192,28051,1,8,0:0:0:0:
256,192,28222,1,0,0:0:0:0:
256,192,28394,1,8,0:0:0:0:
256,192,28565,1,0,0:0:0:0:
256,192,28651,1,0,0:0:0:0:
256,192,28737,1,8,0:0:0:0:
256,192,28908,1,0,0:0:0:0:
256,192,29080,1,8,0:0:0:0:
256,192,29251,1,8,0:0:0:0:
256,192,29337,1,8,0:0:0:0:
256,192,29422,1,8,0:0:0:0:
256,192,29594,1,0,0:0:0:0:
256,192,29765,1,0,0:0:0:0:
256,192,29937,1,0,0:0:0:0:
256,192,30108,1,8,0:0:0:0:
256,192,30280,1,0,0:0:0:0:
256,192,30451,1,8,0:0:0:0:
256,192,30708,1,0,0:0:0:0:
256,192,30794,1,8,0:0:0:0:
256,192,30965,1,0,0:0:0:0:
256,192,31137,1,0,0:0:0:0:
256,192,31308,1,8,0:0:0:0:
256,192,31394,1,8,0:0:0:0:
256,192,31480,1,8,0:0:0:0:
256,192,31651,1,8,0:0:0:0:
256,192,31822,1,0,0:0:0:0:
256,192,31994,1,0,0:0:0:0:
256,192,32165,1,8,0:0:0:0:
256,192,32337,1,0,0:0:0:0:
256,192,32422,1,0,0:0:0:0:
256,192,32508,1,0,0:0:0:0:
256,192,32680,1,0,0:0:0:0:
256,192,32851,1,8,0:0:0:0:
256,192,33022,1,0,0:0:0:0:
256,192,33194,1,0,0:0:0:0:
256,192,33280,1,0,0:0:0:0:
256,192,33365,1,0,0:0:0:0:
256,192,33451,1,0,0:0:0:0:
256,192,33537,1,8,0:0:0:0:
256,192,33708,1,0,0:0:0:0:
256,192,33880,1,0,0:0:0:0:
256,192,33965,1,0,0:0:0:0:
256,192,34051,1,0,0:0:0:0:
256,192,34222,1,8,0:0:0:0:
256,192,34394,1,0,0:0:0:0:
256,192,34565,1,8,0:0:0:0:
256,192,34651,1,0,0:0:0:0:
256,192,34822,1,0,0:0:0:0:
256,192,34908,1,8,0:0:0:0:
256,192,35080,1,0,0:0:0:0:
256,192,35251,1,8,0:0:0:0:
256,192,35337,1,8,0:0:0:0:
256,192,35422,1,8,0:0:0:0:
256,192,35594,1,8,0:0:0:0:
256,192,35765,1,0,0:0:0:0:
256,192,35937,1,12,0:0:0:0:
256,192,36194,1,0,0:0:0:0:
256,192,36280,1,8,0:0:0:0:
256,192,36451,1,0,0:0:0:0:
256,192,36622,1,8,0:0:0:0:
256,192,36879,1,0,0:0:0:0:
256,192,36965,1,8,0:0:0:0:
256,192,37137,1,0,0:0:0:0:
256,192,37308,1,8,0:0:0:0:
256,192,37565,1,0,0:0:0:0:
256,192,37651,1,8,0:0:0:0:
256,192,37822,1,0,0:0:0:0:
256,192,37994,1,8,0:0:0:0:
256,192,38165,1,8,0:0:0:0:
256,192,38251,1,8,0:0:0:0:
256,192,38337,1,8,0:0:0:0:
256,192,38508,1,8,0:0:0:0:
256,192,38679,1,0,0:0:0:0:
256,192,38765,1,0,0:0:0:0:
256,192,38851,1,0,0:0:0:0:
256,192,38937,1,0,0:0:0:0:
256,192,39022,1,8,0:0:0:0:
256,192,39194,1,0,0:0:0:0:
256,192,39365,1,8,0:0:0:0:
256,192,39451,1,8,0:0:0:0:
256,192,39537,1,0,0:0:0:0:
256,192,39708,1,8,0:0:0:0:
256,192,39879,1,0,0:0:0:0:
256,192,40051,1,8,0:0:0:0:
256,192,40137,1,8,0:0:0:0:
256,192,40222,1,8,0:0:0:0:
256,192,40308,1,8,0:0:0:0:
256,192,40394,1,8,0:0:0:0:
256,192,40565,1,0,0:0:0:0:
256,192,40737,1,0,0:0:0:0:
256,192,40908,1,0,0:0:0:0:
256,192,41079,1,8,0:0:0:0:
256,192,41251,1,0,0:0:0:0:
256,192,41422,1,12,0:0:0:0:
256,192,41765,1,8,0:0:0:0:
256,192,41937,1,0,0:0:0:0:
256,192,42022,1,0,0:0:0:0:
256,192,42108,1,8,0:0:0:0:
256,192,42279,1,0,0:0:0:0:
256,192,42451,1,8,0:0:0:0:
256,192,42622,1,0,0:0:0:0:
256,192,42794,1,8,0:0:0:0:
256,192,42879,1,0,0:0:0:0:
256,192,43051,1,0,0:0:0:0:
256,192,43137,1,8,0:0:0:0:
256,192,43308,1,0,0:0:0:0:
256,192,43479,1,8,0:0:0:0:
256,192,43565,1,8,0:0:0:0:
256,192,43651,1,8,0:0:0:0:
256,192,43822,1,8,0:0:0:0:
256,192,43994,1,0,0:0:0:0:
256,192,44165,1,8,0:0:0:0:
256,192,44422,1,0,0:0:0:0:
256,192,44508,1,8,0:0:0:0:
256,192,44679,1,0,0:0:0:0:
256,192,44851,1,0,0:0:0:0:
256,192,45022,1,8,0:0:0:0:
256,192,45108,1,8,0:0:0:0:
256,192,45194,1,8,0:0:0:0:
256,192,45365,1,0,0:0:0:0:
256,192,45537,1,0,0:0:0:0:
256,192,45708,1,8,0:0:0:0:
256,192,45794,1,8,0:0:0:0:
256,192,45879,1,0,0:0:0:0:
256,192,45965,1,0,0:0:0:0:
256,192,46051,1,8,0:0:0:0:
256,192,46137,1,8,0:0:0:0:
256,192,46222,1,0,0:0:0:0:
256,192,46308,1,0,0:0:0:0:
256,192,46394,1,8,0:0:0:0:
256,192,46479,1,8,0:0:0:0:
256,192,46565,1,0,0:0:0:0:
256,192,46651,1,0,0:0:0:0:
256,192,46737,1,8,0:0:0:0:
256,192,46822,1,8,0:0:0:0:
256,192,46908,1,0,0:0:0:0:
256,192,47165,1,8,0:0:0:0:
256,192,47251,1,0,0:0:0:0:
256,192,47422,1,8,0:0:0:0:
256,192,47594,1,0,0:0:0:0:
256,192,47765,1,8,0:0:0:0:
256,192,47851,1,8,0:0:0:0:
256,192,47937,1,0,0:0:0:0:
256,192,48108,1,8,0:0:0:0:
256,192,48280,1,0,0:0:0:0:
256,192,48537,1,8,0:0:0:0:
256,192,48622,1,0,0:0:0:0:
256,192,48794,1,8,0:0:0:0:
256,192,48965,1,0,0:0:0:0:
256,192,49051,1,0,0:0:0:0:
256,192,49137,1,0,0:0:0:0:
256,192,49222,1,8,0:0:0:0:
256,192,49308,1,0,0:0:0:0:
256,192,49480,1,8,0:0:0:0:
256,192,49651,1,0,0:0:0:0:
256,192,49908,1,8,0:0:0:0:
256,192,49994,1,0,0:0:0:0:
256,192,50165,1,8,0:0:0:0:
256,192,50337,1,0,0:0:0:0:
256,192,50508,1,8,0:0:0:0:
256,192,50594,1,8,0:0:0:0:
256,192,50680,1,8,0:0:0:0:
256,192,50851,1,8,0:0:0:0:
256,192,51022,1,0,0:0:0:0:
256,192,51108,1,0,0:0:0:0:
256,192,51194,1,0,0:0:0:0:
256,192,51280,1,0,0:0:0:0:
256,192,51365,1,8,0:0:0:0:
256,192,51537,1,0,0:0:0:0:
256,192,51708,1,8,0:0:0:0:
256,192,51880,1,0,0:0:0:0:
256,192,51965,1,0,0:0:0:0:
256,192,52051,1,8,0:0:0:0:
256,192,52222,1,8,0:0:0:0:
256,192,52394,1,0,0:0:0:0:
256,192,52651,1,8,0:0:0:0:
256,192,52737,1,0,0:0:0:0:
256,192,52908,1,8,0:0:0:0:
256,192,53080,1,0,0:0:0:0:
256,192,53251,1,8,0:0:0:0:
256,192,53337,1,8,0:0:0:0:
256,192,53422,1,0,0:0:0:0:
256,192,53594,1,8,0:0:0:0:
256,192,53765,1,0,0:0:0:0:
256,192,53851,1,0,0:0:0:0:
256,192,53937,1,8,0:0:0:0:
256,192,54022,1,8,0:0:0:0:
256,192,54108,1,0,0:0:0:0:
256,192,54280,1,8,0:0:0:0:
256,192,54451,1,0,0:0:0:0:
256,192,54622,1,8,0:0:0:0:
256,192,54708,1,8,0:0:0:0:
256,192,54794,1,0,0:0:0:0:
256,192,54965,1,8,0:0:0:0:
256,192,55137,5,0,0:0:0:0:
256,192,55222,1,8,0:0:0:0:
256,192,55308,1,0,0:0:0:0:
256,192,55394,1,8,0:0:0:0:
256,192,55480,1,0,0:0:0:0:
256,192,55651,1,8,0:0:0:0:
256,192,55822,1,0,0:0:0:0:
256,192,55994,1,8,0:0:0:0:
256,192,56165,1,0,0:0:0:0:
256,192,56251,1,8,0:0:0:0:
256,192,56337,1,0,0:0:0:0:
256,192,56508,5,0,0:0:0:0:
256,192,56594,1,0,0:0:0:0:
256,192,56680,1,0,0:0:0:0:
256,192,56765,1,0,0:0:0:0:
256,192,56851,1,8,0:0:0:0:
256,192,57365,1,8,0:0:0:0:
256,192,57537,1,12,0:0:0:0:
256,192,57879,5,4,0:0:0:0:
256,192,58051,1,8,0:0:0:0:
256,192,58222,1,0,0:0:0:0:
256,192,58308,1,8,0:0:0:0:
256,192,58394,1,8,0:0:0:0:
256,192,58479,1,8,0:0:0:0:
256,192,58565,1,0,0:0:0:0:
256,192,58737,1,8,0:0:0:0:
256,192,58908,1,0,0:0:0:0:
256,192,59079,1,8,0:0:0:0:
256,192,59251,1,0,0:0:0:0:
256,192,59337,1,8,0:0:0:0:
256,192,59422,1,8,0:0:0:0:
256,192,59594,1,0,0:0:0:0:
256,192,59679,1,8,0:0:0:0:
256,192,59851,1,8,0:0:0:0:
256,192,59937,1,0,0:0:0:0:
256,192,60108,1,8,0:0:0:0:
256,192,60279,1,0,0:0:0:0:
256,192,60451,1,8,0:0:0:0:
256,192,60537,1,8,0:0:0:0:
256,192,60622,1,0,0:0:0:0:
256,192,60794,1,8,0:0:0:0:
256,192,60965,1,0,0:0:0:0:
256,192,61137,1,0,0:0:0:0:
256,192,61222,1,8,0:0:0:0:
256,192,61308,1,0,0:0:0:0:
256,192,61479,1,8,0:0:0:0:
256,192,61651,1,0,0:0:0:0:
256,192,61822,1,8,0:0:0:0:
256,192,61994,1,0,0:0:0:0:
256,192,62079,1,8,0:0:0:0:
256,192,62165,1,8,0:0:0:0:
256,192,62251,1,8,0:0:0:0:
256,192,62337,1,0,0:0:0:0:
256,192,62508,1,8,0:0:0:0:
256,192,62594,1,8,0:0:0:0:
256,192,62679,1,0,0:0:0:0:
256,192,62851,1,8,0:0:0:0:
256,192,62937,1,0,0:0:0:0:
256,192,63108,1,8,0:0:0:0:
256,192,63194,1,0,0:0:0:0:
256,192,63365,1,0,0:0:0:0:
256,192,63537,1,8,0:0:0:0:
256,192,63708,1,0,0:0:0:0:
256,192,63879,1,8,0:0:0:0:
256,192,63965,1,8,0:0:0:0:
256,192,64051,1,0,0:0:0:0:
256,192,64222,1,8,0:0:0:0:
256,192,64394,1,0,0:0:0:0:
256,192,64479,1,0,0:0:0:0:
256,192,64565,1,8,0:0:0:0:
256,192,64651,1,8,0:0:0:0:
256,192,64737,1,0,0:0:0:0:
256,192,64908,1,8,0:0:0:0:
256,192,64994,1,8,0:0:0:0:
256,192,65079,1,0,0:0:0:0:
256,192,65251,1,8,0:0:0:0:
256,192,65337,1,8,0:0:0:0:
256,192,65422,1,0,0:0:0:0:
256,192,65594,1,8,0:0:0:0:
256,192,65679,1,8,0:0:0:0:
256,192,65765,1,0,0:0:0:0:
256,192,65937,1,8,0:0:0:0:
256,192,66108,1,0,0:0:0:0:
256,192,66279,1,8,0:0:0:0:
256,192,66365,1,0,0:0:0:0:
256,192,66451,1,8,0:0:0:0:
256,192,66622,1,0,0:0:0:0:
256,192,66794,1,8,0:0:0:0:
256,192,66965,1,8,0:0:0:0:
256,192,67051,1,8,0:0:0:0:
256,192,67137,1,0,0:0:0:0:
256,192,67308,1,8,0:0:0:0:
256,192,67479,1,0,0:0:0:0:
256,192,67651,1,8,0:0:0:0:
256,192,67822,1,0,0:0:0:0:
256,192,67908,1,0,0:0:0:0:
256,192,67994,1,0,0:0:0:0:
256,192,68079,1,0,0:0:0:0:
256,192,68165,1,8,0:0:0:0:
256,192,68251,1,8,0:0:0:0:
256,192,68337,1,8,0:0:0:0:
256,192,68422,1,8,0:0:0:0:
256,192,68508,1,0,0:0:0:0:
256,192,68680,1,8,0:0:0:0:
256,192,68851,5,4,0:0:0:0:
256,192,69023,1,8,0:0:0:0:
256,192,69194,1,0,0:0:0:0:
256,192,69280,1,8,0:0:0:0:
256,192,69366,1,8,0:0:0:0:
256,192,69451,1,8,0:0:0:0:
256,192,69537,1,0,0:0:0:0:
256,192,69709,1,8,0:0:0:0:
256,192,69880,1,0,0:0:0:0:
256,192,70051,1,8,0:0:0:0:
256,192,70223,1,0,0:0:0:0:
256,192,70309,1,8,0:0:0:0:
256,192,70394,1,8,0:0:0:0:
256,192,70566,1,0,0:0:0:0:
256,192,70651,1,8,0:0:0:0:
256,192,70823,1,8,0:0:0:0:
256,192,70909,1,0,0:0:0:0:
256,192,71080,1,8,0:0:0:0:
256,192,71251,1,0,0:0:0:0:
256,192,71423,1,8,0:0:0:0:
256,192,71509,1,8,0:0:0:0:
256,192,71594,1,0,0:0:0:0:
256,192,71766,1,8,0:0:0:0:
256,192,71937,1,0,0:0:0:0:
256,192,72109,1,0,0:0:0:0:
256,192,72194,1,8,0:0:0:0:
256,192,72280,1,0,0:0:0:0:
256,192,72451,1,8,0:0:0:0:
256,192,72623,1,0,0:0:0:0:
256,192,72794,1,8,0:0:0:0:
256,192,72966,1,0,0:0:0:0:
256,192,73051,1,8,0:0:0:0:
256,192,73137,1,8,0:0:0:0:
256,192,73223,1,8,0:0:0:0:
256,192,73309,1,0,0:0:0:0:
256,192,73480,1,8,0:0:0:0:
256,192,73566,1,8,0:0:0:0:
256,192,73651,1,0,0:0:0:0:
256,192,73823,1,8,0:0:0:0:
256,192,73994,1,0,0:0:0:0:
256,192,74166,1,8,0:0:0:0:
256,192,74337,1,0,0:0:0:0:
256,192,74509,1,8,0:0:0:0:
256,192,74594,1,8,0:0:0:0:
256,192,74680,1,0,0:0:0:0:
256,192,74851,1,8,0:0:0:0:
256,192,74937,1,8,0:0:0:0:
256,192,75023,1,0,0:0:0:0:
256,192,75194,1,8,0:0:0:0:
256,192,75366,1,0,0:0:0:0:
256,192,75451,1,0,0:0:0:0:
256,192,75537,1,8,0:0:0:0:
256,192,75623,1,8,0:0:0:0:
256,192,75709,1,0,0:0:0:0:
256,192,75880,1,8,0:0:0:0:
256,192,75966,1,8,0:0:0:0:
256,192,76051,1,0,0:0:0:0:
256,192,76223,1,0,0:0:0:0:
256,192,76309,1,8,0:0:0:0:
256,192,76394,1,0,0:0:0:0:
256,192,76566,1,8,0:0:0:0:
256,192,76651,1,8,0:0:0:0:
256,192,76737,1,0,0:0:0:0:
256,192,76909,1,8,0:0:0:0:
256,192,77080,1,0,0:0:0:0:
256,192,77251,1,8,0:0:0:0:
256,192,77337,1,0,0:0:0:0:
256,192,77423,1,8,0:0:0:0:
256,192,77594,1,0,0:0:0:0:
256,192,77766,1,8,0:0:0:0:
256,192,77937,1,8,0:0:0:0:
256,192,78023,1,8,0:0:0:0:
256,192,78109,1,0,0:0:0:0:
256,192,78280,1,8,0:0:0:0:
256,192,78451,1,0,0:0:0:0:
256,192,78623,1,8,0:0:0:0:
256,192,78794,1,0,0:0:0:0:
256,192,78880,1,0,0:0:0:0:
256,192,78966,1,8,0:0:0:0:
256,192,79051,1,8,0:0:0:0:
256,192,79137,1,0,0:0:0:0:
256,192,79309,1,0,0:0:0:0:
256,192,79394,1,8,0:0:0:0:
256,192,79480,1,0,0:0:0:0:
256,192,79651,1,8,0:0:0:0:
256,192,79823,1,0,0:0:0:0:
256,192,79994,1,0,0:0:0:0:
256,192,80165,1,8,0:0:0:0:
256,192,80337,1,0,0:0:0:0:
256,192,80508,1,0,0:0:0:0:
256,192,80680,1,8,0:0:0:0:
256,192,80851,1,8,0:0:0:0:
256,192,81022,1,0,0:0:0:0:
256,192,81194,1,8,0:0:0:0:
256,192,81365,1,0,0:0:0:0:
256,192,81451,1,0,0:0:0:0:
256,192,81537,1,8,0:0:0:0:
256,192,81708,1,8,0:0:0:0:
256,192,81880,1,0,0:0:0:0:
256,192,81965,1,0,0:0:0:0:
256,192,82051,1,8,0:0:0:0:
256,192,82137,1,8,0:0:0:0:
256,192,82222,1,0,0:0:0:0:
256,192,82308,1,0,0:0:0:0:
256,192,82394,1,8,0:0:0:0:
256,192,82480,1,8,0:0:0:0:
256,192,82565,1,0,0:0:0:0:
256,192,82737,1,0,0:0:0:0:
256,192,82908,1,8,0:0:0:0:
256,192,83080,1,0,0:0:0:0:
256,192,83165,1,8,0:0:0:0:
256,192,83251,1,0,0:0:0:0:
256,192,83422,1,0,0:0:0:0:
256,192,83594,1,8,0:0:0:0:
256,192,83765,1,0,0:0:0:0:
256,192,83937,1,0,0:0:0:0:
256,192,84022,1,0,0:0:0:0:
256,192,84108,1,0,0:0:0:0:
256,192,84194,1,8,0:0:0:0:
256,192,84280,1,0,0:0:0:0:
256,192,84451,1,8,0:0:0:0:
256,192,84622,1,0,0:0:0:0:
256,192,84794,1,8,0:0:0:0:
256,192,84880,1,8,0:0:0:0:
256,192,84965,1,0,0:0:0:0:
256,192,85137,1,8,0:0:0:0:
256,192,85308,1,8,0:0:0:0:
256,192,85480,1,0,0:0:0:0:
256,192,85651,1,0,0:0:0:0:
256,192,85822,1,8,0:0:0:0:
256,192,85994,1,0,0:0:0:0:
256,192,86165,1,0,0:0:0:0:
256,192,86337,1,8,0:0:0:0:
256,192,86508,1,0,0:0:0:0:
256,192,86594,1,0,0:0:0:0:
256,192,86680,1,0,0:0:0:0:
256,192,86851,1,8,0:0:0:0:
256,192,87022,1,0,0:0:0:0:
256,192,87194,1,0,0:0:0:0:
256,192,87365,1,8,0:0:0:0:
256,192,87537,1,0,0:0:0:0:
256,192,87708,1,8,0:0:0:0:
256,192,87880,1,12,0:0:0:0:
