osu file format v13

[General]
AudioFilename: ZAQ - Seven Doors (TV Size).mp3
AudioLeadIn: 0
PreviewTime: 52077
Countdown: 0
SampleSet: Normal
StackLeniency: 0.7
Mode: 0
LetterboxInBreaks: 0
WidescreenStoryboard: 1

[Editor]
DistanceSpacing: 1
BeatDivisor: 4
GridSize: 4
TimelineZoom: 1.3

[Metadata]
Title:Seven Doors (TV Size)
TitleUnicode:Seven Doors (TV Size)
Artist:ZAQ
ArtistUnicode:ZAQ
Creator:Verlaren
Version:Insane
Source:Trinity Seven
Tags:Arata Kasuga, Lilith Asami, Arin Kannazuki, Levi Kazama, Mira Yamana, Akio Fudo, Yui Kurata, Liselotte Sherlock, Selina Sherlock, Hijiri Kasuga
BeatmapID:556977
BeatmapSetID:241106

[Difficulty]
HPDrainRate:6
CircleSize:4
OverallDifficulty:6
ApproachRate:7
SliderMultiplier:1.8
SliderTickRate:1

[Events]
//Background and Video events
Video,0,"SevenDoors.avi"
0,0,"TrinitySeven-background.jpg",0,0
//Break Periods
//Storyboard Layer 0 (Background)
//Storyboard Layer 1 (Fail)
//Storyboard Layer 2 (Pass)
//Storyboard Layer 3 (Foreground)
//Storyboard Sound Samples

[TimingPoints]
1808,295.566502463054,4,1,2,17,1,0
4172,-100,4,1,2,56,0,0
20724,-133.333333333333,4,2,2,27,0,0
21019,-100,4,2,2,27,0,0
22054,-66.6666666666667,4,1,2,27,0,0
22645,-100,4,1,2,27,0,0
23088,-200,4,2,2,27,0,0
23384,-100,4,2,2,17,0,0
30182,-200,4,2,2,17,0,0
32546,-100,4,1,2,47,0,0
33729,-133.333333333333,4,1,2,53,0,0
34024,-100,4,1,2,53,0,0
36093,-133.333333333333,4,1,2,53,0,0
36389,-100,4,1,2,53,0,0
36684,-200,4,1,2,53,0,0
36832,-100,4,1,2,53,0,0
37275,-200,4,1,2,53,0,0
37571,-100,4,1,2,53,0,0
38458,-133.333333333333,4,1,2,53,0,0
39049,-100,4,1,2,53,0,0
40822,-200,4,1,2,53,0,0
41118,-100,4,1,2,53,0,0
42005,-200,4,1,2,53,0,0
42300,-100,4,1,2,53,0,0
43187,-200,4,1,2,53,0,0
44369,-100,4,1,2,53,0,0
45551,-200,4,1,2,53,0,0
45847,-100,4,1,2,53,0,0
47916,-133.333333333333,4,1,2,53,0,0
48211,-100,4,1,2,53,0,0
52645,-100,4,1,2,62,0,1
55009,-133.333333333333,4,1,2,62,0,1
55305,-100,4,1,2,62,0,1
56192,-133.333333333333,4,1,2,62,0,1
56487,-100,4,1,2,62,0,1
57374,-133.333333333333,4,1,2,62,0,1
57670,-100,4,1,2,62,0,1
58556,-133.333333333333,4,1,2,62,0,1
58852,-100,4,1,2,62,0,1
63285,-133.333333333333,4,1,2,62,0,1
63581,-100,4,1,2,62,0,1
64468,-133.333333333333,4,1,2,62,0,1
64763,-100,4,1,2,62,0,1
66241,-133.333333333333,4,1,2,62,0,1
66537,-100,4,1,2,62,0,1
69197,-200,4,1,2,62,0,1
71561,-100,4,1,2,53,0,0
78655,-100,4,1,2,57,0,0
86044,-100,4,1,2,37,0,0
86931,-133.333333333333,4,1,2,57,0,0
89295,-133.333333333333,4,1,2,17,0,0

[Colours]
Combo1 : 181,181,227
Combo2 : 253,36,90
Combo3 : 255,197,21
Combo4 : 32,143,255
Combo5 : 172,89,255
Combo6 : 255,113,255

[HitObjects]
256,192,1808,12,0,4024,0:0:0:0:
212,244,4172,6,0,L|116:216,1,90,6|2,0:0|0:0,0:0:0:0:
125,309,4468,2,0,L|211:334,1,90,8|2,0:0|0:0,0:0:0:0:
301,334,4763,1,8,0:0:0:0:
437,283,4911,1,2,0:0:0:0:
297,243,5059,1,8,0:0:0:0:
387,359,5207,1,2,0:0:0:0:
381,213,5354,2,0,L|376:120,1,90,2|2,0:0|0:0,0:0:0:0:
237,20,5650,2,0,L|233:110,2,90,8|0|0,0:0|0:0|0:0,0:0:0:0:
147,20,6093,1,2,0:0:0:0:
83,83,6241,1,8,0:0:0:0:
146,146,6389,1,0,0:0:0:0:
209,209,6537,6,0,P|188:260|156:280,1,90,0|2,0:0|0:0,0:0:0:0:
264,132,6832,2,0,P|285:81|317:61,1,90,8|0,0:0|0:0,0:0:0:0:
348,148,7128,2,0,P|327:199|295:219,2,90,0|0|8,0:0|0:0|0:0,0:0:0:0:
400,76,7571,1,2,0:0:0:0:
472,128,7719,2,0,P|488:184|488:220,1,90,2|0,0:0|0:0,0:0:0:0:
372,300,8014,2,0,P|391:259|398:215,1,90,8|0,0:0|0:0,0:0:0:0:
283,284,8310,2,0,P|257:320|222:348,2,90,0|0|8,0:0|0:0|0:0,0:0:0:0:
136,372,8753,1,2,0:0:0:0:
60,324,8901,6,0,P|41:283|34:238,1,90,6|0,0:0|0:0,0:0:0:0:
135,25,9197,2,0,P|154:66|161:111,1,90,8|2,0:0|0:0,0:0:0:0:
122,259,9492,2,0,P|103:218|97:174,2,90,0|2|8,0:0|0:0|0:0,0:0:0:0:
212,260,9936,1,0,0:0:0:0:
232,171,10083,2,0,P|250:130|257:86,1,90,2|0,0:0|0:0,0:0:0:0:
321,21,10379,2,0,P|344:84|340:128,1,90,8|0,0:0|0:0,0:0:0:0:
407,169,10674,2,0,P|424:127|431:83,2,90,2|0|8,0:0|0:0|0:0,0:0:0:0:
342,233,11118,1,0,0:0:0:0:
405,296,11266,6,0,P|400:352|376:392,1,90,6|0,0:0|0:0,0:0:0:0:
320,317,11561,1,2,0:0:0:0:
229,317,11709,2,0,P|168:320|136:340,1,90,8|2,0:0|0:0,0:0:0:0:
52,336,12005,1,2,0:0:0:0:
52,246,12152,2,0,P|76:192|76:152,1,90,8|0,0:0|0:0,0:0:0:0:
56,72,12448,1,2,0:0:0:0:
119,8,12596,2,0,P|156:60|188:72,1,90,8|2,0:0|0:0,0:0:0:0:
253,126,12891,2,0,P|221:156|178:159,2,90,2|8|2,0:0|0:0|0:0,0:0:0:0:
304,52,13335,1,12,0:0:0:0:
304,52,13482,1,2,0:0:0:0:
384,96,13630,6,0,L|400:188,1,90,6|0,0:0|0:0,0:0:0:0:
474,272,13926,2,0,L|490:184,1,90,8|2,0:0|0:0,0:0:0:0:
384,272,14221,2,0,L|368:360,2,90,0|2|8,0:0|0:0|0:0,0:0:0:0:
292,280,14665,1,0,0:0:0:0:
204,288,14812,2,0,P|178:329|136:344,1,90,8|2,0:0|0:0,0:0:0:0:
116,256,15108,2,0,P|137:217|178:200,1,90,8|2,0:0|0:0,0:0:0:0:
52,328,15404,1,2,0:0:0:0:
28,240,15551,1,8,0:0:0:0:
88,176,15699,1,8,0:0:0:0:
44,96,15847,1,2,0:0:0:0:
108,32,15995,22,0,P|164:40|196:64,1,90,10|0,0:0|0:0,0:0:0:0:
336,148,16290,2,0,P|292:144|254:122,1,90,8|2,0:0|0:0,0:0:0:0:
324,64,16586,2,0,P|368:67|406:90,1,90,2|8,0:0|0:0,0:0:0:0:
470,154,16881,1,8,0:0:0:0:
424,232,17029,1,2,0:0:0:0:
464,312,17177,2,0,L|400:384,1,90,8|2,0:0|0:0,0:0:0:0:
340,315,17473,2,0,L|256:352,1,90,8|2,0:0|0:0,0:0:0:0:
257,261,17768,2,0,L|160:244,1,90,8|2,0:0|0:0,0:0:0:0:
224,172,18064,2,0,L|160:107,1,90,8|2,0:0|0:0,0:0:0:0:
97,44,18359,6,0,P|60:88|52:128,1,90,6|0,0:0|0:0,0:0:0:0:
116,182,18655,1,8,0:0:0:0:
48,244,18803,1,2,0:0:0:0:
128,284,18950,2,0,P|100:324|60:352,2,90,0|2|8,0:0|0:0|0:0,0:0:0:0:
216,260,19394,1,2,0:0:0:0:
224,172,19541,2,0,P|248:124|280:96,1,90,8|2,0:0|0:0,0:0:0:0:
364,104,19837,2,0,P|340:152|308:180,2,90,0|2|8,0:0|0:0|0:0,0:0:0:0:
427,40,20280,1,2,0:0:0:0:
496,96,20428,1,8,0:0:0:0:
476,184,20576,1,2,0:0:0:0:
396,224,20724,6,0,P|340:272|340:348,1,135.000005149842,4|0,0:0|0:0,0:0:0:0:
309,353,21093,2,8,L|289:385,4,33.7500012874604,0|0|0|0|0,0:0|0:0|0:0|0:0|0:0,0:0:0:0:
218,353,21463,1,0,0:0:0:0:
154,289,21610,2,0,L|134:321,5,33.7500012874604,0|0|0|0|0|0,0:0|0:0|0:0|0:0|0:0|0:0,0:0:0:0:
180,256,22054,5,2,0:0:0:0:
436,344,22349,1,2,0:0:0:0:
168,212,22645,1,2,0:0:0:0:
104,148,22793,1,2,0:0:0:0:
140,64,22941,1,2,0:0:0:0:
228,84,23088,6,0,B|264:72|288:88|328:72,1,90,10|0,0:0|0:0,0:0:0:0:
476,72,23679,1,2,0:0:0:0:
428,148,23827,1,2,0:0:0:0:
492,212,23975,1,2,0:0:0:0:
468,300,24123,2,0,P|408:288|372:296,1,90,2|0,0:0|0:0,0:0:0:0:
289,310,24418,5,2,0:0:0:0:
208,352,24566,1,2,0:0:0:0:
124,320,24714,1,2,0:0:0:0:
108,232,24862,1,2,0:0:0:0:
468,300,25453,1,2,0:0:0:0:
144,144,26044,1,2,0:0:0:0:
228,180,26192,1,2,0:0:0:0:
308,136,26340,1,2,0:0:0:0:
328,48,26487,1,2,0:0:0:0:
412,20,26635,6,0,P|456:36|484:68,1,90,2|0,0:0|0:0,0:0:0:0:
412,112,26931,2,0,P|441:145|484:160,2,90,2|0|2,0:0|0:0|0:0,0:0:0:0:
52,112,27817,2,2,P|40:164|52:200,1,90
140,224,28113,1,2,0:0:0:0:
76,287,28261,1,2,0:0:0:0:
163,307,28408,1,2,0:0:0:0:
480,192,29000,69,2,0:0:0:0:
256,32,29295,1,2,0:0:0:0:
36,192,29591,1,2,0:0:0:0:
256,348,29886,1,2,0:0:0:0:
256,28,30182,70,0,B|316:-20|364:20|372:28|372:28|384:20|444:-32|616:24|464:208|360:232|360:232|280:196|260:104,1,675
261,110,32473,1,0,0:0:0:0:
261,110,32546,54,0,L|217:218,1,90,6|0,0:0|0:0,0:0:0:0:
246,118,32842,2,0,L|213:202,1,90,2|0,0:0|0:0,0:0:0:0:
232,127,33138,2,0,L|199:211,1,90,2|0,0:0|0:0,0:0:0:0:
219,136,33433,2,0,L|186:220,1,90,6|0,0:0|0:0,0:0:0:0:
250,283,33729,6,0,B|196:328|196:328|128:336,1,135.000005149842,6|8,0:0|0:0,0:0:0:0:
131,335,34172,1,2,0:0:0:0:
476,236,34468,1,2,0:0:0:0:
28,184,34763,1,2,0:0:0:0:
91,120,34911,2,0,P|76:68|48:32,2,90,8|2|8,0:0|0:0|0:0,0:0:0:0:
116,208,35354,1,0,0:0:0:0:
116,208,35502,2,0,P|152:247|194:266,1,90,8|2,0:0|0:0,0:0:0:0:
396,176,35798,2,0,P|359:136|317:117,1,90,8|2,0:0|0:0,0:0:0:0:
248,80,36093,6,0,B|300:44|300:44|372:40,1,135.000005149842,2|8,0:0|0:0,0:0:0:0:
244,167,36684,2,0,L|200:196,1,45,8|2,0:0|0:0,0:0:0:0:
272,256,36980,1,0,0:0:0:0:
184,264,37128,1,2,0:0:0:0:
236,336,37275,2,0,L|280:365,2,45,0|2|8,0:0|0:0|0:0,0:0:0:0:
184,264,37719,2,0,L|124:344,1,90,2|8,0:0|0:0,0:0:0:0:
273,256,38014,2,0,L|333:176,1,90,2|8,0:0|0:0,0:0:0:0:
146,184,38458,6,0,P|80:148|16:160,1,135.000005149842,2|8,0:0|0:0,0:0:0:0:
23,156,38901,1,0,0:0:0:0:
202,52,39049,1,8,0:0:0:0:
111,52,39197,2,0,L|23:66,2,90,2|8|2,0:0|0:0|0:0,0:0:0:0:
202,52,39640,2,0,L|304:36,1,90,8|2,0:0|0:0,0:0:0:0:
381,38,39936,2,0,P|364:84|328:120,1,90,8|2,0:0|0:0,0:0:0:0:
280,184,40231,2,0,P|336:203|392:188,1,90,8|2,0:0|0:0,0:0:0:0:
456,188,40527,2,0,P|444:244|416:276,1,90,8|2,0:0|0:0,0:0:0:0:
336,284,40822,6,0,P|304:320|292:360,1,90,2|8,0:0|0:0,0:0:0:0:
164,231,41413,1,8,0:0:0:0:
188,312,41561,1,2,0:0:0:0:
100,294,41709,1,2,0:0:0:0:
36,124,42005,2,0,P|52:76|84:40,1,90,2|8,0:0|0:0,0:0:0:0:
305,160,42596,1,8,0:0:0:0:
216,160,42743,1,8,0:0:0:0:
260,84,42891,1,10,0:0:0:0:
264,73,42965,1,10,0:0:0:0:
271,64,43039,1,10,0:0:0:0:
280,57,43113,1,10,0:0:0:0:
289,50,43187,54,0,P|337:34|377:42,1,90,6|8,0:0|0:0,0:0:0:0:
424,116,43630,2,0,P|468:122|509:107,2,90,2|2|2,0:0|0:0|0:0,0:0:0:0:
392,200,44369,2,0,P|416:256|416:288,1,90,8|2,0:0|0:0,0:0:0:0:
120,200,44664,2,0,P|96:256|96:288,1,90,8|2,0:0|0:0,0:0:0:0:
159,348,44960,2,0,B|187:324|187:324|187:270,1,90,8|2,0:0|0:0,0:0:0:0:
325,270,45256,2,0,B|325:324|325:324|353:348,1,90,8|2,0:0|0:0,0:0:0:0:
256,96,45551,38,0,L|256:192,1,90,2|8,0:0|0:0,0:0:0:0:
256,186,45995,1,2,0:0:0:0:
256,365,46290,1,2,0:0:0:0:
256,274,46438,1,8,0:0:0:0:
180,228,46586,1,2,0:0:0:0:
256,186,46734,2,0,P|312:168|336:140,1,90,8|2,0:0|0:0,0:0:0:0:
336,56,47029,2,0,P|280:74|256:102,1,90,8|2,0:0|0:0,0:0:0:0:
333,146,47325,2,0,P|389:128|413:100,1,90,8|2,0:0|0:0,0:0:0:0:
336,56,47620,2,0,P|280:74|256:102,1,90,8|2,0:0|0:0,0:0:0:0:
176,132,47916,22,0,P|112:144|40:116,1,135,2|8,0:0|0:0,0:0:0:0:
336,56,48507,1,2,0:0:0:0:
333,146,48655,1,2,0:0:0:0:
412,104,48803,1,8,0:0:0:0:
464,276,49098,70,0,P|368:304|272:296,1,180,10|2,0:0|0:0,0:0:0:0:
49,259,49541,2,0,P|135:233|225:236,1,180,10|2,0:0|0:0,0:0:0:0:
256,192,49985,12,10,51463,0:0:0:0:
476,132,51906,37,10,0:0:0:0:
256,0,52349,1,10,0:0:0:0:
256,0,52645,5,6,0:0:0:0:
100,88,52941,1,8,0:0:0:0:
168,252,53236,1,2,0:0:0:0:
168,252,53384,2,0,L|104:324,2,90,2|8|8,0:0|0:0|0:0,0:0:0:0:
252,220,53827,2,0,B|272:272|232:316,1,90,8|2,0:0|0:0,0:0:0:0:
312,364,54123,2,0,P|336:324|384:292,1,90,8|2,0:0|0:0,0:0:0:0:
424,228,54418,2,0,P|459:191|475:147,2,90,8|2|8,0:0|0:0|0:0,0:0:0:0:
384,148,54862,1,2,0:0:0:0:
428,68,55009,6,0,B|360:44|360:88|288:56,1,135,2|8,0:0|0:0,0:0:0:0:
45,157,55601,1,2,0:0:0:0:
132,132,55748,1,2,0:0:0:0:
68,68,55896,1,8,0:0:0:0:
84,316,56192,2,0,B|152:340|152:296|224:328,1,135,2|8,0:0|0:0,0:0:0:0:
308,302,56635,2,0,P|348:284|380:252,1,90,2|8,0:0|0:0,0:0:0:0:
488,136,56931,1,2,0:0:0:0:
404,164,57078,1,8,0:0:0:0:
468,228,57226,1,2,0:0:0:0:
420,76,57374,6,0,P|356:88|320:144,1,135,2|8,0:0|0:0,0:0:0:0:
192,271,57965,2,0,P|232:240|248:200,1,90,8|2,0:0|0:0,0:0:0:0:
237,73,58261,2,0,P|201:99|182:140,1,90,8|2,0:0|0:0,0:0:0:0:
124,208,58556,2,0,P|56:192|36:136,1,135,2|8,0:0|0:0,0:0:0:0:
124,208,59147,1,2,0:0:0:0:
192,271,59295,1,2,0:0:0:0:
164,356,59443,1,8,0:0:0:0:
252,336,59591,1,2,0:0:0:0:
340,312,59739,6,0,L|428:288,2,90,8|2|8,0:0|0:0|0:0,0:0:0:0:
340,221,60182,2,0,L|384:132,2,90,2|8|2,0:0|0:0|0:0,0:0:0:0:
276,157,60625,2,0,L|248:72,1,90,8|2,0:0|0:0,0:0:0:0:
183,7,60921,1,8,0:0:0:0:
183,7,61069,1,8,0:0:0:0:
119,70,61216,2,0,L|32:96,2,90,8|2|8,0:0|0:0|0:0,0:0:0:0:
119,160,61660,2,0,L|84:248,1,90,2|8,0:0|0:0,0:0:0:0:
213,371,62103,5,6,0:0:0:0:
340,243,62399,1,8,0:0:0:0:
467,370,62694,1,2,0:0:0:0:
403,306,62842,1,2,0:0:0:0:
492,284,62990,1,8,0:0:0:0:
420,96,63285,2,0,P|404:156|432:228,1,135,2|8,0:0|0:0,0:0:0:0:
420,96,63876,1,2,0:0:0:0:
356,32,64024,1,2,0:0:0:0:
292,95,64172,1,8,0:0:0:0:
89,103,64468,6,0,P|145:67|212:56,1,135,2|8,0:0|0:0,0:0:0:0:
292,95,64911,1,2,0:0:0:0:
211,146,65059,1,8,0:0:0:0:
274,209,65207,1,2,0:0:0:0:
274,209,65354,2,0,P|320:196|352:168,1,90,8|2,0:0|0:0,0:0:0:0:
188,228,65650,2,0,P|142:241|110:269,2,90,8|2|8,0:0|0:0|0:0,0:0:0:0:
184,320,66093,1,2,0:0:0:0:
184,320,66167,1,2,0:0:0:0:
184,320,66241,2,0,P|120:348|56:332,1,135.000005149842,10|8,0:0|0:0,0:0:0:0:
58,153,66832,5,6,0:0:0:0:
454,231,67423,1,6,0:0:0:0:
428,52,67719,2,0,L|334:21,1,90,8|2,0:0|0:0,0:0:0:0:
342,23,68014,1,6,0:0:0:0:
256,184,68310,1,10,0:0:0:0:
383,311,68606,1,10,0:0:0:0:
204,340,68901,1,10,0:0:0:0:
80,212,69197,38,0,P|96:148|116:124,2,90,6|8|8,0:0|0:0|0:0,0:0:0:0:
140,280,70083,1,2,0:0:0:0:
168,196,70379,2,0,P|191:158|198:113,1,90,8|2,0:0|0:0,0:0:0:0:
344,196,70970,2,0,P|321:158|314:113,1,90,8|2,0:0|0:0,0:0:0:0:
260,28,71561,69,6,0:0:0:0:
260,28,71709,2,0,P|364:36|416:100,2,180,2|2|2,0:0|0:0|0:0,0:0:0:0:
196,91,72448,1,10,0:0:0:0:
259,154,72596,2,0,P|184:203|96:175,2,180,2|2|2,0:0|0:0|0:0,0:0:0:0:
322,217,73335,2,0,L|296:304,1,90,8|2,0:0|0:0,0:0:0:0:
411,217,73630,2,0,L|435:130,1,90,8|2,0:0|0:0,0:0:0:0:
392,304,73926,21,8,0:0:0:0:
392,304,74074,1,2,0:0:0:0:
216,344,74369,1,2,0:0:0:0:
216,253,74517,1,8,0:0:0:0:
136,296,74665,1,2,0:0:0:0:
140,208,74812,1,8,0:0:0:0:
140,208,74960,1,2,0:0:0:0:
216,160,75108,21,8,0:0:0:0:
384,224,75404,2,0,L|442:154,1,90,8|2,0:0|0:0,0:0:0:0:
355,128,75699,2,0,L|357:35,1,90,8|2,0:0|0:0,0:0:0:0:
277,80,75995,2,0,L|216:4,1,90,8|2,0:0|0:0,0:0:0:0:
144,56,76290,69,8,0:0:0:0:
148,76,76364,1,8,0:0:0:0:
152,96,76438,1,2,0:0:0:0:
156,116,76512,1,8,0:0:0:0:
160,136,76586,1,8,0:0:0:0:
164,156,76660,1,8,0:0:0:0:
168,176,76734,1,2,0:0:0:0:
172,196,76807,1,8,0:0:0:0:
192,236,76881,22,0,L|232:268,3,45,8|8|2|8,0:0|0:0|0:0|0:0,0:0:0:0:
259,296,77177,2,0,L|307:304,3,45,8|8|2|8,0:0|0:0|0:0|0:0,0:0:0:0:
335,335,77473,2,0,L|375:315,3,45,8|8|2|8,0:0|0:0|0:0|0:0,0:0:0:0:
407,283,77768,1,8,0:0:0:0:
438,251,77842,1,8,0:0:0:0:
452,208,77916,1,2,0:0:0:0:
456,164,77990,1,8,0:0:0:0:
460,120,78064,2,0,L|480:32,1,90,8|2,0:0|0:0,0:0:0:0:
389,32,78359,2,0,L|369:120,1,90,8|2,0:0|0:0,0:0:0:0:
304,183,78655,6,0,P|256:156|236:124,1,90,6|2,0:0|0:0,0:0:0:0:
173,63,78950,2,0,P|152:116|160:164,1,90,8|2,0:0|0:0,0:0:0:0:
164,236,79246,1,8,0:0:0:0:
249,263,79394,1,2,0:0:0:0:
111,308,79541,1,8,0:0:0:0:
249,353,79689,1,2,0:0:0:0:
164,381,79837,1,8,0:0:0:0:
249,353,79985,2,0,P|291:337|328:313,1,90,2|8,0:0|0:0,0:0:0:0:
450,309,80280,2,0,P|425:346|392:376,2,90,2|8|2,0:0|0:0|0:0,0:0:0:0:
450,218,80724,1,8,0:0:0:0:
450,218,80872,1,0,0:0:0:0:
450,128,81019,6,0,P|424:84|388:52,1,90,8|2,0:0|0:0,0:0:0:0:
304,68,81315,2,0,P|326:107|358:138,1,90,8|2,0:0|0:0,0:0:0:0:
213,68,81610,2,0,P|181:99|159:139,1,90,8|2,0:0|0:0,0:0:0:0:
196,224,81906,2,0,P|228:193|251:154,1,90,8|2,0:0|0:0,0:0:0:0:
275,283,82202,2,0,P|238:309|196:324,1,90,8|2,0:0|0:0,0:0:0:0:
120,276,82497,1,8,0:0:0:0:
116,364,82645,1,2,0:0:0:0:
36,320,82793,2,0,P|28:260|12:216,1,90,8|2,0:0|0:0,0:0:0:0:
36,64,83088,2,0,P|28:124|12:168,1,90,8|2,0:0|0:0,0:0:0:0:
96,196,83384,6,0,P|144:156|160:132,1,90,6|2,0:0|0:0,0:0:0:0:
208,52,83679,1,8,0:0:0:0:
249,133,83827,1,2,0:0:0:0:
300,52,83975,2,0,P|326:88|339:131,1,90,8|2,0:0|0:0,0:0:0:0:
402,195,84271,2,0,P|427:157|439:114,1,90,8|2,0:0|0:0,0:0:0:0:
463,268,84566,2,0,P|420:282|376:280,1,90,8|2,0:0|0:0,0:0:0:0:
288,308,84862,2,0,P|328:352|360:368,2,90,8|2|8,0:0|0:0|0:0,0:0:0:0:
224,244,85305,1,2,0:0:0:0:
160,307,85453,1,8,0:0:0:0:
69,307,85601,1,8,0:0:0:0:
16,236,85748,5,4,0:0:0:0:
143,108,86044,2,0,L|96:128,4,45,0|0|0|0|0,0:0|0:0|0:0|0:0|0:0,0:0:0:0:
233,108,86487,1,0,0:0:0:0:
323,108,86635,2,0,L|368:88,4,45,0|0|0|0|0,0:0|0:0|0:0|0:0|0:0,0:0:0:0:
323,175,87078,5,2,0:0:0:0:
91,270,87374,1,2,0:0:0:0:
322,365,87670,1,2,0:0:0:0:
20,248,87965,1,2,0:0:0:0:
256,196,88261,1,2,0:0:0:0:
108,56,88556,1,2,0:0:0:0:
360,156,88852,1,2,0:0:0:0:
176,228,89147,2,0,L|176:296,1,67.5000025749208,2|4,0:0|0:0,0:0:0:0:
