osu file format v13

[General]
AudioFilename: ZAQ - Seven Doors (TV Size).mp3
AudioLeadIn: 0
PreviewTime: 52077
Countdown: 0
SampleSet: Normal
StackLeniency: 0.7
Mode: 0
LetterboxInBreaks: 0
WidescreenStoryboard: 1

[Editor]
DistanceSpacing: 1.2
BeatDivisor: 4
GridSize: 4
TimelineZoom: 1.3

[Metadata]
Title:Seven Doors (TV Size)
TitleUnicode:Seven Doors (TV Size)
Artist:ZAQ
ArtistUnicode:ZAQ
Creator:Verlaren
Version:Hard
Source:Trinity Seven
Tags:Arata Kasuga, Lilith Asami, Arin Kannazuki, Levi Kazama, Mira Yamana, Akio Fudo, Yui Kurata, Liselotte Sherlock, Selina Sherlock, Hijiri Kasuga
BeatmapID:566944
BeatmapSetID:241106

[Difficulty]
HPDrainRate:5
CircleSize:4
OverallDifficulty:5
ApproachRate:6
SliderMultiplier:1.4
SliderTickRate:1

[Events]
//Background and Video events
Video,0,"SevenDoors.avi"
0,0,"TrinitySeven-background.jpg",0,0
//Break Periods
//Storyboard Layer 0 (Background)
//Storyboard Layer 1 (Fail)
//Storyboard Layer 2 (Pass)
//Storyboard Layer 3 (Foreground)
//Storyboard Sound Samples

[TimingPoints]
1808,295.566502463054,4,1,2,17,1,0
4172,-100,4,1,2,56,0,0
20724,-100,4,2,2,27,0,0
21019,-133.333333333333,4,2,2,27,0,0
22054,-66.6666666666667,4,1,2,27,0,0
22645,-100,4,1,2,27,0,0
23088,-100,4,2,2,27,0,0
30182,-200,4,2,2,17,0,0
32546,-100,4,1,2,47,0,0
33729,-100,4,1,2,53,0,0
43187,-100,4,1,2,53,0,0
52645,-100,4,1,2,62,0,1
68014,-133.333333333333,4,1,2,62,0,1
69197,-200,4,1,2,62,0,1
71561,-100,4,1,2,53,0,0
78655,-100,4,1,2,57,0,0
86044,-133.333333333333,4,1,2,37,0,0
86931,-133.333333333333,4,1,2,57,0,0
89295,-100,4,1,2,17,0,0

[Colours]
Combo1 : 181,181,227
Combo2 : 253,36,90
Combo3 : 255,197,21
Combo4 : 32,143,255
Combo5 : 172,89,255
Combo6 : 255,113,255

[HitObjects]
256,192,1808,12,0,4024,0:0:0:0:
160,224,4172,6,0,B|160:304|248:329,1,140,6|8,0:0|0:0,0:0:0:0:
312,364,4615,1,2,0:0:0:0:
375,311,4763,2,0,P|400:240|456:204,1,140,8|8,0:0|0:0,0:0:0:0:
451,37,5354,2,0,P|368:36|328:80,1,140,2|8,0:0|0:0,0:0:0:0:
271,133,5798,1,2,0:0:0:0:
187,133,5945,2,0,P|96:136|64:96,1,140,8|8,0:0|0:0,0:0:0:0:
67,272,6537,6,0,L|132:240,2,70,2|2|8,0:0|0:0|0:0,0:0:0:0:
7,331,6980,1,2,0:0:0:0:
88,348,7128,2,0,L|232:360,1,140,2|8,0:0|0:0,0:0:0:0:
287,300,7571,1,2,0:0:0:0:
346,240,7719,2,0,L|416:252,2,70,2|2|8,0:0|0:0|0:0,0:0:0:0:
264,216,8162,2,0,L|224:152,1,70,2|8,0:0|0:0,0:0:0:0:
142,156,8458,2,0,L|163:75,2,70,2|8|2,0:0|0:0|0:0,0:0:0:0:
176,232,8901,5,6,0:0:0:0:
324,156,9197,1,8,0:0:0:0:
324,323,9492,1,2,0:0:0:0:
244,292,9640,1,2,0:0:0:0:
164,312,9788,2,0,L|96:324,1,70,8|2,0:0|0:0,0:0:0:0:
35,264,10083,2,0,P|20:188|56:140,1,140,2|8,0:0|0:0,0:0:0:0:
136,136,10527,1,2,0:0:0:0:
100,212,10674,1,8,0:0:0:0:
88,68,10822,1,2,0:0:0:0:
172,60,10970,2,0,P|208:92|216:136,1,70,8|2,0:0|0:0,0:0:0:0:
275,171,11266,6,0,L|284:240,2,70,6|2|8,0:0|0:0|0:0,0:0:0:0:
356,192,11709,2,0,L|396:252,2,70,6|8|2,0:0|0:0|0:0,0:0:0:0:
440,176,12152,2,0,L|500:216,2,70,6|2|0,0:0|0:0|0:0,0:0:0:0:
440,91,12596,2,0,L|376:48,1,70,6|8,0:0|0:0,0:0:0:0:
322,111,12891,1,2,0:0:0:0:
262,51,13039,1,8,0:0:0:0:
100,100,13335,1,8,0:0:0:0:
60,264,13630,5,6,0:0:0:0:
140,244,13778,1,2,0:0:0:0:
199,303,13926,2,0,L|268:288,1,70,8|2,0:0|0:0,0:0:0:0:
326,347,14221,2,0,L|396:332,1,70,8|2,0:0|0:0,0:0:0:0:
454,272,14517,1,8,0:0:0:0:
394,212,14665,1,2,0:0:0:0:
424,136,14812,2,0,P|383:80|311:68,1,140,2|8,0:0|0:0,0:0:0:0:
256,128,15256,1,2,0:0:0:0:
196,187,15404,2,0,P|144:208|128:236,2,70,2|2|8,0:0|0:0|0:0,0:0:0:0:
204,272,15847,1,2,0:0:0:0:
124,296,15995,6,0,P|48:276|24:212,1,140,6|8,0:0|0:0,0:0:0:0:
24,56,16586,2,0,L|72:116,1,70,8|2,0:0|0:0,0:0:0:0:
194,55,16881,2,0,L|151:110,1,70,8|2,0:0|0:0,0:0:0:0:
275,31,17177,2,0,B|303:45|303:45|376:51|376:51|408:67,1,140,8|8,0:0|0:0,0:0:0:0:
248,124,17768,2,0,B|276:138|276:138|349:144|349:144|381:160,1,140,8|8,0:0|0:0,0:0:0:0:
256,272,18359,5,6,0:0:0:0:
300,344,18507,1,2,0:0:0:0:
215,344,18655,2,0,P|176:280|196:216,1,140,2|8,0:0|0:0,0:0:0:0:
412,344,19246,1,8,0:0:0:0:
356,280,19394,1,2,0:0:0:0:
436,260,19541,2,0,B|452:228|452:228|452:156|452:156|432:128,1,140,8|8,0:0|0:0,0:0:0:0:
76,260,20133,2,0,B|60:228|60:228|60:156|60:156|80:128,1,140,8|8,0:0|0:0,0:0:0:0:
197,10,20724,5,4,0:0:0:0:
285,98,21019,2,0,B|300:148|296:160|296:160|304:164|304:164|296:172|296:172|304:176|304:176|296:192,1,105.000004005432
253,231,21463,1,0,0:0:0:0:
208,275,21610,2,0,B|202:286|202:286|210:290|210:290|202:298|202:298|210:302|210:302|206:314|221:364,1,105.000004005432
348,364,22054,5,6,0:0:0:0:
348,364,22349,1,2,0:0:0:0:
466,245,22645,1,2,0:0:0:0:
444,164,22793,1,2,0:0:0:0:
420,84,22941,1,2,0:0:0:0:
360,24,23088,21,8,0:0:0:0:
122,261,23679,1,2,0:0:0:0:
181,201,23827,2,0,P|192:144|184:120,2,70,2|0|2,0:0|0:0|0:0,0:0:0:0:
108,160,24271,1,8,0:0:0:0:
108,160,24418,2,0,L|88:88,1,70,2|0,0:0|0:0,0:0:0:0:
149,32,24714,2,0,L|216:56,1,70,2|0,0:0|0:0,0:0:0:0:
452,293,25453,5,2,0:0:0:0:
320,192,25748,1,2,0:0:0:0:
438,73,26044,1,2,0:0:0:0:
364,28,26192,2,0,L|288:40,1,70,2|0,0:0|0:0,0:0:0:0:
210,38,26487,1,2,0:0:0:0:
210,122,26635,2,0,P|188:152|152:172,1,70,0|2,0:0|0:0,0:0:0:0:
128,92,26931,2,0,P|98:110|78:139,1,70,0|2,0:0|0:0,0:0:0:0:
100,220,27226,2,0,B|112:256|112:256|172:288|172:356,1,140,8|2,0:0|0:0,0:0:0:0:
338,334,27817,6,0,P|380:324|408:296,1,70,0|2,0:0|0:0,0:0:0:0:
401,220,28113,2,0,P|367:226|340:248,1,70,0|2,0:0|0:0,0:0:0:0:
484,204,28408,2,0,B|472:168|472:168|412:136|412:68,1,140,8|2,0:0|0:0,0:0:0:0:
256,32,29000,69,2,0:0:0:0:
137,150,29295,1,2,0:0:0:0:
256,268,29591,1,2,0:0:0:0:
374,149,29886,1,2,0:0:0:0:
256,32,30182,70,0,B|218:5|177:42|177:42|106:18|42:114|116:195|223:212|223:212|298:146|281:87,1,525,8|0,0:0|0:0,0:0:0:0:
327,39,32546,53,10,0:0:0:0:
445,157,32842,1,10,0:0:0:0:
392,316,33138,1,10,0:0:0:0:
224,316,33433,1,12,0:0:0:0:
164,160,33729,6,0,B|92:176|92:176|36:220,1,140,4|8,0:0|0:0,0:0:0:0:
39,216,34172,1,2,0:0:0:0:
224,316,34468,1,2,0:0:0:0:
342,197,34763,1,2,0:0:0:0:
342,197,34911,2,0,P|360:144|384:128,1,70,8|2,0:0|0:0,0:0:0:0:
452,128,35207,2,0,P|434:181|410:197,2,70,8|2|8,0:0|0:0|0:0,0:0:0:0:
400,60,35650,2,0,P|356:56|324:72,1,70,2|8,0:0|0:0,0:0:0:0:
164,65,36093,6,0,P|152:136|112:208,1,140,2|8,0:0|0:0,0:0:0:0:
240,314,36684,1,8,0:0:0:0:
299,254,36832,2,0,L|368:232,1,70,2|8,0:0|0:0,0:0:0:0:
425,172,37128,1,2,0:0:0:0:
425,88,37275,2,0,L|388:20,2,70,2|2|8,0:0|0:0|0:0,0:0:0:0:
248,64,37867,1,2,0:0:0:0:
164,64,38014,1,2,0:0:0:0:
204,136,38162,1,8,0:0:0:0:
85,254,38458,6,0,B|124:320|124:320|184:352,1,140,2|8,0:0|0:0,0:0:0:0:
179,349,38901,1,2,0:0:0:0:
348,349,39197,1,2,0:0:0:0:
466,230,39492,1,2,0:0:0:0:
466,230,39640,2,0,P|476:188|472:144,1,70,8|2,0:0|0:0,0:0:0:0:
401,107,39936,2,0,P|392:141|392:176,1,70,8|0,0:0|0:0,0:0:0:0:
480,76,40231,2,0,P|456:48|416:28,2,70,8|2|8,0:0|0:0|0:0,0:0:0:0:
312,100,40822,6,0,B|272:100|272:100|204:80|204:80|160:80,1,140,6|8,0:0|0:0,0:0:0:0:
55,198,41413,1,2,0:0:0:0:
139,198,41561,1,2,0:0:0:0:
96,268,41709,1,8,0:0:0:0:
232,364,42005,2,0,B|272:364|272:364|340:384|340:384|369:384,1,140,6|8,0:0|0:0,0:0:0:0:
488,265,42596,1,2,0:0:0:0:
408,284,42743,1,2,0:0:0:0:
428,204,42891,1,10,0:0:0:0:
424,192,42965,1,10,0:0:0:0:
420,180,43039,1,10,0:0:0:0:
416,168,43113,1,10,0:0:0:0:
412,156,43187,54,0,P|372:92|304:64,1,140,6|8,0:0|0:0,0:0:0:0:
315,65,43630,1,0,0:0:0:0:
256,224,43926,1,2,0:0:0:0:
148,96,44221,1,2,0:0:0:0:
148,96,44369,2,0,P|116:136|112:156,1,70,8|2,0:0|0:0,0:0:0:0:
155,228,44665,2,0,P|180:203|191:170,1,70,8|2,0:0|0:0,0:0:0:0:
72,232,44960,2,0,P|84:276|104:296,2,70,8|2|8,0:0|0:0|0:0,0:0:0:0:
190,350,45551,38,0,P|280:312|340:316,1,140,2|8,0:0|0:0,0:0:0:0:
320,312,45995,1,2,0:0:0:0:
468,232,46290,1,2,0:0:0:0:
504,68,46586,1,2,0:0:0:0:
419,68,46734,2,0,L|360:106,1,70,8|2,0:0|0:0,0:0:0:0:
282,65,47029,2,0,L|339:24,1,70,8|2,0:0|0:0,0:0:0:0:
264,200,47325,1,2,0:0:0:0:
180,200,47473,1,8,0:0:0:0:
222,125,47620,1,2,0:0:0:0:
61,318,47916,6,0,P|32:248|32:184,1,140,4|8,0:0|0:0,0:0:0:0:
96,28,48507,2,0,P|107:73|103:105,1,70,8|2,0:0|0:0,0:0:0:0:
105,180,48803,1,8,0:0:0:0:
256,312,49098,1,8,0:0:0:0:
374,193,49394,1,8,0:0:0:0:
255,74,49689,1,8,0:0:0:0:
256,192,49985,12,10,51463,0:0:0:0:
216,316,51906,37,2,0:0:0:0:
296,76,52349,1,2,0:0:0:0:
136,24,52645,6,0,P|88:80|96:144,1,140,6|8,0:0|0:0,0:0:0:0:
216,316,53236,1,2,0:0:0:0:
296,336,53384,1,2,0:0:0:0:
275,256,53531,1,8,0:0:0:0:
356,276,53679,1,2,0:0:0:0:
336,196,53827,2,0,B|396:108|396:108|436:96,1,140,2|8,0:0|0:0,0:0:0:0:
480,32,54271,1,2,0:0:0:0:
480,32,54418,2,0,B|433:18|433:18|385:30,2,70,8|2|8,0:0|0:0|0:0,0:0:0:0:
318,38,55009,6,0,P|240:44|184:80,1,140,2|8,0:0|0:0,0:0:0:0:
68,192,55601,2,0,P|137:188|197:154,1,140,2|8,0:0|0:0,0:0:0:0:
197,154,56044,1,2,0:0:0:0:
136,312,56340,1,2,0:0:0:0:
368,220,56635,1,2,0:0:0:0:
300,272,56783,1,8,0:0:0:0:
376,304,56931,2,0,P|440:264|444:192,1,140,2|2,0:0|0:0,0:0:0:0:
392,140,57374,5,6,0:0:0:0:
256,40,57670,1,8,0:0:0:0:
137,158,57965,2,0,L|120:229,2,70,8|2|8,0:0|0:0|0:0,0:0:0:0:
52,158,58408,1,2,0:0:0:0:
40,240,58556,2,0,P|64:306|132:326,1,140,2|8,0:0|0:0,0:0:0:0:
288,284,59147,1,2,0:0:0:0:
424,320,59295,1,2,0:0:0:0:
344,344,59443,1,8,0:0:0:0:
368,264,59591,1,2,0:0:0:0:
392,184,59739,6,0,L|412:112,2,70,6|2|8,0:0|0:0|0:0,0:0:0:0:
332,124,60182,2,0,L|320:56,2,70,2|8|2,0:0|0:0|0:0,0:0:0:0:
248,104,60625,2,0,L|192:36,1,70,8|2,0:0|0:0,0:0:0:0:
143,109,60921,2,0,L|128:184,2,70,2|2|8,0:0|0:0|0:0,0:0:0:0:
108,272,61512,1,8,0:0:0:0:
256,192,61807,1,8,0:0:0:0:
292,356,62103,6,0,P|320:316|408:296,1,140,6|8,0:0|0:0,0:0:0:0:
448,132,62694,1,8,0:0:0:0:
424,212,62842,1,2,0:0:0:0:
368,152,62990,1,8,0:0:0:0:
248,32,63285,1,8,0:0:0:0:
176,184,63581,1,8,0:0:0:0:
80,44,63876,1,2,0:0:0:0:
80,44,64024,1,2,0:0:0:0:
80,44,64172,2,0,L|64:124,1,70,8|2,0:0|0:0,0:0:0:0:
52,196,64468,6,0,P|80:264|56:336,1,140,2|8,0:0|0:0,0:0:0:0:
147,325,64911,2,0,B|212:296|212:296|288:288,1,140,2|2,0:0|0:0,0:0:0:0:
360,316,65354,2,0,P|408:304|432:280,2,70,8|2|8,0:0|0:0|0:0,0:0:0:0:
472,188,65945,1,8,0:0:0:0:
353,69,66241,2,0,B|308:76|308:76|192:56,1,140,2|8,0:0|0:0,0:0:0:0:
256,224,66832,5,6,0:0:0:0:
256,224,67423,1,8,0:0:0:0:
137,105,67719,1,8,0:0:0:0:
92,268,68014,2,0,B|92:332|152:348,1,105.000004005432,8|8,0:0|0:0,0:0:0:0:
276,344,68606,2,0,B|292:324|292:324|368:304,1,105.000004005432,8|8,0:0|0:0,0:0:0:0:
452,303,69197,38,0,B|472:276|472:276|480:204,1,105,8|2,0:0|0:0,0:0:0:0:
479,162,69788,2,0,B|460:136|460:136|456:52,1,105,8|2,0:0|0:0,0:0:0:0:
428,36,70379,2,0,B|416:16|416:16|392:64|352:80,1,105,8|2,0:0|0:0,0:0:0:0:
324,92,70970,2,0,P|272:108|220:92,1,105,8|2,0:0|0:0,0:0:0:0:
184,76,71561,5,6,0:0:0:0:
184,76,71709,2,0,B|156:48|156:48|148:116|108:148,1,140,2|2,0:0|0:0,0:0:0:0:
236,257,72300,1,2,0:0:0:0:
236,257,72448,2,0,L|176:304,1,70,2|2,0:0|0:0,0:0:0:0:
349,300,72891,1,2,0:0:0:0:
467,181,73187,1,2,0:0:0:0:
467,181,73335,2,0,L|448:104,1,70,8|2,0:0|0:0,0:0:0:0:
390,172,73630,2,0,L|368:84,1,70,8|2,0:0|0:0,0:0:0:0:
313,44,73926,5,12,0:0:0:0:
313,44,74074,2,0,P|240:52|212:128,2,140,2|2|2,0:0|0:0|0:0,0:0:0:0:
292,124,74812,2,0,L|312:200,2,70,8|2|6,0:0|0:0|0:0,0:0:0:0:
336,288,75404,1,8,0:0:0:0:
168,296,75699,1,8,0:0:0:0:
80,152,75995,1,8,0:0:0:0:
40,20,76290,6,0,L|84:36,7,35,8|8|2|8|0|0|0|0,0:0|0:0|0:0|0:0|0:0|0:0|0:0|0:0,0:0:0:0:
108,56,76881,2,0,L|136:84,7,35,8|8|2|8|8|8|2|8,0:0|0:0|0:0|0:0|0:0|0:0|0:0|0:0,0:0:0:0:
156,116,77473,2,0,L|186:166,7,35,8|8|2|8|8|8|2|8,0:0|0:0|0:0|0:0|0:0|0:0|0:0|0:0,0:0:0:0:
192,200,78064,2,0,P|184:240|156:272,1,70,8|2,0:0|0:0,0:0:0:0:
84,268,78359,2,0,P|92:228|120:196,1,70,8|2,0:0|0:0,0:0:0:0:
192,200,78655,6,0,B|220:186|220:186|293:180|293:180|325:164,1,140,6|8,0:0|0:0,0:0:0:0:
388,108,79098,1,2,0:0:0:0:
436,176,79246,2,0,P|461:247|517:283,1,140,8|8,0:0|0:0,0:0:0:0:
364,356,79837,2,0,P|281:357|241:313,1,140,2|8,0:0|0:0,0:0:0:0:
268,236,80281,1,2,0:0:0:0:
192,200,80428,2,0,P|101:197|69:237,1,140,8|8,0:0|0:0,0:0:0:0:
191,109,81019,6,0,L|256:141,2,70,2|2|8,0:0|0:0|0:0,0:0:0:0:
132,52,81463,1,2,0:0:0:0:
212,33,81610,2,0,L|356:21,1,140,8|8,0:0|0:0,0:0:0:0:
411,80,82053,1,0,0:0:0:0:
470,139,82202,2,0,L|492:218,2,70,2|2|8,0:0|0:0|0:0,0:0:0:0:
404,192,82645,2,0,L|400:264,2,70,2|8|2,0:0|0:0|0:0,0:0:0:0:
324,224,83088,2,0,L|296:296,1,70,8|2,0:0|0:0,0:0:0:0:
268,368,83384,5,6,0:0:0:0:
100,340,83680,1,8,0:0:0:0:
218,221,83975,1,8,0:0:0:0:
133,221,84123,1,2,0:0:0:0:
133,136,84271,2,0,L|201:124,1,70,8|2,0:0|0:0,0:0:0:0:
261,64,84566,2,0,P|337:49|385:85,1,140,2|8,0:0|0:0,0:0:0:0:
389,165,85010,1,2,0:0:0:0:
313,129,85157,1,8,0:0:0:0:
457,117,85305,1,2,0:0:0:0:
465,201,85453,2,0,P|433:237|389:245,1,70,8|2,0:0|0:0,0:0:0:0:
353,303,85748,5,6,0:0:0:0:
236,352,86044,2,0,B|188:331|181:320|181:320|173:324|173:324|172:312|172:312|164:316|164:316|156:300,1,105.000004005432
159,242,86487,1,0,0:0:0:0:
159,178,86635,2,0,B|154:166|154:166|146:169|146:169|145:158|145:158|137:162|137:162|130:151|82:130,1,105.000004005432
68,68,87078,5,2,0:0:0:0:
192,40,87374,2,0,P|256:40|300:60,1,105.000004005432,2|2,0:0|0:0,0:0:0:0:
382,144,87965,2,0,P|440:164|488:156,1,105.000004005432,2|2,0:0|0:0,0:0:0:0:
392,247,88556,2,0,P|328:280|296:320,1,105.000004005432,2|2,0:0|0:0,0:0:0:0:
154,215,89147,2,0,L|190:254,1,52.5000020027161,2|12,0:0|0:0,0:0:0:0:
