osu file format v13

[General]
AudioFilename: Trinity Seven 7OP _ Opening - Seven Doors .mp3
AudioLeadIn: 0
PreviewTime: 52229
Countdown: 0
SampleSet: Soft
StackLeniency: 0.7
Mode: 3
LetterboxInBreaks: 0
SpecialStyle: 0
WidescreenStoryboard: 0

[Editor]
DistanceSpacing: 0.5
BeatDivisor: 4
GridSize: 4
TimelineZoom: 1.3

[Metadata]
Title:Seven Doors (TV Size)
TitleUnicode:Seven Doors (TV Size)
Artist:ZAQ
ArtistUnicode:ZAQ
Creator:Pikobaka
Version:HD
Source:トリニティセブン 7人の魔書使い
Tags:Trinity_Seven Opening [_S_a_k_u_r_a_]
BeatmapID:522377
BeatmapSetID:223664

[Difficulty]
HPDrainRate:7
CircleSize:4
OverallDifficulty:8
ApproachRate:5
SliderMultiplier:1.4
SliderTickRate:1

[Events]
//Background and Video events
0,0,"BG.jpg",0,0
//Break Periods
//Storyboard Layer 0 (Background)
//Storyboard Layer 1 (Fail)
//Storyboard Layer 2 (Pass)
//Storyboard Layer 3 (Foreground)
//Storyboard Sound Samples
//Background Colour Transformations
3,100,163,162,255

[TimingPoints]
4348,295.566502463054,4,2,0,40,1,0
4348,-100,4,2,0,40,0,1
4421,-100,4,2,0,40,0,0
9077,-100,4,2,0,40,0,0
11515,-133.333333333333,4,2,0,40,0,0
11884,-66.6666666666667,4,2,0,40,0,0
11958,-133.333333333333,4,2,0,40,0,0
12328,-66.6666666666667,4,2,0,40,0,0
12402,-133.333333333333,4,2,0,40,0,0
12771,-66.6666666666667,4,2,0,40,0,0
12845,-133.333333333333,4,2,0,40,0,0
13214,-66.6666666666667,4,2,0,40,0,0
13288,-133.333333333333,4,2,0,40,0,0
13510,-66.6666666666667,4,2,0,40,0,0
13584,-133.333333333333,4,2,0,40,0,0
13806,-100,4,2,0,40,0,0
18535,-100,4,2,0,40,0,0
22081,-200,4,2,0,40,0,0
22229,-66.6666666666667,4,2,0,40,0,0
22303,-200,4,2,0,40,0,0
22525,-66.6666666666667,4,2,0,40,0,0
22599,-200,4,2,0,40,0,0
22820,-100,4,2,0,40,0,0
23264,-133.333333333333,4,2,0,40,0,0
30357,-200,4,2,0,40,0,0
32722,-66.6666666666667,4,2,0,40,0,0
32796,-133.333333333333,4,2,0,40,0,0
33017,-66.6666666666667,4,2,0,40,0,0
33091,-133.333333333333,4,2,0,40,0,0
33313,-66.6666666666667,4,2,0,40,0,0
33387,-133.333333333333,4,2,0,40,0,0
33609,-66.6666666666667,4,2,0,40,0,0
33682,-133.333333333333,4,2,0,40,0,0
33904,-100,4,2,0,40,0,0
51712,-133.333333333333,4,2,0,40,0,0
52081,-66.6666666666667,4,2,0,40,0,0
52155,-133.333333333333,4,2,0,40,0,0
52525,-66.6666666666667,4,2,0,40,0,0
52599,-133.333333333333,4,2,0,40,0,0
52820,-100,4,2,0,40,0,1
59914,-66.6666666666667,4,2,0,40,0,1
59988,-133.333333333333,4,2,0,40,0,1
60357,-66.6666666666667,4,2,0,40,0,1
60431,-133.333333333333,4,2,0,40,0,1
60801,-66.6666666666667,4,2,0,40,0,1
60875,-133.333333333333,4,2,0,40,0,1
61244,-66.6666666666667,4,2,0,40,0,1
61318,-133.333333333333,4,2,0,40,0,1
61687,-66.6666666666667,4,2,0,40,0,1
61761,-133.333333333333,4,2,0,40,0,1
61983,-66.6666666666667,4,2,0,40,0,1
62057,-133.333333333333,4,2,0,40,0,1
62279,-100,4,2,0,40,0,1
71737,-100,4,2,0,40,0,0
71811,-200,4,2,0,40,0,0
72180,-100,4,2,0,40,0,0
72254,-200,4,2,0,40,0,0
72623,-100,4,2,0,40,0,0
72697,-200,4,2,0,40,0,0
73214,-100,4,2,0,40,0,0
73288,-200,4,2,0,40,0,0
73510,-100,4,2,0,40,0,0
73584,-200,4,2,0,40,0,0
73806,-100,4,2,0,40,0,0
73880,-200,4,2,0,40,0,0
74101,-100,4,2,0,40,0,0
87328,-133.333333333333,4,2,0,40,0,0
87549,-66.6666666666667,4,2,0,40,0,0
87623,-133.333333333333,4,2,0,40,0,0
87845,-66.6666666666667,4,2,0,40,0,0
87919,-133.333333333333,4,2,0,40,0,0
88141,-66.6666666666667,4,2,0,40,0,0
88214,-133.333333333333,4,2,0,40,0,0
88436,-66.6666666666667,4,2,0,40,0,0
88510,-133.333333333333,4,2,0,40,0,0
88732,-66.6666666666667,4,2,0,40,0,0
88806,-133.333333333333,4,2,0,40,0,0
89027,-66.6666666666667,4,2,0,40,0,0
89101,-133.333333333333,4,2,0,40,0,0
89323,-100,4,2,0,40,0,0

[HitObjects]
64,192,4348,128,0,4939:0:0:0:0:
320,192,4348,1,0,0:0:0:0:
192,192,4643,1,0,0:0:0:0:
320,192,4643,1,0,0:0:0:0:
448,192,4939,1,0,0:0:0:0:
320,192,5086,1,0,0:0:0:0:
192,192,5234,128,0,5530:0:0:0:0:
64,192,5234,1,0,0:0:0:0:
320,192,5530,1,0,0:0:0:0:
64,192,5825,128,0,6121:0:0:0:0:
448,192,5825,1,0,0:0:0:0:
192,192,6121,1,0,0:0:0:0:
320,192,6269,1,0,0:0:0:0:
448,192,6416,128,0,6712:0:0:0:0:
64,192,6416,1,0,0:0:0:0:
64,192,6712,128,0,7894:0:0:0:0:
320,192,6712,1,0,0:0:0:0:
320,192,7008,1,0,0:0:0:0:
192,192,7008,1,0,0:0:0:0:
448,192,7303,1,0,0:0:0:0:
320,192,7451,1,0,0:0:0:0:
192,192,7599,1,0,0:0:0:0:
448,192,7599,1,0,0:0:0:0:
320,192,7894,128,0,8485:0:0:0:0:
448,192,7894,1,0,0:0:0:0:
192,192,8042,1,0,0:0:0:0:
448,192,8190,1,0,0:0:0:0:
64,192,8190,1,0,0:0:0:0:
64,192,8485,128,0,9077:0:0:0:0:
192,192,8485,1,0,0:0:0:0:
448,192,8633,1,0,0:0:0:0:
192,192,8781,1,0,0:0:0:0:
320,192,8781,1,0,0:0:0:0:
448,192,9077,1,0,0:0:0:0:
192,192,9077,1,0,0:0:0:0:
64,192,9372,1,0,0:0:0:0:
448,192,9372,128,0,9668:0:0:0:0:
192,192,9668,1,0,0:0:0:0:
320,192,9815,1,0,0:0:0:0:
448,192,9963,128,0,10259:0:0:0:0:
64,192,9963,1,0,0:0:0:0:
192,192,10259,1,0,0:0:0:0:
448,192,10554,1,0,0:0:0:0:
320,192,10554,128,0,10850:0:0:0:0:
64,192,10850,1,0,0:0:0:0:
192,192,10998,1,0,0:0:0:0:
448,192,11146,128,0,11441:0:0:0:0:
320,192,11146,1,0,0:0:0:0:
192,192,11293,1,0,0:0:0:0:
64,192,11441,1,0,0:0:0:0:
320,192,11441,1,0,0:0:0:0:
192,192,11737,1,0,0:0:0:0:
320,192,11884,1,0,0:0:0:0:
448,192,11884,1,0,0:0:0:0:
192,192,12180,1,0,0:0:0:0:
64,192,12328,1,0,0:0:0:0:
320,192,12328,1,0,0:0:0:0:
448,192,12623,1,0,0:0:0:0:
320,192,12771,1,0,0:0:0:0:
192,192,12771,1,0,0:0:0:0:
320,192,13067,1,0,0:0:0:0:
448,192,13214,1,0,0:0:0:0:
192,192,13214,1,0,0:0:0:0:
320,192,13510,1,0,0:0:0:0:
64,192,13510,1,0,0:0:0:0:
448,192,13806,1,0,0:0:0:0:
192,192,13806,128,0,14101:0:0:0:0:
64,192,14101,128,0,14397:0:0:0:0:
320,192,14101,1,0,0:0:0:0:
448,192,14397,1,0,0:0:0:0:
192,192,14545,1,0,0:0:0:0:
320,192,14692,128,0,14988:0:0:0:0:
64,192,14692,1,0,0:0:0:0:
192,192,14988,1,0,0:0:0:0:
448,192,15283,128,0,15579:0:0:0:0:
64,192,15283,1,0,0:0:0:0:
192,192,15579,1,0,0:0:0:0:
320,192,15727,1,0,0:0:0:0:
64,192,15875,128,0,16170:0:0:0:0:
448,192,15875,1,0,0:0:0:0:
320,192,16170,128,0,17352:0:0:0:0:
192,192,16170,1,0,0:0:0:0:
192,192,16466,1,0,0:0:0:0:
448,192,16466,1,0,0:0:0:0:
64,192,16761,1,0,0:0:0:0:
192,192,16909,1,0,0:0:0:0:
448,192,17057,1,0,0:0:0:0:
64,192,17057,1,0,0:0:0:0:
192,192,17352,128,0,17944:0:0:0:0:
64,192,17500,1,0,0:0:0:0:
320,192,17648,1,0,0:0:0:0:
448,192,17648,1,0,0:0:0:0:
64,192,17944,128,0,18535:0:0:0:0:
448,192,17944,1,0,0:0:0:0:
320,192,18091,1,0,0:0:0:0:
192,192,18239,1,0,0:0:0:0:
448,192,18239,1,0,0:0:0:0:
320,192,18535,1,0,0:0:0:0:
448,192,18535,1,0,0:0:0:0:
320,192,18830,1,0,0:0:0:0:
64,192,18830,128,0,19126:0:0:0:0:
448,192,19126,1,0,0:0:0:0:
320,192,19274,1,0,0:0:0:0:
64,192,19421,128,0,19717:0:0:0:0:
192,192,19421,1,0,0:0:0:0:
448,192,19717,1,0,0:0:0:0:
320,192,20013,128,0,20308:0:0:0:0:
64,192,20013,1,0,0:0:0:0:
448,192,20308,1,0,0:0:0:0:
192,192,20456,1,0,0:0:0:0:
448,192,20604,128,0,20899:0:0:0:0:
64,192,20604,1,0,0:0:0:0:
320,192,20899,1,0,0:0:0:0:
64,192,20899,128,0,21343:0:0:0:0:
448,192,21343,1,0,0:0:0:0:
320,192,21416,1,0,0:0:0:0:
192,192,21490,1,0,0:0:0:0:
64,192,21638,1,0,0:0:0:0:
448,192,21786,1,0,0:0:0:0:
320,192,21860,1,0,0:0:0:0:
192,192,21934,1,0,0:0:0:0:
320,192,22008,1,0,0:0:0:0:
64,192,22229,1,0,0:0:0:0:
192,192,22229,1,0,0:0:0:0:
192,192,22525,1,0,0:0:0:0:
320,192,22525,1,0,0:0:0:0:
320,192,22820,1,0,0:0:0:0:
448,192,22820,1,0,0:0:0:0:
64,192,22968,128,0,23264:0:0:0:0:
192,192,22968,1,0,0:0:0:0:
320,192,23264,1,0,0:0:0:0:
320,192,23855,1,0,0:0:0:0:
192,192,24298,1,0,0:0:0:0:
64,192,24594,1,0,0:0:0:0:
192,192,24742,1,0,0:0:0:0:
320,192,25037,1,0,0:0:0:0:
192,192,25628,1,0,0:0:0:0:
320,192,26219,1,0,0:0:0:0:
192,192,26367,1,0,0:0:0:0:
320,192,26515,1,0,0:0:0:0:
448,192,26663,1,0,0:0:0:0:
64,192,26958,1,0,0:0:0:0:
192,192,27106,1,0,0:0:0:0:
320,192,27254,1,0,0:0:0:0:
448,192,27402,1,0,0:0:0:0:
192,192,27993,1,0,0:0:0:0:
320,192,28288,1,0,0:0:0:0:
64,192,28584,1,0,0:0:0:0:
64,192,29175,1,0,0:0:0:0:
448,192,29471,1,0,0:0:0:0:
320,192,29766,1,0,0:0:0:0:
192,192,30062,1,0,0:0:0:0:
64,192,30357,128,0,32131:0:0:0:0:
192,192,32722,1,0,0:0:0:0:
448,192,32722,1,0,0:0:0:0:
192,192,33017,1,0,0:0:0:0:
448,192,33017,1,0,0:0:0:0:
64,192,33313,1,0,0:0:0:0:
320,192,33313,1,0,0:0:0:0:
320,192,33609,1,0,0:0:0:0:
64,192,33609,1,0,0:0:0:0:
448,192,33904,128,0,34200:0:0:0:0:
192,192,33904,1,0,0:0:0:0:
320,192,34200,1,0,0:0:0:0:
64,192,34347,1,0,0:0:0:0:
192,192,34495,1,0,0:0:0:0:
448,192,34495,1,0,0:0:0:0:
320,192,34643,128,0,34791:0:0:0:0:
64,192,34939,1,0,0:0:0:0:
448,192,34939,1,0,0:0:0:0:
192,192,35086,1,0,0:0:0:0:
320,192,35234,1,0,0:0:0:0:
64,192,35382,1,0,0:0:0:0:
192,192,35382,1,0,0:0:0:0:
448,192,35530,1,0,0:0:0:0:
64,192,35678,1,0,0:0:0:0:
192,192,35825,1,0,0:0:0:0:
320,192,35973,1,0,0:0:0:0:
448,192,35973,128,0,36269:0:0:0:0:
64,192,36269,1,0,0:0:0:0:
320,192,36269,1,0,0:0:0:0:
64,192,36564,1,0,0:0:0:0:
192,192,36564,1,0,0:0:0:0:
448,192,36860,1,0,0:0:0:0:
64,192,36860,1,0,0:0:0:0:
192,192,37008,128,0,37155:0:0:0:0:
320,192,37155,1,0,0:0:0:0:
64,192,37303,128,0,37747:0:0:0:0:
448,192,37303,1,0,0:0:0:0:
192,192,37451,1,0,0:0:0:0:
320,192,37599,1,0,0:0:0:0:
192,192,37747,1,0,0:0:0:0:
448,192,37747,1,0,0:0:0:0:
320,192,37894,1,0,0:0:0:0:
64,192,38042,1,0,0:0:0:0:
448,192,38042,1,0,0:0:0:0:
192,192,38190,1,0,0:0:0:0:
320,192,38338,128,0,38633:0:0:0:0:
64,192,38338,1,0,0:0:0:0:
448,192,38633,128,0,38929:0:0:0:0:
192,192,38633,1,0,0:0:0:0:
64,192,38929,1,0,0:0:0:0:
320,192,38929,1,0,0:0:0:0:
192,192,39077,1,0,0:0:0:0:
448,192,39224,1,0,0:0:0:0:
192,192,39372,128,0,39520:0:0:0:0:
448,192,39520,1,0,0:0:0:0:
320,192,39668,128,0,40111:0:0:0:0:
64,192,39668,1,0,0:0:0:0:
192,192,39815,1,0,0:0:0:0:
448,192,39963,1,0,0:0:0:0:
64,192,40111,1,0,0:0:0:0:
192,192,40111,1,0,0:0:0:0:
448,192,40259,1,0,0:0:0:0:
64,192,40407,1,0,0:0:0:0:
320,192,40407,1,0,0:0:0:0:
192,192,40554,1,0,0:0:0:0:
448,192,40702,128,0,40998:0:0:0:0:
64,192,40702,1,0,0:0:0:0:
320,192,40850,1,0,0:0:0:0:
192,192,40998,128,0,42180:0:0:0:0:
64,192,40998,1,0,0:0:0:0:
320,192,41293,1,0,0:0:0:0:
448,192,41293,1,0,0:0:0:0:
320,192,41589,1,0,0:0:0:0:
448,192,41737,1,0,0:0:0:0:
64,192,41884,1,0,0:0:0:0:
320,192,41884,1,0,0:0:0:0:
320,192,42180,1,0,0:0:0:0:
448,192,42180,1,0,0:0:0:0:
64,192,42476,1,0,0:0:0:0:
192,192,42476,1,0,0:0:0:0:
320,192,42771,1,0,0:0:0:0:
192,192,42919,1,0,0:0:0:0:
448,192,43067,1,0,0:0:0:0:
64,192,43067,1,0,0:0:0:0:
320,192,43214,1,0,0:0:0:0:
192,192,43288,1,0,0:0:0:0:
448,192,43362,1,0,0:0:0:0:
64,192,43362,128,0,43953:0:0:0:0:
192,192,43658,1,0,0:0:0:0:
320,192,43658,1,0,0:0:0:0:
448,192,43953,1,0,0:0:0:0:
320,192,44101,1,0,0:0:0:0:
192,192,44249,1,0,0:0:0:0:
64,192,44397,128,0,44840:0:0:0:0:
448,192,44397,1,0,0:0:0:0:
192,192,44545,1,0,0:0:0:0:
320,192,44692,1,0,0:0:0:0:
448,192,44840,1,0,0:0:0:0:
192,192,44840,1,0,0:0:0:0:
320,192,44988,1,0,0:0:0:0:
64,192,45136,1,0,0:0:0:0:
192,192,45136,1,0,0:0:0:0:
320,192,45283,1,0,0:0:0:0:
448,192,45431,128,0,45727:0:0:0:0:
64,192,45431,1,0,0:0:0:0:
192,192,45727,128,0,46318:0:0:0:0:
320,192,45727,1,0,0:0:0:0:
64,192,46022,1,0,0:0:0:0:
448,192,46022,1,0,0:0:0:0:
320,192,46318,1,0,0:0:0:0:
64,192,46466,128,0,46614:0:0:0:0:
320,192,46614,1,0,0:0:0:0:
192,192,46761,128,0,47500:0:0:0:0:
448,192,46761,1,0,0:0:0:0:
320,192,46909,1,0,0:0:0:0:
64,192,47057,1,0,0:0:0:0:
320,192,47205,1,0,0:0:0:0:
448,192,47205,1,0,0:0:0:0:
64,192,47352,1,0,0:0:0:0:
320,192,47500,128,0,47796:0:0:0:0:
448,192,47500,1,0,0:0:0:0:
64,192,47648,1,0,0:0:0:0:
448,192,47796,128,0,48091:0:0:0:0:
192,192,47796,1,0,0:0:0:0:
64,192,48091,128,0,48387:0:0:0:0:
320,192,48091,1,0,0:0:0:0:
320,192,48387,1,0,0:0:0:0:
192,192,48535,1,0,0:0:0:0:
448,192,48535,128,0,49274:0:0:0:0:
320,192,48682,1,0,0:0:0:0:
64,192,48830,1,0,0:0:0:0:
192,192,48978,1,0,0:0:0:0:
320,192,48978,1,0,0:0:0:0:
64,192,49126,1,0,0:0:0:0:
320,192,49274,1,0,0:0:0:0:
192,192,49421,1,0,0:0:0:0:
64,192,49569,1,0,0:0:0:0:
448,192,49569,1,0,0:0:0:0:
192,192,49717,1,0,0:0:0:0:
320,192,49865,1,0,0:0:0:0:
448,192,49865,1,0,0:0:0:0:
192,192,50013,1,0,0:0:0:0:
64,192,50160,128,0,51638:0:0:0:0:
448,192,50160,1,0,0:0:0:0:
320,192,51638,1,0,0:0:0:0:
448,192,51638,1,0,0:0:0:0:
64,192,52081,1,0,0:0:0:0:
192,192,52081,1,0,0:0:0:0:
320,192,52525,1,0,0:0:0:0:
448,192,52525,1,0,0:0:0:0:
320,192,52820,1,0,0:0:0:0:
64,192,52820,128,0,53412:0:0:0:0:
192,192,53116,1,0,0:0:0:0:
448,192,53116,1,0,0:0:0:0:
320,192,53412,1,0,0:0:0:0:
192,192,53559,1,0,0:0:0:0:
64,192,53707,1,0,0:0:0:0:
448,192,53707,1,0,0:0:0:0:
320,192,54003,128,0,54594:0:0:0:0:
64,192,54003,1,0,0:0:0:0:
192,192,54150,1,0,0:0:0:0:
448,192,54298,1,0,0:0:0:0:
64,192,54298,1,0,0:0:0:0:
64,192,54594,1,0,0:0:0:0:
192,192,54742,1,0,0:0:0:0:
448,192,54889,1,0,0:0:0:0:
320,192,54889,1,0,0:0:0:0:
192,192,55185,128,0,55776:0:0:0:0:
448,192,55185,1,0,0:0:0:0:
320,192,55481,1,0,0:0:0:0:
64,192,55481,1,0,0:0:0:0:
448,192,55776,1,0,0:0:0:0:
320,192,55924,1,0,0:0:0:0:
64,192,56072,1,0,0:0:0:0:
192,192,56072,1,0,0:0:0:0:
448,192,56367,128,0,56958:0:0:0:0:
64,192,56367,1,0,0:0:0:0:
192,192,56515,1,0,0:0:0:0:
320,192,56663,1,0,0:0:0:0:
64,192,56663,1,0,0:0:0:0:
192,192,56958,1,0,0:0:0:0:
320,192,57106,1,0,0:0:0:0:
64,192,57254,1,0,0:0:0:0:
192,192,57254,1,0,0:0:0:0:
448,192,57402,1,0,0:0:0:0:
192,192,57549,128,0,58141:0:0:0:0:
64,192,57549,1,0,0:0:0:0:
320,192,57845,1,0,0:0:0:0:
448,192,57845,1,0,0:0:0:0:
64,192,58141,1,0,0:0:0:0:
320,192,58288,1,0,0:0:0:0:
448,192,58436,1,0,0:0:0:0:
192,192,58436,1,0,0:0:0:0:
64,192,58732,128,0,59323:0:0:0:0:
320,192,58732,1,0,0:0:0:0:
192,192,58880,1,0,0:0:0:0:
448,192,59027,1,0,0:0:0:0:
320,192,59027,1,0,0:0:0:0:
448,192,59323,1,0,0:0:0:0:
192,192,59471,1,0,0:0:0:0:
64,192,59618,1,0,0:0:0:0:
320,192,59618,1,0,0:0:0:0:
448,192,59766,1,0,0:0:0:0:
64,192,59914,1,0,0:0:0:0:
192,192,59914,128,0,60357:0:0:0:0:
448,192,60357,128,0,60801:0:0:0:0:
320,192,60357,1,0,0:0:0:0:
320,192,60801,128,0,61244:0:0:0:0:
64,192,60801,1,0,0:0:0:0:
64,192,61244,128,0,61687:0:0:0:0:
448,192,61244,1,0,0:0:0:0:
448,192,61687,128,0,61983:0:0:0:0:
320,192,61687,1,0,0:0:0:0:
192,192,61983,128,0,62279:0:0:0:0:
64,192,61983,1,0,0:0:0:0:
320,192,62279,128,0,62870:0:0:0:0:
448,192,62279,1,0,0:0:0:0:
64,192,62574,1,0,0:0:0:0:
192,192,62574,1,0,0:0:0:0:
448,192,62870,1,0,0:0:0:0:
192,192,63017,1,0,0:0:0:0:
64,192,63165,1,0,0:0:0:0:
320,192,63165,1,0,0:0:0:0:
64,192,63461,128,0,64052:0:0:0:0:
448,192,63461,1,0,0:0:0:0:
192,192,63756,1,0,0:0:0:0:
320,192,63756,1,0,0:0:0:0:
448,192,64052,1,0,0:0:0:0:
192,192,64200,1,0,0:0:0:0:
320,192,64347,1,0,0:0:0:0:
64,192,64347,1,0,0:0:0:0:
448,192,64643,128,0,65234:0:0:0:0:
192,192,64643,1,0,0:0:0:0:
320,192,64939,1,0,0:0:0:0:
64,192,64939,1,0,0:0:0:0:
192,192,65234,1,0,0:0:0:0:
320,192,65382,1,0,0:0:0:0:
448,192,65530,1,0,0:0:0:0:
64,192,65530,1,0,0:0:0:0:
192,192,65825,128,0,66416:0:0:0:0:
448,192,65825,1,0,0:0:0:0:
320,192,65973,1,0,0:0:0:0:
64,192,66121,1,0,0:0:0:0:
448,192,66121,1,0,0:0:0:0:
448,192,66416,1,0,0:0:0:0:
320,192,66564,1,0,0:0:0:0:
64,192,66712,1,0,0:0:0:0:
192,192,66712,1,0,0:0:0:0:
448,192,67008,128,0,67599:0:0:0:0:
64,192,67008,1,0,0:0:0:0:
320,192,67303,1,0,0:0:0:0:
192,192,67451,1,0,0:0:0:0:
64,192,67599,1,0,0:0:0:0:
320,192,67599,1,0,0:0:0:0:
192,192,67894,1,0,0:0:0:0:
320,192,68042,1,0,0:0:0:0:
64,192,68190,1,0,0:0:0:0:
192,192,68190,1,0,0:0:0:0:
448,192,68338,1,0,0:0:0:0:
64,192,68485,1,0,0:0:0:0:
320,192,68485,1,0,0:0:0:0:
192,192,68633,1,0,0:0:0:0:
448,192,68781,1,0,0:0:0:0:
64,192,68781,1,0,0:0:0:0:
320,192,68929,1,0,0:0:0:0:
192,192,69077,1,0,0:0:0:0:
64,192,69077,1,0,0:0:0:0:
448,192,69224,1,0,0:0:0:0:
192,192,69372,128,0,69963:0:0:0:0:
64,192,69372,1,0,0:0:0:0:
448,192,69668,1,0,0:0:0:0:
320,192,69815,1,0,0:0:0:0:
64,192,69963,1,0,0:0:0:0:
448,192,69963,1,0,0:0:0:0:
320,192,70259,1,0,0:0:0:0:
64,192,70407,1,0,0:0:0:0:
192,192,70554,1,0,0:0:0:0:
448,192,70554,1,0,0:0:0:0:
320,192,70850,1,0,0:0:0:0:
64,192,71146,1,0,0:0:0:0:
448,192,71146,1,0,0:0:0:0:
192,192,71441,1,0,0:0:0:0:
320,192,71737,1,0,0:0:0:0:
448,192,71737,1,0,0:0:0:0:
64,192,72180,1,0,0:0:0:0:
320,192,72180,1,0,0:0:0:0:
192,192,72623,1,0,0:0:0:0:
448,192,72623,1,0,0:0:0:0:
320,192,73067,1,0,0:0:0:0:
64,192,73214,1,0,0:0:0:0:
192,192,73214,1,0,0:0:0:0:
192,192,73510,1,0,0:0:0:0:
448,192,73510,1,0,0:0:0:0:
320,192,73806,1,0,0:0:0:0:
64,192,73806,1,0,0:0:0:0:
192,192,74101,1,0,0:0:0:0:
448,192,74101,1,0,0:0:0:0:
320,192,74249,1,0,0:0:0:0:
192,192,74397,1,0,0:0:0:0:
64,192,74545,1,0,0:0:0:0:
320,192,74545,1,0,0:0:0:0:
448,192,74692,1,0,0:0:0:0:
192,192,74840,1,0,0:0:0:0:
64,192,74988,1,0,0:0:0:0:
448,192,74988,1,0,0:0:0:0:
320,192,75136,1,0,0:0:0:0:
64,192,75283,1,0,0:0:0:0:
192,192,75431,1,0,0:0:0:0:
320,192,75579,1,0,0:0:0:0:
448,192,75579,1,0,0:0:0:0:
192,192,75727,1,0,0:0:0:0:
64,192,75875,1,0,0:0:0:0:
448,192,75875,1,0,0:0:0:0:
320,192,76022,1,0,0:0:0:0:
192,192,76170,128,0,76466:0:0:0:0:
448,192,76170,1,0,0:0:0:0:
64,192,76318,1,0,0:0:0:0:
448,192,76466,1,0,0:0:0:0:
320,192,76540,1,0,0:0:0:0:
192,192,76614,1,0,0:0:0:0:
64,192,76687,1,0,0:0:0:0:
192,192,76761,1,0,0:0:0:0:
448,192,76761,1,0,0:0:0:0:
320,192,76835,1,0,0:0:0:0:
192,192,76909,1,0,0:0:0:0:
64,192,76983,1,0,0:0:0:0:
320,192,77057,1,0,0:0:0:0:
448,192,77057,1,0,0:0:0:0:
192,192,77131,1,0,0:0:0:0:
320,192,77205,1,0,0:0:0:0:
448,192,77279,1,0,0:0:0:0:
64,192,77352,1,0,0:0:0:0:
320,192,77352,1,0,0:0:0:0:
192,192,77426,1,0,0:0:0:0:
320,192,77500,1,0,0:0:0:0:
448,192,77574,1,0,0:0:0:0:
64,192,77648,1,0,0:0:0:0:
192,192,77648,1,0,0:0:0:0:
320,192,77722,1,0,0:0:0:0:
192,192,77796,1,0,0:0:0:0:
64,192,77870,1,0,0:0:0:0:
448,192,77944,1,0,0:0:0:0:
192,192,77944,1,0,0:0:0:0:
320,192,78017,1,0,0:0:0:0:
192,192,78091,1,0,0:0:0:0:
64,192,78165,1,0,0:0:0:0:
448,192,78239,1,0,0:0:0:0:
320,192,78239,1,0,0:0:0:0:
192,192,78387,1,0,0:0:0:0:
64,192,78387,1,0,0:0:0:0:
448,192,78535,1,0,0:0:0:0:
320,192,78535,1,0,0:0:0:0:
192,192,78682,1,0,0:0:0:0:
64,192,78682,1,0,0:0:0:0:
320,192,78830,1,0,0:0:0:0:
448,192,78830,128,0,79421:0:0:0:0:
64,192,79126,1,0,0:0:0:0:
192,192,79126,1,0,0:0:0:0:
64,192,79421,1,0,0:0:0:0:
192,192,79568,1,0,0:0:0:0:
448,192,79716,1,0,0:0:0:0:
320,192,79716,128,0,80012:0:0:0:0:
192,192,80012,1,0,0:0:0:0:
64,192,80307,1,0,0:0:0:0:
448,192,80307,128,0,80603:0:0:0:0:
320,192,80603,1,0,0:0:0:0:
192,192,80751,1,0,0:0:0:0:
64,192,80898,128,0,81194:0:0:0:0:
448,192,80898,1,0,0:0:0:0:
192,192,81194,1,0,0:0:0:0:
448,192,81194,128,0,82376:0:0:0:0:
320,192,81490,1,0,0:0:0:0:
192,192,81490,1,0,0:0:0:0:
64,192,81785,1,0,0:0:0:0:
192,192,81933,1,0,0:0:0:0:
320,192,82081,1,0,0:0:0:0:
64,192,82081,1,0,0:0:0:0:
64,192,82376,1,0,0:0:0:0:
192,192,82377,128,0,82968:0:0:0:0:
320,192,82524,1,0,0:0:0:0:
64,192,82673,1,0,0:0:0:0:
448,192,82673,1,0,0:0:0:0:
320,192,82968,1,0,0:0:0:0:
448,192,82968,128,0,83560:0:0:0:0:
64,192,83116,1,0,0:0:0:0:
320,192,83264,1,0,0:0:0:0:
192,192,83264,1,0,0:0:0:0:
64,192,83560,1,0,0:0:0:0:
320,192,83560,1,0,0:0:0:0:
448,192,83855,1,0,0:0:0:0:
64,192,83855,128,0,84151:0:0:0:0:
320,192,84151,1,0,0:0:0:0:
192,192,84298,1,0,0:0:0:0:
320,192,84446,1,0,0:0:0:0:
64,192,84446,128,0,84742:0:0:0:0:
192,192,84742,1,0,0:0:0:0:
448,192,84889,1,0,0:0:0:0:
64,192,85037,1,0,0:0:0:0:
320,192,85037,128,0,85333:0:0:0:0:
448,192,85333,1,0,0:0:0:0:
192,192,85481,1,0,0:0:0:0:
448,192,85628,1,0,0:0:0:0:
64,192,85629,128,0,85924:0:0:0:0:
320,192,85776,1,0,0:0:0:0:
192,192,85924,1,0,0:0:0:0:
448,192,85924,1,0,0:0:0:0:
320,192,86367,1,0,0:0:0:0:
192,192,86441,1,0,0:0:0:0:
64,192,86515,1,0,0:0:0:0:
448,192,86663,1,0,0:0:0:0:
320,192,86811,1,0,0:0:0:0:
192,192,86884,1,0,0:0:0:0:
64,192,86958,1,0,0:0:0:0:
192,192,87032,1,0,0:0:0:0:
320,192,87254,1,0,0:0:0:0:
448,192,87254,1,0,0:0:0:0:
192,192,87549,1,0,0:0:0:0:
448,192,87549,1,0,0:0:0:0:
64,192,87845,1,0,0:0:0:0:
192,192,87845,1,0,0:0:0:0:
64,192,88141,1,0,0:0:0:0:
320,192,88141,1,0,0:0:0:0:
320,192,88436,1,0,0:0:0:0:
448,192,88436,1,0,0:0:0:0:
320,192,88732,1,0,0:0:0:0:
192,192,88732,1,0,0:0:0:0:
192,192,89027,1,0,0:0:0:0:
64,192,89027,1,0,0:0:0:0:
64,192,89323,1,0,0:0:0:0:
448,192,89323,1,0,0:0:0:0:
