osu file format v13

[General]
AudioFilename: Trinity Seven 7OP _ Opening - Seven Doors .mp3
AudioLeadIn: 0
PreviewTime: 52229
Countdown: 0
SampleSet: Soft
StackLeniency: 0.7
Mode: 3
LetterboxInBreaks: 0
SpecialStyle: 0
WidescreenStoryboard: 1

[Editor]
DistanceSpacing: 0.5
BeatDivisor: 2
GridSize: 4
TimelineZoom: 1.5

[Metadata]
Title:Seven Doors (TV Size)
TitleUnicode:Seven Doors (TV Size)
Artist:ZAQ
ArtistUnicode:ZAQ
Creator:Pikobaka
Version:EZ
Source:トリニティセブン 7人の魔書使い
Tags:Trinity_Seven Opening [_S_a_k_u_r_a_]
BeatmapID:522697
BeatmapSetID:223664

[Difficulty]
HPDrainRate:7
CircleSize:4
OverallDifficulty:8
ApproachRate:5
SliderMultiplier:1.4
SliderTickRate:1

[Events]
//Background and Video events
0,0,"BG.jpg",0,0
//Break Periods
//Storyboard Layer 0 (Background)
//Storyboard Layer 1 (Fail)
//Storyboard Layer 2 (Pass)
//Storyboard Layer 3 (Foreground)
//Storyboard Sound Samples
//Background Colour Transformations
3,100,163,162,255

[TimingPoints]
4348,295.566502463054,4,2,0,40,1,0
4348,-100,4,2,0,40,0,1
4421,-100,4,2,0,40,0,0
9077,-100,4,2,0,40,0,0
13806,-100,4,2,0,40,0,0
18535,-100,4,2,0,40,0,0
23264,-133.333333333333,4,2,0,40,0,0
30357,-200,4,2,0,40,0,0
32722,-100,4,2,0,40,0,0
33904,-100,4,2,0,40,0,0
52820,-100,4,2,0,40,0,1
62279,-100,4,2,0,40,0,1
71737,-100,4,2,0,40,0,0

[HitObjects]
64,192,4348,5,0,0:0:0:0:
448,192,4348,1,0,0:0:0:0:
320,192,4643,1,0,0:0:0:0:
64,192,4939,1,0,0:0:0:0:
320,192,5234,1,0,0:0:0:0:
448,192,5530,1,0,0:0:0:0:
192,192,5825,1,0,0:0:0:0:
448,192,6121,1,0,0:0:0:0:
192,192,6416,1,0,0:0:0:0:
64,192,6712,1,0,0:0:0:0:
192,192,7008,1,0,0:0:0:0:
448,192,7303,1,0,0:0:0:0:
320,192,7599,1,0,0:0:0:0:
64,192,7894,1,0,0:0:0:0:
448,192,8190,1,0,0:0:0:0:
320,192,8485,1,0,0:0:0:0:
64,192,8781,1,0,0:0:0:0:
192,192,8929,1,0,0:0:0:0:
320,192,9077,1,0,0:0:0:0:
448,192,9077,1,0,0:0:0:0:
192,192,9372,1,0,0:0:0:0:
448,192,9668,1,0,0:0:0:0:
192,192,9963,1,0,0:0:0:0:
448,192,10259,1,0,0:0:0:0:
320,192,10554,1,0,0:0:0:0:
64,192,10850,1,0,0:0:0:0:
192,192,11146,1,0,0:0:0:0:
448,192,11441,1,0,0:0:0:0:
64,192,11884,1,0,0:0:0:0:
320,192,12328,1,0,0:0:0:0:
192,192,12771,1,0,0:0:0:0:
448,192,13214,1,0,0:0:0:0:
64,192,13510,1,0,0:0:0:0:
320,192,13806,1,0,0:0:0:0:
448,192,13806,1,0,0:0:0:0:
192,192,14101,1,0,0:0:0:0:
64,192,14397,1,0,0:0:0:0:
320,192,14692,1,0,0:0:0:0:
448,192,14988,1,0,0:0:0:0:
64,192,15283,1,0,0:0:0:0:
320,192,15579,1,0,0:0:0:0:
192,192,15875,1,0,0:0:0:0:
448,192,16170,1,0,0:0:0:0:
320,192,16466,1,0,0:0:0:0:
192,192,16761,1,0,0:0:0:0:
64,192,17057,1,0,0:0:0:0:
320,192,17352,1,0,0:0:0:0:
64,192,17648,1,0,0:0:0:0:
448,192,17944,1,0,0:0:0:0:
320,192,18239,1,0,0:0:0:0:
448,192,18387,1,0,0:0:0:0:
64,192,18535,1,0,0:0:0:0:
192,192,18535,1,0,0:0:0:0:
448,192,18830,1,0,0:0:0:0:
192,192,19126,1,0,0:0:0:0:
64,192,19421,1,0,0:0:0:0:
320,192,19717,1,0,0:0:0:0:
192,192,20013,1,0,0:0:0:0:
320,192,20308,1,0,0:0:0:0:
448,192,20604,1,0,0:0:0:0:
64,192,20899,1,0,0:0:0:0:
320,192,20899,1,0,0:0:0:0:
448,192,22229,1,0,0:0:0:0:
64,192,22525,1,0,0:0:0:0:
448,192,22820,1,0,0:0:0:0:
64,192,22968,128,0,23264:0:0:0:0:
320,192,23264,1,0,0:0:0:0:
192,192,23855,1,0,0:0:0:0:
64,192,24298,1,0,0:0:0:0:
320,192,24742,1,0,0:0:0:0:
192,192,25037,1,0,0:0:0:0:
320,192,25628,1,0,0:0:0:0:
64,192,26219,1,0,0:0:0:0:
192,192,26367,1,0,0:0:0:0:
320,192,26515,1,0,0:0:0:0:
448,192,26663,1,0,0:0:0:0:
192,192,26958,1,0,0:0:0:0:
64,192,27106,1,0,0:0:0:0:
192,192,27254,1,0,0:0:0:0:
320,192,27402,1,0,0:0:0:0:
448,192,27993,1,0,0:0:0:0:
192,192,28584,1,0,0:0:0:0:
320,192,29175,1,0,0:0:0:0:
448,192,29471,1,0,0:0:0:0:
320,192,29766,1,0,0:0:0:0:
192,192,30062,1,0,0:0:0:0:
64,192,30357,128,0,32722:0:0:0:0:
448,192,32722,1,0,0:0:0:0:
64,192,33017,1,0,0:0:0:0:
320,192,33313,1,0,0:0:0:0:
192,192,33609,1,0,0:0:0:0:
448,192,33904,1,0,0:0:0:0:
320,192,33904,1,0,0:0:0:0:
192,192,34200,1,0,0:0:0:0:
448,192,34495,1,0,0:0:0:0:
64,192,34791,1,0,0:0:0:0:
320,192,35086,1,0,0:0:0:0:
448,192,35382,1,0,0:0:0:0:
64,192,35678,1,0,0:0:0:0:
320,192,35973,1,0,0:0:0:0:
192,192,36269,1,0,0:0:0:0:
448,192,36564,1,0,0:0:0:0:
320,192,36860,1,0,0:0:0:0:
64,192,37155,1,0,0:0:0:0:
320,192,37451,1,0,0:0:0:0:
64,192,37747,1,0,0:0:0:0:
448,192,38042,1,0,0:0:0:0:
192,192,38338,1,0,0:0:0:0:
448,192,38633,1,0,0:0:0:0:
320,192,38929,1,0,0:0:0:0:
64,192,39224,1,0,0:0:0:0:
192,192,39520,1,0,0:0:0:0:
448,192,39815,1,0,0:0:0:0:
192,192,40111,1,0,0:0:0:0:
448,192,40407,1,0,0:0:0:0:
64,192,40702,1,0,0:0:0:0:
448,192,40998,1,0,0:0:0:0:
192,192,41293,1,0,0:0:0:0:
448,192,41589,1,0,0:0:0:0:
192,192,41884,1,0,0:0:0:0:
64,192,42180,1,0,0:0:0:0:
320,192,42476,1,0,0:0:0:0:
64,192,42771,1,0,0:0:0:0:
320,192,43067,1,0,0:0:0:0:
192,192,43214,1,0,0:0:0:0:
64,192,43362,1,0,0:0:0:0:
448,192,43362,1,0,0:0:0:0:
320,192,43658,1,0,0:0:0:0:
192,192,43953,1,0,0:0:0:0:
448,192,44249,1,0,0:0:0:0:
64,192,44545,1,0,0:0:0:0:
320,192,44840,1,0,0:0:0:0:
192,192,45136,1,0,0:0:0:0:
448,192,45431,1,0,0:0:0:0:
64,192,45727,1,0,0:0:0:0:
192,192,46022,1,0,0:0:0:0:
448,192,46318,1,0,0:0:0:0:
320,192,46614,1,0,0:0:0:0:
64,192,46909,1,0,0:0:0:0:
320,192,47205,1,0,0:0:0:0:
448,192,47500,1,0,0:0:0:0:
192,192,47796,1,0,0:0:0:0:
320,192,48091,1,0,0:0:0:0:
64,192,48387,1,0,0:0:0:0:
448,192,48682,1,0,0:0:0:0:
192,192,48978,1,0,0:0:0:0:
448,192,49274,128,0,49717:0:0:0:0:
192,192,49717,128,0,50160:0:0:0:0:
320,192,50160,128,0,51638:0:0:0:0:
448,192,50160,1,0,0:0:0:0:
64,192,51638,1,0,0:0:0:0:
448,192,52081,1,0,0:0:0:0:
64,192,52525,1,0,0:0:0:0:
320,192,52820,1,0,0:0:0:0:
448,192,52820,1,0,0:0:0:0:
64,192,53116,1,0,0:0:0:0:
192,192,53412,1,0,0:0:0:0:
448,192,53707,1,0,0:0:0:0:
192,192,54003,1,0,0:0:0:0:
64,192,54298,1,0,0:0:0:0:
320,192,54594,1,0,0:0:0:0:
192,192,54889,1,0,0:0:0:0:
448,192,55185,1,0,0:0:0:0:
64,192,55481,1,0,0:0:0:0:
192,192,55776,1,0,0:0:0:0:
448,192,56072,1,0,0:0:0:0:
64,192,56367,1,0,0:0:0:0:
448,192,56663,1,0,0:0:0:0:
320,192,56958,1,0,0:0:0:0:
64,192,57106,1,0,0:0:0:0:
448,192,57254,1,0,0:0:0:0:
192,192,57402,1,0,0:0:0:0:
320,192,57549,1,0,0:0:0:0:
64,192,57549,1,0,0:0:0:0:
448,192,57845,1,0,0:0:0:0:
64,192,58141,1,0,0:0:0:0:
320,192,58436,1,0,0:0:0:0:
192,192,58732,1,0,0:0:0:0:
64,192,59027,1,0,0:0:0:0:
320,192,59323,1,0,0:0:0:0:
448,192,59618,1,0,0:0:0:0:
64,192,59914,1,0,0:0:0:0:
192,192,60357,1,0,0:0:0:0:
448,192,60801,1,0,0:0:0:0:
320,192,61244,1,0,0:0:0:0:
64,192,61687,1,0,0:0:0:0:
448,192,61983,1,0,0:0:0:0:
64,192,62279,1,0,0:0:0:0:
320,192,62279,1,0,0:0:0:0:
448,192,62574,1,0,0:0:0:0:
320,192,62870,1,0,0:0:0:0:
64,192,63165,1,0,0:0:0:0:
320,192,63461,1,0,0:0:0:0:
64,192,63756,1,0,0:0:0:0:
192,192,64052,1,0,0:0:0:0:
448,192,64347,1,0,0:0:0:0:
192,192,64643,1,0,0:0:0:0:
448,192,64939,1,0,0:0:0:0:
320,192,65234,1,0,0:0:0:0:
64,192,65530,1,0,0:0:0:0:
448,192,65825,1,0,0:0:0:0:
64,192,66121,1,0,0:0:0:0:
192,192,66416,1,0,0:0:0:0:
448,192,66712,1,0,0:0:0:0:
64,192,67008,1,0,0:0:0:0:
192,192,67008,1,0,0:0:0:0:
448,192,67599,1,0,0:0:0:0:
64,192,68190,1,0,0:0:0:0:
320,192,68190,1,0,0:0:0:0:
192,192,68781,1,0,0:0:0:0:
448,192,69372,1,0,0:0:0:0:
64,192,69372,1,0,0:0:0:0:
192,192,69963,1,0,0:0:0:0:
320,192,70554,1,0,0:0:0:0:
64,192,70554,1,0,0:0:0:0:
192,192,71146,1,0,0:0:0:0:
64,192,71737,1,0,0:0:0:0:
448,192,71737,1,0,0:0:0:0:
448,192,72180,1,0,0:0:0:0:
64,192,72623,1,0,0:0:0:0:
448,192,73214,1,0,0:0:0:0:
192,192,73510,1,0,0:0:0:0:
64,192,73806,1,0,0:0:0:0:
320,192,74101,1,0,0:0:0:0:
448,192,74101,1,0,0:0:0:0:
192,192,74545,1,0,0:0:0:0:
64,192,74988,1,0,0:0:0:0:
448,192,74988,1,0,0:0:0:0:
64,192,75579,1,0,0:0:0:0:
448,192,75579,1,0,0:0:0:0:
320,192,75727,1,0,0:0:0:0:
64,192,75875,1,0,0:0:0:0:
192,192,76022,1,0,0:0:0:0:
320,192,76170,1,0,0:0:0:0:
448,192,76466,1,0,0:0:0:0:
192,192,76466,1,0,0:0:0:0:
320,192,76761,1,0,0:0:0:0:
64,192,77057,1,0,0:0:0:0:
320,192,77057,1,0,0:0:0:0:
192,192,77352,1,0,0:0:0:0:
320,192,77648,1,0,0:0:0:0:
448,192,77648,1,0,0:0:0:0:
64,192,77944,1,0,0:0:0:0:
448,192,78239,1,0,0:0:0:0:
320,192,78387,1,0,0:0:0:0:
192,192,78535,1,0,0:0:0:0:
64,192,78682,1,0,0:0:0:0:
320,192,78830,1,0,0:0:0:0:
448,192,78830,1,0,0:0:0:0:
192,192,79126,1,0,0:0:0:0:
448,192,79421,1,0,0:0:0:0:
320,192,79717,1,0,0:0:0:0:
64,192,80013,1,0,0:0:0:0:
320,192,80308,1,0,0:0:0:0:
64,192,80604,1,0,0:0:0:0:
448,192,80899,1,0,0:0:0:0:
192,192,81195,1,0,0:0:0:0:
448,192,81490,1,0,0:0:0:0:
192,192,81786,1,0,0:0:0:0:
320,192,82081,1,0,0:0:0:0:
64,192,82377,1,0,0:0:0:0:
448,192,82673,1,0,0:0:0:0:
192,192,82968,1,0,0:0:0:0:
448,192,83264,1,0,0:0:0:0:
320,192,83412,1,0,0:0:0:0:
64,192,83559,1,0,0:0:0:0:
192,192,83559,1,0,0:0:0:0:
448,192,83855,1,0,0:0:0:0:
192,192,84150,1,0,0:0:0:0:
448,192,84446,1,0,0:0:0:0:
64,192,84742,1,0,0:0:0:0:
320,192,85037,1,0,0:0:0:0:
64,192,85333,1,0,0:0:0:0:
448,192,85628,1,0,0:0:0:0:
64,192,85924,1,0,0:0:0:0:
192,192,85924,1,0,0:0:0:0:
320,192,87254,1,0,0:0:0:0:
448,192,87254,1,0,0:0:0:0:
192,192,87549,1,0,0:0:0:0:
64,192,87845,1,0,0:0:0:0:
448,192,87845,1,0,0:0:0:0:
320,192,88141,1,0,0:0:0:0:
192,192,88436,1,0,0:0:0:0:
64,192,88436,1,0,0:0:0:0:
448,192,88732,1,0,0:0:0:0:
192,192,89027,1,0,0:0:0:0:
320,192,89027,1,0,0:0:0:0:
64,192,89323,1,0,0:0:0:0:
448,192,89323,1,0,0:0:0:0:
