osu file format v14

[General]
AudioFilename: Trinity Seven 7OP _ Opening - Seven Doors .mp3
AudioLeadIn: 0
PreviewTime: 52525
Countdown: 0
SampleSet: Normal
StackLeniency: 0.7
Mode: 0
LetterboxInBreaks: 0
WidescreenStoryboard: 0

[Editor]
DistanceSpacing: 1.3
BeatDivisor: 4
GridSize: 4
TimelineZoom: 1

[Metadata]
Title:Seven Doors
TitleUnicode:Seven Doors
Artist:ZAQ
ArtistUnicode:ZAQ
Creator:Boommer35
Version:Normal
Source:トリニティセブン
Tags:7人の魔書使い Trinity Seven: 7-nin no Masho Tsukai fantasy romantic comedy anime opening op shonen 2014 tv size
BeatmapID:516569
BeatmapSetID:220735

[Difficulty]
HPDrainRate:5
CircleSize:3
OverallDifficulty:5
ApproachRate:5
SliderMultiplier:0.700000005960464
SliderTickRate:1

[Events]
//Background and Video events
0,0,"bg.jpg",0,0
Video,24,"Trinity Seven Vid.avi"
//Break Periods
2,23464,31522
//Storyboard Layer 0 (Background)
//Storyboard Layer 1 (Fail)
//Storyboard Layer 2 (Pass)
//Storyboard Layer 3 (Foreground)
//Storyboard Sound Samples

[TimingPoints]
801,295.566502463054,4,1,2,100,1,0
20899,-100,4,1,2,75,0,0
22229,-100,4,1,2,100,0,0
32722,-100,4,1,2,40,0,0
33904,-100,4,1,2,70,0,0
42180,-100,4,1,2,95,0,0
42771,-100,4,1,2,80,0,0
43362,-100,4,1,2,100,0,0
44249,-100,4,1,2,80,0,0
52820,-100,4,1,2,100,0,1
59914,-100,4,1,2,90,0,1
60357,-100,4,1,2,80,0,1
60801,-100,4,1,2,70,0,1
61687,-100,4,1,2,80,0,1
61983,-100,4,1,2,90,0,1
62279,-100,4,1,2,100,0,1
76761,-100,4,1,2,100,0,1
77352,-100,4,1,2,85,0,1
78239,-100,4,1,2,85,0,0
78830,-100,4,1,2,100,0,1
85924,-100,4,1,2,100,0,1
86071,-100,4,1,2,45,0,1
87241,295.566502463054,4,1,2,100,1,1
87254,-100,4,1,2,100,0,1
89309,-100,4,1,2,100,0,0

[Colours]
Combo1 : 255,128,64
Combo2 : 0,0,255
Combo3 : 0,128,128
Combo4 : 255,0,0

[HitObjects]
256,192,1983,12,0,3609,0:0:0:0:
152,256,4348,5,0,0:0:0:0:
228,208,4643,2,0,B|244:192|244:192|268:192|268:192|284:176,1,70.0000005960464,8|0,0:0|0:0,0:0:0:0:
368,216,5234,1,8,0:0:0:0:
392,128,5530,1,0,0:0:0:0:
324,68,5825,1,8,0:0:0:0:
232,80,6121,2,0,L|192:80,2,35.0000002980232,0|0|8,0:0|0:0|0:0,0:0:0:0:
296,148,6712,6,0,P|328:164|344:196,1,70.0000005960464,0|8,0:0|0:0,0:0:0:0:
336,284,7303,2,0,P|319:314|288:329,1,70.0000005960464,0|8,0:0|0:0,0:0:0:0:
200,312,7894,2,0,P|168:296|152:264,1,70.0000005960464,0|8,0:0|0:0,0:0:0:0:
148,176,8485,2,0,P|164:145|195:130,1,70.0000005960464,0|8,0:0|0:0,0:0:0:0:
285,130,9077,6,0,L|348:160,1,70.0000005960464,4|8,0:0|0:0,0:0:0:0:
428,204,9667,1,0,0:0:0:0:
428,296,9963,1,0,0:0:0:0:
344,256,10259,2,0,B|272:224,1,70.0000005960464,0|8,0:0|0:0,0:0:0:0:
216,292,10850,1,0,0:0:0:0:
216,292,11145,1,0,0:0:0:0:
132,252,11441,6,0,P|124:212|132:180,1,70.0000005960464,8|0,0:0|0:0,0:0:0:0:
148,140,11884,2,0,P|172:116|212:108,1,70.0000005960464,8|0,0:0|0:0,0:0:0:0:
252,104,12328,2,0,P|284:112|316:144,1,70.0000005960464,8|0,0:0|0:0,0:0:0:0:
332,176,12771,1,8,0:0:0:0:
196,200,13214,1,8,0:0:0:0:
196,200,13510,1,8,0:0:0:0:
272,256,13806,6,0,B|292:256|292:256|316:272|316:272|344:272,2,70.0000005960464,4|8|0,0:0|0:0|0:0,0:0:0:0:
208,320,14692,1,8,0:0:0:0:
128,272,14988,2,0,B|104:248|104:248|104:208,1,70.0000005960464,0|8,0:0|0:0,0:0:0:0:
144,128,15579,1,0,0:0:0:0:
144,128,15875,1,8,0:0:0:0:
80,64,16170,6,0,P|108:44|144:36,1,70.0000005960464,0|8,0:0|0:0,0:0:0:0:
232,40,16761,2,0,P|268:48|296:72,1,70.0000005960464,0|8,0:0|0:0,0:0:0:0:
352,140,17352,2,0,P|376:164|384:204,1,70.0000005960464,0|8,0:0|0:0,0:0:0:0:
376,288,17944,2,0,L|324:336,1,70.0000005960464,0|8,0:0|0:0,0:0:0:0:
233,335,18535,6,0,B|204:320|204:320|196:248|196:248|164:232,1,140.000001192093,4|0,0:0|0:0,0:0:0:0:
100,168,19421,1,8,0:0:0:0:
164,103,19717,2,0,B|180:71|180:71|252:63|252:63|268:31,1,140.000001192093
357,34,20604,1,8,0:0:0:0:
444,60,20899,6,0,B|500:92|508:236|428:288|344:288,1,315.000002682209,2|0,2:0|2:0,2:0:0:0:
260,284,22525,1,0,2:0:0:0:
172,272,22820,1,0,2:0:0:0:
80,172,23264,1,0,2:2:0:0:
112,96,32722,6,0,L|184:96,1,70.0000005960464
273,96,33313,2,0,P|267:137|252:160,1,70.0000005960464
183,220,33904,5,4,0:0:0:0:
146,351,34348,1,8,0:0:0:0:
236,352,34643,2,0,P|276:344|292:312,1,70.0000005960464,0|8,0:0|0:0,0:0:0:0:
349,197,35382,2,0,L|389:197,2,35.0000002980232,8|0|0,0:0|0:0|0:0,0:0:0:0:
275,143,35973,1,8,0:0:0:0:
184,141,36268,6,0,B|144:149|144:149|120:165,1,70.0000005960464,0|8,0:0|0:0,0:0:0:0:
64,236,36860,2,0,B|64:280|64:280|84:304,1,70.0000005960464
116,328,37303,1,8,0:0:0:0:
328,316,38042,1,0,0:0:0:0:
328,316,38337,1,8,0:0:0:0:
328,316,38633,6,0,P|327:269|308:212,1,105.00000089407,2|8,0:0|0:0,0:0:0:0:
264,136,39372,2,0,P|228:96|180:72,1,105.00000089407,0|8,0:0|0:0,0:0:0:0:
92,60,40111,2,0,P|52:60|20:68,2,70.0000005960464,0|8|0,0:0|0:0|0:0,0:0:0:0:
136,140,40998,6,0,B|156:176,2,35.0000002980232,4|0|0,0:0|0:0|0:0,0:0:0:0:
92,220,41589,2,0,P|116:256|140:272,1,70.0000005960464,0|8,0:0|0:0,0:0:0:0:
220,312,42180,2,0,L|220:356,2,35.0000002980232,0|0|8,0:0|0:0|0:0,0:0:0:0:
260,232,42771,2,0,L|184:216,1,70.0000005960464,4|8,1:1|0:0,0:0:0:0:
104,216,43362,6,0,P|120:164|160:136,1,105.00000089407,4|8,1:1|0:0,0:0:0:0:
248,116,44101,1,0,0:0:0:0:
332,152,44397,2,0,P|382:164|429:143,1,105.00000089407,8|8,1:1|0:0,0:0:0:0:
416,52,45135,1,0,0:0:0:0:
416,52,45431,1,8,0:0:0:0:
328,24,45727,6,0,P|288:20|256:28,1,70.0000005960464,0|8,0:0|0:0,0:0:0:0:
216,44,46170,1,0,0:0:0:0:
156,112,46466,1,8,0:0:0:0:
148,192,46761,2,0,P|160:240|208:256,1,105.00000089407,0|8,0:0|0:0,0:0:0:0:
296,232,47500,1,0,0:0:0:0:
296,232,47796,1,8,0:0:0:0:
236,164,48091,6,0,B|244:132|244:132|300:92|300:92|308:52,1,140.000001192093
400,56,48978,1,8,0:0:0:0:
376,144,49273,2,0,B|384:176|384:176|440:216|440:216|448:256,1,140.000001192093
256,192,50160,12,0,51638,0:0:0:0:
88,48,52820,6,0,L|160:48,1,70.0000005960464,6|8,0:0|0:0,0:0:0:0:
220,112,53412,2,0,L|260:112,2,35.0000002980232,2|2|8,0:0|0:0|0:0,0:0:0:0:
156,176,54003,1,2,0:0:0:0:
156,266,54298,1,8,0:0:0:0:
220,328,54594,2,0,P|255:334|287:318,1,70.0000005960464,2|8,0:0|0:0,0:0:0:0:
350,257,55185,6,0,P|369:228|368:192,1,70.0000005960464,2|8,0:0|0:0,0:0:0:0:
328,112,55776,2,8,P|300:93|264:88,1,70.0000005960464,2|8,0:0|0:0,0:0:0:0:
176,96,56367,2,0,P|140:118|128:144,1,70.0000005960464,2|8,0:0|0:0,0:0:0:0:
112,232,56958,1,8,0:0:0:0:
112,232,57254,1,8,0:0:0:0:
200,264,57549,6,0,P|235:271|272:264,2,70.0000005960464,4|8|0,0:0|0:0|0:0,0:0:0:0:
176,176,58436,1,8,0:0:0:0:
136,96,58732,2,0,P|161:77|201:61,1,70.0000005960464,2|8,0:0|0:0,0:0:0:0:
287,62,59323,2,0,L|359:62,1,70.0000005960464,2|8,0:0|0:0,0:0:0:0:
448,62,59914,6,0,L|415:126,1,70.0000005960464,6|8,0:0|0:0,0:0:0:0:
383,156,60357,2,0,L|313:156,1,70.0000005960464,6|8,0:0|0:0,0:0:0:0:
280,188,60801,2,0,L|244:228,4,52.5000004470348,6|4|8|8|8,0:0|0:3|0:3|0:0|0:0,0:0:0:0:
284,96,61983,1,8,0:0:0:0:
368,60,62279,6,0,P|405:72|421:96,1,70.0000005960464,6|8,0:0|0:0,0:0:0:0:
420,188,62870,2,0,L|456:188,2,35.0000002980232,2|2|8,0:0|0:0|0:0,0:0:0:0:
336,220,63461,2,0,L|264:252,1,70.0000005960464,2|8,0:0|0:0,0:0:0:0:
204,308,64052,2,0,L|205:352,2,35.0000002980232,2|2|8,0:0|0:0|0:0,0:0:0:0:
139,243,64643,5,2,0:0:0:0:
74,178,64939,1,8,0:0:0:0:
72,88,65234,2,0,L|123:41,1,70.0000005960464,2|8,0:0|0:0,0:0:0:0:
164,124,65825,2,0,L|220:179,1,70.0000005960464,2|8,0:0|0:0,0:0:0:0:
272,240,66416,2,0,L|344:240,1,70.0000005960464,2|8,0:0|0:0,0:0:0:0:
388,160,67007,1,4,0:0:0:0:
340,84,67303,6,0,L|300:24,1,70.0000005960464,8|8,0:0|0:0,0:0:0:0:
210,25,67894,2,0,L|151:76,1,70.0000005960464,8|8,0:0|0:0,0:0:0:0:
157,161,68485,1,8,0:0:0:0:
221,225,68781,1,8,0:0:0:0:
312,225,69077,1,8,0:0:0:0:
256,192,69372,12,8,71146,3:3:0:0:
112,80,71737,6,0,L|112:44,2,35.0000002980232,4|4|0,0:3|0:3|0:0,0:0:0:0:
112,125,72180,1,8,0:3:0:0:
176,189,72476,2,0,L|216:189,1,35.0000002980232,8|8,0:3|0:3,0:0:0:0:
255,180,72771,2,0,L|311:132,1,70.0000005960464,8|0,0:3|0:3,0:0:0:0:
424,64,73510,1,6,0:0:0:0:
484,132,73806,1,6,0:0:0:0:
452,216,74101,6,0,P|416:260|368:272,2,105.00000089407,4|4|8,0:3|0:3|0:3,0:0:0:0:
288,136,75579,1,0,0:0:0:0:
360,84,75875,1,0,0:0:0:0:
288,28,76170,2,0,L|214:29,1,70.0000005960464,0|8,0:0|0:0,0:0:0:0:
153,93,76761,6,0,L|102:140,1,70.0000005960464,8|8,0:0|0:0,0:0:0:0:
165,204,77352,2,0,L|217:256,1,70.0000005960464,8|8,0:0|0:0,0:0:0:0:
388,308,78239,1,8,0:0:0:0:
328,136,78830,6,0,B|304:152|304:152|280:152|280:152|264:168,1,70.0000005960464,6|8,0:0|0:0,0:0:0:0:
203,228,79421,2,0,L|163:228,2,35.0000002980232,2|2|8,0:0|0:0|0:0,0:0:0:0:
267,292,80013,2,0,P|299:308|331:292,1,70.0000005960464,2|8,0:0|0:0,0:0:0:0:
392,230,80604,2,0,L|392:160,1,70.0000005960464,2|8,0:0|0:0,0:0:0:0:
392,68,81195,6,0,L|320:96,1,70.0000005960464,2|8,0:0|0:0,0:0:0:0:
262,28,81786,2,0,L|219:92,1,70.0000005960464,2|8,0:0|0:0,0:0:0:0:
131,86,82377,2,0,L|132:163,1,70.0000005960464,2|8,0:0|0:0,0:0:0:0:
68,220,82968,2,0,L|113:282,1,70.0000005960464,2|8,0:0|0:0,0:0:0:0:
173,340,83559,6,0,P|207:350|239:334,1,70.0000005960464,6|8,0:0|0:0,0:0:0:0:
301,271,84150,2,0,L|336:271,2,35.0000002980232,2|2|8,0:0|0:0|0:0,0:0:0:0:
236,206,84742,2,0,P|200:200|173:180,1,70.0000005960464,2|8,0:0|0:0,0:0:0:0:
120,108,85333,2,0,L|80:108,2,35.0000002980232,2|2|8,0:0|0:0|0:0,0:0:0:0:
209,112,85924,6,0,B|234:115|254:127|274:135|298:131|321:123|337:99|361:83|393:83|409:99|425:123|425:155|417:179|393:195|360:208,1,315.000002682209,2|8,0:3|0:0,0:0:0:0:
288,232,87536,1,8,0:0:0:0:
200,232,87832,1,8,0:0:0:0:
136,168,88127,1,8,0:0:0:0:
128,80,88423,2,0,P|144:52|184:32,1,70.0000005960464,8|8,0:0|0:0,0:0:0:0:
264,32,89014,2,0,P|295:46|317:79,1,70.0000005960464,8|4,0:0|0:0,0:0:0:0:
