osu file format v14

[General]
AudioFilename: Trinity Seven 7OP _ Opening - Seven Doors .mp3
AudioLeadIn: 0
PreviewTime: 52525
Countdown: 0
SampleSet: Normal
StackLeniency: 0.7
Mode: 0
LetterboxInBreaks: 0
WidescreenStoryboard: 0

[Editor]
DistanceSpacing: 1.4
BeatDivisor: 4
GridSize: 8
TimelineZoom: 1

[Metadata]
Title:Seven Doors
TitleUnicode:Seven Doors
Artist:ZAQ
ArtistUnicode:ZAQ
Creator:Boommer35
Version:Hard
Source:トリニティセブン
Tags:7人の魔書使い Trinity Seven: 7-nin no Masho Tsukai fantasy romantic comedy anime opening op shonen 2014 tv size
BeatmapID:516674
BeatmapSetID:220735

[Difficulty]
HPDrainRate:6
CircleSize:3.5
OverallDifficulty:7
ApproachRate:8
SliderMultiplier:1.3
SliderTickRate:2

[Events]
//Background and Video events
0,0,"bg.jpg",0,0
Video,24,"Trinity Seven Vid.avi"
//Break Periods
2,23464,29607
//Storyboard Layer 0 (Background)
//Storyboard Layer 1 (Fail)
//Storyboard Layer 2 (Pass)
//Storyboard Layer 3 (Foreground)
//Storyboard Sound Samples

[TimingPoints]
801,295.566502463054,4,1,2,85,1,0
20899,-100,4,1,2,40,0,0
22229,-100,4,1,2,85,0,0
32722,-100,4,1,2,60,0,0
38633,-100,4,1,2,85,0,0
38929,-100,4,1,2,60,0,0
43362,-100,4,1,2,85,0,0
43510,-100,4,1,2,50,0,0
47131,-100,4,1,3,50,0,0
47279,-100,4,1,2,50,0,0
50160,-100,4,1,2,60,0,0
50604,-100,4,1,2,70,0,0
51047,-100,4,1,2,80,0,0
51638,-100,4,1,2,60,0,0
52081,-100,4,1,2,80,0,0
52820,-100,4,1,2,85,0,1
60062,-100,4,1,2,80,0,1
60653,-100,4,1,2,75,0,1
61096,-100,4,1,2,67,0,1
62131,-100,4,1,2,75,0,0
62278,-100,4,1,2,85,0,1
71736,-100,4,3,2,75,0,0
74101,-100,4,1,2,85,0,0
76466,-100,4,1,2,50,0,0
76761,-100,4,1,2,60,0,0
77057,-100,4,1,2,70,0,0
77352,-100,4,1,2,80,0,0
77648,-100,4,1,2,85,0,0
78239,-100,4,1,2,30,0,0
78313,-100,4,1,2,40,0,0
78387,-100,4,1,2,50,0,0
78461,-100,4,1,2,60,0,0
78535,-100,4,1,2,70,0,0
78609,-100,4,1,2,80,0,0
78682,-100,4,1,2,85,0,0
78830,-100,4,1,2,90,0,1
85924,-133.333333333333,4,1,2,85,0,1
86071,-133.333333333333,4,1,2,40,0,1
87241,295.566502463054,4,1,2,85,1,1
87241,-100,4,1,2,85,0,1
87536,-100,4,1,2,90,0,1
89309,-100,4,1,2,90,0,0

[Colours]
Combo1 : 0,0,160
Combo2 : 0,128,192
Combo3 : 255,128,64
Combo4 : 255,0,0

[HitObjects]
256,192,1983,12,0,3609,0:0:0:0:
432,320,4348,6,0,L|312:264,1,130,2|8,0:0|0:0,0:0:0:0:
192,224,4939,2,0,L|120:224,2,65,2|2|8,0:0|0:0|0:0,0:0:0:0:
257,224,5382,2,0,P|305:208|353:80,1,195,2|8,0:0|0:0,0:0:0:0:
224,72,6121,2,0,L|272:24,2,65,2|2|8,0:0|0:0|0:0,0:0:0:0:
224,152,6564,6,0,P|128:152|72:72,1,195,2|8,0:0|0:0,0:0:0:0:
200,40,7303,1,2,0:0:0:0:
320,40,7599,1,8,0:0:0:0:
424,96,7894,2,0,P|440:160|416:216,1,130,2|8,0:0|0:0,0:0:0:0:
308,144,8485,2,0,P|272:195|193:210,1,130,0|8,0:0|0:0,0:0:0:0:
188,84,9076,1,4,0:0:0:0:
316,104,9372,6,0,P|288:46|228:16,1,130,8|0,0:0|0:0,0:0:0:0:
104,52,9963,1,8,0:0:0:0:
104,117,10111,1,0,0:0:0:0:
72,244,10407,1,8,0:0:0:0:
160,336,10702,2,0,L|224:336,1,65,0|8,0:0|0:0,0:0:0:0:
280,300,10998,2,0,L|328:252,1,65
320,188,11293,2,0,L|307:124,1,65,0|8,0:0|0:0,0:0:0:0:
112,96,11884,5,8,0:0:0:0:
296,32,12328,1,8,0:0:0:0:
184,192,12771,1,8,0:0:0:0:
368,128,13214,1,8,0:0:0:0:
384,256,13510,2,8,L|416:200,1,65,8|0,0:0|0:0,0:0:0:0:
448,144,13806,1,4,0:0:0:0:
264,88,14101,5,8,0:0:0:0:
184,192,14397,2,0,L|120:192,2,65,2|2|8,0:0|0:0|0:0,0:0:0:0:
224,240,14840,2,0,P|272:280|344:280,1,130,2|2,0:0|0:0,0:0:0:0:
400,272,15283,1,8,0:0:0:0:
440,216,15431,1,0,0:0:0:0:
440,216,15505,1,0,0:0:0:0:
440,216,15579,1,0,0:0:0:0:
440,150,15727,2,0,L|440:80,1,65,2|10,0:0|0:0,0:0:0:0:
352,40,16022,6,0,L|288:56,1,65,0|2,0:0|0:0,0:0:0:0:
216,124,16318,2,0,P|180:126|148:118,1,65,0|8,0:0|0:0,0:0:0:0:
60,152,16613,2,0,B|56:216|56:216|96:272,1,130
176,320,17057,1,8,0:0:0:0:
272,316,17205,2,0,P|332:308|384:264,1,130
481,264,17648,2,0,P|476:232|460:204,1,65,10|2,0:0|0:0,0:0:0:0:
372,168,17943,2,0,P|377:136|393:108,1,65,2|2,0:0|0:0,0:0:0:0:
320,48,18239,2,0,P|292:64|260:70,1,65,8|2,0:0|0:0,0:0:0:0:
184,8,18534,6,0,P|160:64|176:128,1,130,4|8,0:0|0:0,0:0:0:0:
248,240,19126,2,0,P|295:277|361:278,1,130
424,264,19569,1,8,0:0:0:0:
336,168,19865,1,0,0:0:0:0:
240,80,20160,2,0,L|175:76,1,65,0|8,0:0|0:0,0:0:0:0:
120,104,20456,2,0,L|85:162,1,65,0|8,0:0|0:1,0:0:0:0:
86,224,20751,1,0,0:0:0:0:
86,289,20899,1,0,0:0:0:0:
256,192,20973,12,0,22229,2:0:0:0:
256,144,22525,5,0,0:0:0:0:
160,232,22820,1,0,2:0:0:0:
216,264,22968,1,0,2:0:0:0:
280,272,23116,1,0,2:0:0:0:
344,248,23264,1,2,2:2:0:0:
256,192,30357,12,0,32722,0:0:0:0:
376,160,33017,5,8,0:0:0:0:
264,96,33313,1,8,0:1:0:0:
240,224,33609,1,8,2:1:0:0:
128,288,33904,6,0,B|56:240|56:240|96:216,1,130,4|8,0:0|0:0,0:0:0:0:
152,200,34347,2,0,P|192:152|176:88,1,130,0|8,0:0|0:0,0:0:0:0:
128,136,34791,1,0,0:0:0:0:
128,136,34939,2,0,L|256:168,1,130,4|0,0:0|0:0,0:0:0:0:
320,184,35382,1,0,0:0:0:0:
448,208,35678,1,0,0:0:0:0:
376,320,35973,1,8,0:0:0:0:
376,320,36269,6,0,L|312:312,1,65
248,304,36564,1,8,0:0:0:0:
144,224,36860,2,0,L|80:216,2,65,0|0|8,0:0|0:0|0:0,0:0:0:0:
208,232,37303,1,0,0:0:0:0:
224,104,37599,1,0,0:0:0:0:
224,104,37747,1,8,0:0:0:0:
344,56,38042,2,0,P|400:72|424:136,1,130,0|8,0:0|0:0,0:0:0:0:
400,264,38633,6,0,L|272:304,1,130,4|8,0:0|0:0,0:0:0:0:
210,302,39077,2,0,L|146:302,2,65,0|0|0,0:0|0:0|0:0,0:0:0:0:
312,216,39668,2,0,P|304:152|248:112,1,130,8|2,0:0|0:0,0:0:0:0:
200,80,40111,2,0,L|144:40,2,65,8|0|0,0:0|0:0|0:0,0:0:0:0:
88,144,40702,1,8,0:0:0:0:
112,271,40998,6,0,P|136:319|208:336,1,130,0|8,0:0|0:0,0:0:0:0:
336,336,41589,2,0,P|384:320|408:240,1,130,0|8,0:0|0:0,0:0:0:0:
410,119,42180,2,0,P|386:71|312:56,1,130,0|8,0:0|0:0,0:0:0:0:
185,54,42771,2,0,P|137:70|112:144,1,130,0|8,0:0|0:0,0:0:0:0:
112,208,43214,5,0,0:0:0:0:
112,208,43288,1,0,0:0:0:0:
112,208,43362,1,4,0:0:0:0:
224,136,43658,1,8,0:0:0:0:
248,264,43953,1,0,0:0:0:0:
312,264,44101,1,0,0:0:0:0:
376,264,44249,1,8,0:0:0:0:
368,328,44397,2,0,P|416:312|440:240,1,130
440,176,44840,1,8,0:0:0:0:
408,48,45136,2,0,B|384:64|384:64|336:48|288:80,1,130,0|8,0:0|0:0,0:0:0:0:
248,136,45579,6,0,L|232:200,1,65
144,296,46022,1,8,0:0:0:0:
144,296,46170,2,0,L|88:344,2,65
200,264,46613,2,0,L|264:264,1,65
328,264,46909,1,0,0:0:0:0:
368,216,47057,2,0,P|368:152|320:112,1,130
264,144,47500,2,0,P|216:184|154:172,1,130,0|8,0:0|0:0,0:0:0:0:
256,192,48091,12,0,49274,0:0:0:0:
160,136,49569,5,0,0:0:0:0:
216,176,49717,1,0,0:0:0:0:
216,304,50013,1,0,0:0:0:0:
160,272,50160,2,0,L|96:320,2,65,0|0|8,0:0|0:0|0:0,0:0:0:0:
160,208,50604,2,0,L|216:240,2,65,0|0|8,0:0|0:0|0:0,0:0:0:0:
160,144,51047,2,0,L|160:80,1,65
225,79,51343,2,0,L|295:79,1,65
355,79,51638,1,8,0:0:0:0:
352,272,52081,1,8,0:0:0:0:
232,312,52377,2,0,L|168:312,1,65,0|2,0:0|0:0,0:0:0:0:
128,184,52820,6,0,B|152:136|152:136|224:104,1,130,6|8,0:0|0:0,0:0:0:0:
312,80,53264,2,0,L|312:16,2,65,2|2|2,0:0|0:0|0:0,0:0:0:0:
312,168,53707,1,8,0:0:0:0:
384,112,53855,2,0,P|408:160|384:232,1,130,2|2,0:0|0:0,0:0:0:0:
328,296,54298,2,0,L|192:328,1,130,8|2,0:0|0:0,0:0:0:0:
112,312,54742,1,0,0:0:0:0:
176,248,54889,1,8,0:0:0:0:
104,192,55037,1,0,0:0:0:0:
104,192,55185,6,0,L|40:192,2,65,2|2|8,0:0|0:0|0:0,0:0:0:0:
136,104,55628,1,2,0:0:0:0:
200,168,55776,2,0,L|256:208,2,65,2|2|8,0:0|0:0|0:0,0:0:0:0:
248,88,56219,1,2,0:0:0:0:
328,48,56367,2,0,L|392:16,2,65,2|2|8,0:0|0:0|0:0,0:0:0:0:
368,128,56811,1,2,0:0:0:0:
440,184,56958,1,2,0:0:0:0:
440,272,57106,1,2,0:0:0:0:
360,312,57254,1,8,0:0:0:0:
352,224,57402,6,0,B|320:240|320:240|264:184|176:144,1,195,6|8,0:0|0:0,0:0:0:0:
80,296,58141,2,0,L|80:368,2,65,2|2|8,0:0|0:0|0:0,0:0:0:0:
80,204,58584,2,0,P|88:144|136:96,1,130,2|2,0:0|0:0,0:0:0:0:
264,64,59175,1,2,0:0:0:0:
387,103,59470,1,2,0:0:0:0:
400,288,59766,6,0,L|432:301,2,32.5,2|2|8,0:0|0:0|0:0,0:0:0:0:
336,280,60062,2,0,L|272:280,1,65,2|0,0:0|0:0,0:0:0:0:
208,288,60357,2,0,L|176:352,1,65
113,346,60653,2,0,L|89:274,1,65,2|10,0:0|0:0,0:0:0:0:
88,216,60948,2,0,L|112:152,1,65,2|0,0:0|0:0,0:0:0:0:
152,104,61244,2,0,L|224:88,2,65,0|8|0,0:0|0:0|0:0,0:0:0:0:
176,168,61687,2,0,L|248:152,1,65
288,72,61983,1,8,0:0:0:0:
336,152,62131,1,2,0:0:0:0:
384,72,62279,6,0,P|424:120|416:200,1,130,6|8,0:0|0:0,0:0:0:0:
272,288,62870,2,0,L|272:368,2,65,2|2|8,0:0|0:0|0:0,0:0:0:0:
184,264,63313,1,0,0:0:0:0:
144,344,63461,2,0,P|104:296|104:224,1,130,2|8,0:0|0:0,0:0:0:0:
200,80,64052,2,0,L|200:16,2,65,2|2|8,0:0|0:0|0:0,0:0:0:0:
288,88,64495,1,2,0:0:0:0:
288,88,64643,6,0,L|416:128,1,130,2|8,0:0|0:0,0:0:0:0:
424,312,65234,2,0,L|280:328,1,130,2|8,0:0|0:0,0:0:0:0:
248,248,65678,1,2,0:0:0:0:
128,112,65973,1,8,0:0:0:0:
56,280,66269,2,0,P|104:320|176:320,1,130,2|0,0:0|0:0,0:0:0:0:
256,304,66712,1,8,0:0:0:0:
408,184,67008,6,0,P|408:120|368:72,1,130,4|8,0:0|0:0,0:0:0:0:
192,32,67599,2,8,B|88:32|88:32|104:56,1,130
144,136,68042,2,8,P|160:224|80:272,1,195
40,96,68781,1,8,0:0:0:0:
224,112,69076,1,8,0:0:0:0:
376,152,69372,6,0,L|392:216,3,65,12|0|0|0,0:0|0:0|0:0|0:0,0:0:0:0:
384,280,69963,2,0,L|320:304,3,65,12|0|0|0,0:0|0:0|0:0|0:0,0:0:0:0:
264,320,70554,2,0,P|184:304|184:200,1,195,4|0,0:0|0:0,0:0:0:0:
216,152,71146,1,8,0:0:0:0:
328,88,71441,1,0,0:0:0:0:
344,216,71737,6,0,L|408:192,2,65,4|4|4,0:0|0:0|0:0,0:0:0:0:
280,240,72180,1,8,0:0:0:0:
192,336,72476,1,8,0:0:0:0:
144,296,72623,1,0,0:0:0:0:
128,232,72771,1,8,0:0:0:0:
112,104,73067,2,0,L|48:80,2,65,4|4|4,0:0|0:0|0:0,0:0:0:0:
176,104,73510,2,0,L|240:104,1,65,8|8,0:0|0:0,0:0:0:0:
304,104,73806,1,8,0:0:0:0:
360,136,73953,1,8,0:3:0:0:
408,176,74101,6,0,P|440:232|416:296,1,130,8|0,0:0|0:0,0:0:0:0:
376,240,74545,2,0,P|336:288|264:288,1,130,8|0,0:0|0:0,0:0:0:0:
304,232,74988,2,0,P|248:216|208:144,1,130,8|0,0:0|0:0,0:0:0:0:
144,48,75579,2,0,P|104:24|16:32,2,130,0|0|8,0:0|0:0|0:0,0:0:0:0:
144,48,76466,6,0,P|164:76|192:92,1,65
256,112,76761,1,0,0:0:0:0:
320,112,76909,1,0,0:0:0:0:
320,112,77057,1,0,0:0:0:0:
368,160,77205,2,0,L|368:224,2,65
392,96,77648,2,0,P|352:48|280:48,1,130
232,72,78091,1,0,0:0:0:0:
208,136,78239,2,0,L|136:136,3,65,8|8|8|0,0:0|0:0|0:0|0:0,0:0:0:0:
208,136,78830,6,0,B|223:205|295:221,1,130,2|8,0:0|0:0,0:0:0:0:
416,256,79421,2,0,L|417:323,2,65,2|2|8,0:0|0:0|0:0,0:0:0:0:
408,192,79865,2,0,B|336:88|336:88|256:72,1,195,2|8,0:0|0:0,0:0:0:0:
200,72,80456,2,0,L|200:8,2,65,2|2|8,0:0|0:0|0:0,0:0:0:0:
136,80,80899,1,0,0:0:0:0:
136,80,81047,6,0,P|56:128|64:224,1,195,6|8,0:0|0:0,0:0:0:0:
80,280,81638,2,0,L|16:320,2,65,2|2|0,0:0|0:0|0:0,0:0:0:0:
136,248,82081,1,8,0:0:0:0:
224,152,82377,2,0,L|208:88,2,65,2|2|8,0:0|0:0|0:0,0:0:0:0:
288,176,82820,1,0,0:0:0:0:
352,168,82968,2,0,L|392:112,2,65,2|2|8,0:0|0:0|0:0,0:0:0:0:
376,232,83412,6,8,L|408:232,2,32.5,4|8|0,0:0|0:0|0:0,0:0:0:0:
320,232,83707,2,0,L|256:232,1,65,2|10,0:0|0:0,0:0:0:0:
144,168,84150,1,0,0:0:0:0:
144,168,84298,1,0,0:0:0:0:
144,168,84446,1,0,0:0:0:0:
128,232,84594,2,0,L|64:232,1,65
72,296,84889,2,0,L|137:295,1,65
202,295,85185,1,0,0:0:0:0:
202,295,85333,1,0,0:0:0:0:
200,296,85481,1,0,0:0:0:0:
200,232,85628,2,0,L|200:168,1,65
216,120,85924,6,0,B|384:120|384:120|288:256|288:364,1,432.656266504527,2|0,0:3|0:0,0:0:0:0:
408,328,87536,6,8,L|448:200,1,130
368,104,88127,2,8,L|248:56,1,130
120,104,88718,2,8,L|81:228,1,130
152,336,89309,1,4,0:0:0:0:
