osu file format v14

[General]
AudioFilename: Trinity Seven 7OP _ Opening - Seven Doors .mp3
AudioLeadIn: 0
PreviewTime: 52525
Countdown: 0
SampleSet: Normal
StackLeniency: 0.7
Mode: 0
LetterboxInBreaks: 0
WidescreenStoryboard: 0

[Editor]
DistanceSpacing: 1.3
BeatDivisor: 4
GridSize: 4
TimelineZoom: 1.2

[Metadata]
Title:Seven Doors
TitleUnicode:Seven Doors
Artist:ZAQ
ArtistUnicode:ZAQ
Creator:Boommer35
Version:Easy
Source:トリニティセブン
Tags:7人の魔書使い Trinity Seven: 7-nin no Masho Tsukai fantasy romantic comedy anime opening op shonen 2014 tv size
BeatmapID:517006
BeatmapSetID:220735

[Difficulty]
HPDrainRate:3
CircleSize:2.5
OverallDifficulty:4
ApproachRate:3.5
SliderMultiplier:0.600000005960464
SliderTickRate:1

[Events]
//Background and Video events
0,0,"bg.jpg",0,0
Video,24,"Trinity Seven Vid.avi"
//Break Periods
2,23464,32524
//Storyboard Layer 0 (Background)
//Storyboard Layer 1 (Fail)
//Storyboard Layer 2 (Pass)
//Storyboard Layer 3 (Foreground)
//Storyboard Sound Samples

[TimingPoints]
801,295.566502463054,4,1,2,85,1,0
33904,-100,4,1,2,60,0,0
42180,-100,4,1,2,40,0,0
43362,-100,4,1,2,50,0,0
52820,-100,4,1,2,85,0,1
59914,-100,4,1,2,75,0,1
61096,-100,4,1,2,60,0,1
62279,-100,4,1,2,70,0,1
62426,-100,4,1,2,85,0,1
71736,-100,4,1,2,70,0,0
78830,-100,4,1,2,85,0,1
85924,-100,4,1,2,85,0,1
86219,-100,4,1,2,45,0,1
87180,-100,4,1,2,85,0,1
87241,295.566502463054,4,1,2,85,1,1
89309,-100,4,1,2,85,0,0

[Colours]
Combo1 : 0,0,160
Combo2 : 0,128,192
Combo3 : 255,128,64
Combo4 : 255,0,0

[HitObjects]
64,296,4348,6,0,B|88:244|88:244|136:208|136:208|164:148,1,180.000001788139,2|8,0:0|0:0,0:0:0:0:
228,151,5530,2,0,B|254:207|254:207|302:243|302:243|326:295,1,180.000001788139,2|8,0:0|0:0,0:0:0:0:
392,312,6712,2,0,P|444:285|452:228,1,120.000001192093,2|2,0:0|0:0,0:0:0:0:
436,164,7599,1,8,0:0:0:0:
412,104,7894,2,0,P|369:65|312:77,1,120.000001192093,2|2,0:0|0:0,0:0:0:0:
260,116,8781,1,8,0:0:0:0:
260,116,9077,6,0,B|260:208|260:208|324:272,1,180.000001788139,6|8,0:0|0:0,0:0:0:0:
388,270,10259,2,0,B|450:207|450:207|450:115,1,180.000001788139,2|8,0:0|0:0,0:0:0:0:
408,64,11441,2,0,P|348:68|316:80,2,90.0000008940696,0|8|0,0:0|0:0|0:0,0:0:0:0:
376,156,12771,1,0,0:0:0:0:
412,248,13214,2,0,P|356:248|300:220,1,120.000001192093,0|4,0:0|0:0,0:0:0:0:
236,200,14101,6,0,B|196:228|196:228|196:300,1,120.000001192093,2|8,0:0|0:0,0:0:0:0:
132,320,14988,2,0,L|52:228,1,120.000001192093,2|2,0:0|0:0,0:0:0:0:
28,168,15875,1,8,0:0:0:0:
12,104,16170,2,0,P|12:48|64:12,1,120.000001192093,2|2,0:0|0:0,0:0:0:0:
128,12,17057,1,8,0:0:0:0:
192,16,17352,2,0,P|252:24|304:60,2,120.000001192093,2|2|6,0:0|0:0|0:0,0:0:0:0:
160,72,18830,6,0,L|84:172,1,120.000001192093,0|8,0:0|0:0,0:0:0:0:
48,220,19717,2,0,L|4:268,2,60.0000005960464,2|2|0,0:0|0:0|0:0,0:0:0:0:
112,224,20604,1,8,0:0:0:0:
256,192,20899,12,0,23264,2:0:0:0:
416,104,33904,6,0,P|424:164|396:220,1,120.000001192093
356,268,34791,1,8,0:0:0:0:
296,300,35086,2,0,L|176:300,1,120.000001192093,2|0,0:0|0:0,0:0:0:0:
116,272,35973,2,0,L|71:223,2,60.0000005960464,8|0|0,0:0|0:0|0:0,0:0:0:0:
172,236,36860,2,0,L|260:152,1,120.000001192093,8|0,0:0|0:0,0:0:0:0:
320,128,37747,2,0,L|380:128,2,60.0000005960464,0|0|8,0:0|0:0|0:0,0:0:0:0:
264,92,38633,6,0,P|188:56|108:96,1,180.000001788139,0|8,0:0|0:0,0:0:0:0:
80,156,39815,2,0,P|64:238|124:305,1,180.000001788139,0|8,0:0|0:0,0:0:0:0:
188,312,40998,6,0,B|236:304|236:304|248:224|248:224|296:212,1,180.000001788139,4|8,0:0|0:0,0:0:0:0:
296,145,42180,2,0,B|248:133|248:133|236:53|236:53|188:45,1,180.000001788139,4|8,0:0|0:0,0:0:0:0:
120,44,43362,6,0,P|16:92|12:208,1,240.000002384186,4|0,0:0|0:0,0:0:0:0:
52,256,44840,2,0,L|140:340,1,120.000001192093,8|8,0:0|0:0,0:0:0:0:
204,356,45727,2,0,P|308:312|336:196,1,240.000002384186,4|0,0:0|0:0,0:0:0:0:
360,136,47205,2,0,L|421:136,2,60.0000005960464,8|0|8,0:0|0:0|0:0,0:0:0:0:
304,100,48091,6,0,P|224:60|140:92,1,180.000001788139,4|8,0:0|0:0,0:0:0:0:
112,148,49274,2,0,P|116:208|160:252,1,120.000001192093
256,192,50160,12,8,51638,0:0:0:0:
432,132,52820,6,0,B|420:172|420:172|356:248|356:248|344:288,1,180.000001788139,6|8,0:0|0:0,0:0:0:0:
288,320,54003,2,0,L|168:320,1,120.000001192093,2|2,0:0|0:0,0:0:0:0:
116,280,54889,2,0,L|74:236,2,60.0000005960464,8|2|2,0:0|0:0|0:0,0:0:0:0:
172,244,55776,2,0,L|268:168,1,120.000001192093,8|2,0:0|0:0,0:0:0:0:
320,132,56663,2,0,L|382:132,2,60.0000005960464,8|0|8,0:0|0:0|0:0,0:0:0:0:
260,104,57549,6,0,P|176:100|120:172,1,180.000001788139,6|8,0:0|0:0,0:0:0:0:
112,236,58732,2,0,P|130:320|210:354,1,180.000001788139,2|8,0:0|0:0,0:0:0:0:
276,353,59914,6,0,L|372:353,2,90.0000008940696,8|8|0,0:0|0:0|0:0,0:0:0:0:
176,344,61244,2,0,P|192:272|264:256,1,150.000001490116,8|8,0:0|0:0,0:0:0:0:
320,228,62279,6,0,P|299:148|218:97,1,180.000001788139,6|8,0:0|0:0,0:0:0:0:
156,92,63461,2,0,L|36:92,1,120.000001192093,2|2,0:0|0:0,0:0:0:0:
36,157,64347,1,8,0:0:0:0:
36,223,64643,2,0,L|161:223,2,120.000001192093,2|2|8,0:0|0:0|0:0,0:0:0:0:
36,156,66121,2,0,L|100:132,1,60.0000005960464,2|8,0:0|0:0,0:0:0:0:
224,112,67008,6,4,P|279:127|298:184,1,120.000001192093
232,296,68190,2,0,P|176:280|157:223,1,120.000001192093,4|4,0:0|0:0,0:0:0:0:
224,112,69372,2,0,P|204:57|148:42,1,120.000001192093,4|4,0:0|0:0,0:0:0:0:
28,96,70554,2,0,L|28:216,1,120.000001192093,4|4,0:0|0:0,0:0:0:0:
256,192,71737,12,0,74101,0:2:0:0:
160,256,76466,6,0,L|276:296,1,120.000001192093,8|8,0:0|0:0,0:0:0:0:
380,216,77648,2,0,L|368:96,1,120.000001192093,8|8,0:0|0:0,0:0:0:0:
248,40,78830,6,0,B|223:84|223:84|152:120|152:120|124:164,1,180.000001788139,6|8,0:0|0:0,0:0:0:0:
125,228,80013,2,0,B|151:269|151:269|222:305|222:305|246:349,1,180.000001788139,6|8,0:0|0:0,0:0:0:0:
313,350,81195,2,0,L|373:350,2,60.0000005960464,2|2|8,0:0|0:0|0:0,0:0:0:0:
208,268,82377,2,0,L|144:268,2,60.0000005960464,2|2|8,0:0|0:0|0:0,0:0:0:0:
328,208,83559,6,0,P|352:260|332:316,1,120.000001192093,6|2,0:0|0:0,0:0:0:0:
272,344,84446,1,8,0:0:0:0:
208,352,84742,2,0,P|156:327|135:271,1,120.000001192093,2|2,0:0|0:0,0:0:0:0:
128,204,85628,1,8,0:0:0:0:
124,140,85924,6,0,B|116:124|116:100|124:84|139:70|159:66|184:68|208:72|280:88|336:88,1,266.250002644956,0|8,0:0|0:0,0:0:0:0:
404,88,87536,2,0,L|463:89,1,60.0000005960464,8|8,0:0|0:0,0:0:0:0:
500,144,88127,2,0,L|500:208,1,60.0000005960464,8|8,0:0|0:0,0:0:0:0:
464,260,88718,2,0,L|416:304,1,60.0000005960464,8|8,0:0|0:0,0:0:0:0:
356,316,89309,1,0,0:0:0:0:
