osu file format v11

[General]
AudioFilename: rikka.mp3
AudioLeadIn: 0
PreviewTime: 79513
Countdown: 0
SampleSet: Normal
StackLeniency: 0.7
Mode: 0
LetterboxInBreaks: 0

[Editor]
DistanceSpacing: 1.2
BeatDivisor: 4
GridSize: 32

[Metadata]
Title:Kimi no Tonari ni
TitleUnicode:君のとなりに
Artist:ZAQ
ArtistUnicode:ZAQ
Creator:Nymph
Version:Normal
Source:Chu-2 byo demo KOI ga shitai!
Tags:takanashi rikka togashi yuuta Chuunibyou
BeatmapID:210942
BeatmapSetID:73903

[Difficulty]
HPDrainRate:3
CircleSize:4
OverallDifficulty:4
ApproachRate:4
SliderMultiplier:1.6
SliderTickRate:1

[Events]
//Background and Video events
0,0,"111.jpg"
//Break Periods
2,103991,117661
//Storyboard Layer 0 (Background)
//Storyboard Layer 1 (Fail)
//Storyboard Layer 2 (Pass)
//Storyboard Layer 3 (Foreground)
//Storyboard Sound Samples
//Background Colour Transformations
3,100,163,162,255

[TimingPoints]
500,759.493670886076,4,2,1,30,1,0
52905,-100,4,1,1,23,0,0
54803,-100,4,2,1,30,0,0
79487,-100,4,2,1,40,0,1
103791,-100,4,2,1,30,0,0
118981,-100,4,2,1,40,0,1
131132,-100,4,2,1,30,0,0
143284,-100,4,2,1,10,0,0
146322,-100,4,2,1,5,0,0

[Colours]
Combo1 : 205,155,255
Combo2 : 192,192,192
Combo3 : 151,203,255

[HitObjects]
140,104,12651,2,0,P|102:131,2,40
168,196,13411,2,0,P|158:234|136:268,1,80,8|0,0:0|0:0,0:0:0
217,318,14170,2,0,P|239:358,2,40
310,294,14930,2,0,P|348:304|382:326,1,80,8|0,0:0|0:0,0:0:0
475,304,15689,6,0,P|490:263,2,40
420,224,16449,2,0,P|430:186|452:152,1,80,8|0,0:0|0:0,0:0:0
415,63,17208,2,0,P|455:48,2,40
339,123,17968,1,8,0:0:0
247,92,18348,1,0,0:0:0
153,111,18727,6,0,P|129:76,2,40
84,179,19487,2,0,P|65:215|58:254,1,80,8|0,0:0|0:0,0:0:0
118,327,20246,2,0,P|140:366,2,40
206,288,21006,2,0,P|246:289|282:306,1,80,8|0,0:0|0:0,0:0:0
366,351,21765,6,0,P|339:388,2,40
461,351,22525,2,0,P|485:320|495:280,1,80,8|0,0:0|0:0,0:0:0
256,192,23284,12,0,24803,0:0:0
204,273,25563,6,0,P|178:303|143:322,1,80,8|0,0:0|0:0,0:0:0
93,239,26322,2,0,P|58:258|32:288,2,80,0|0|8,0:0|0:0|0:0,0:0:0
127,149,27462,1,0,0:0:0
166,61,27841,6,0,P|206:65|240:90,1,80
312,148,28601,2,0,P|334:116|338:76,1,80,8|0,0:0|0:0,0:0:0
433,59,29360,2,0,P|431:141|393:209,1,160,0|8,0:0|0:0,0:0:0
313,260,30500,1,0,0:0:0
379,329,30879,6,0,P|312:366|230:368,2,160,0|8|0,0:0|0:0|0:0,0:0:0
461,279,32778,1,0,0:0:0
469,183,33158,2,0,P|429:117|359:74,1,160,8|0,0:0|0:0,0:0:0
263,86,34297,5,0,0:0:0
207,164,34677,2,0,P|146:226,1,80,8|0,0:0|0:0,0:0:0
215,291,35436,2,0,P|139:323|76:289,2,160,0|8|0,0:0|0:0|0:0,0:0:0
312,274,37335,6,0,P|370:338,1,80,0|8,0:0|0:0,0:0:0
432,264,38094,2,0,P|490:328,2,80
490,187,39234,2,0,P|505:99,2,80,8|0|0,0:0|0:0|0:0,0:0:0
413,128,40373,5,0,0:0:0
355,51,40753,2,0,P|314:47|275:52,1,80,8|0,0:0|0:0,0:0:0
238,140,41512,2,0,P|161:159|83:139,1,160,0|8,0:0|0:0,0:0:0
19,210,42651,2,0,P|-12:288,1,80
85,290,43411,6,0,P|54:368,1,80,0|8,0:0|0:0,0:0:0
150,376,44170,2,0,P|230:377,1,80
418,338,45310,2,0,P|438:304|446:263,2,80,8|0|0,0:0|0:0|0:0,0:0:0
349,270,46449,5,0,0:0:0
396,186,46829,2,0,P|403:146|423:112,1,80,8|0,0:0|0:0,0:0:0
359,39,47588,2,0,P|282:54|203:38,1,160,0|8,0:0|0:0,0:0:0
124,93,48727,2,0,P|67:159,1,80
41,244,49487,5,0,0:0:0
129,282,49867,2,0,P|206:267|285:283,2,160,8|0|8,0:0|0:0|0:0,0:0:0
41,244,51765,1,0,0:0:0
33,148,52145,5,0,0:0:0
106,86,52525,2,0,P|177:35,1,80,0|0,0:0|0:0,0:0:0
229,115,53284,1,0,0:0:0
319,82,53664,1,0,0:0:0
401,133,54044,1,0,0:0:0
256,313,55183,6,0,P|191:359|110:364,1,160,0|8,0:0|0:0,0:0:0
25,325,56322,1,0,0:0:0
32,229,56702,2,0,P|97:183|178:178,1,160,0|8,0:0|0:0,0:0:0
201,84,57841,1,0,0:0:0
280,137,58221,6,0,P|358:155|434:137,2,160,0|8|0,0:0|0:0|0:0,0:0:0
233,221,60120,2,0,P|187:292,2,80,0|8|0,0:0|0:0|0:0,0:0:0
316,269,61259,6,0,P|364:332|441:352,1,160,0|8,0:0|0:0,0:0:0
477,263,62398,1,0,0:0:0
488,166,62778,2,0,P|440:103|363:83,1,160,0|8,0:0|0:0,0:0:0
303,156,63917,1,0,0:0:0
256,241,64297,6,0,P|217:308|143:338,2,160,0|8|0,0:0|0:0|0:0,0:0:0
256,144,66196,1,0,0:0:0
256,48,66575,2,0,P|226:15|192:3,1,80,8|0,0:0|0:0,0:0:0
176,98,67335,6,0,P|109:149|32:151,2,160,0|8|0,0:0|0:0|0:0,0:0:0
256,150,69234,2,0,P|284:180|297:216,2,80,0|8|0,0:0|0:0|0:0,0:0:0
197,226,70373,6,0,P|228:302|291:345,1,160,0|8,0:0|0:0,0:0:0
385,330,71512,1,0,0:0:0
474,289,71892,2,0,P|443:213|380:170,1,160,0|8,0:0|0:0,0:0:0
385,74,73031,1,0,0:0:0
300,119,73411,6,0,P|222:142|148:124,1,160,0|8,0:0|0:0,0:0:0
115,33,74550,1,0,0:0:0
55,108,74930,2,0,P|11:174,1,80
68,251,75689,2,0,P|24:317,2,80,8|0|0,0:0|0:0|0:0,0:0:0
232,344,77208,5,8,0:0:0
272,256,77588,1,0,0:0:0
327,336,77968,2,0,P|406:357|480:339,1,160,0|8,0:0|0:0,0:0:0
504,245,79107,1,0,0:0:0
481,151,79487,6,0,P|402:130|328:148,1,160,0|8,0:0|0:0,0:0:0
238,111,80626,1,0,0:0:0
238,111,81006,2,0,P|173:65,1,80
113,140,81765,2,0,P|48:94,1,80,8|0,0:0|0:0,0:0:0
17,185,82525,6,0,P|15:269|55:334,1,160,0|8,0:0|0:0,0:0:0
140,371,83664,1,0,0:0:0
231,341,84044,2,0,P|310:327|387:342,1,160,0|8,0:0|0:0,0:0:0
482,326,85183,2,0,P|518:249,1,80
453,71,86322,6,0,P|417:148,1,80,8|0,0:0|0:0,0:0:0
325,121,87082,2,0,P|275:182|195:203,1,160,0|8,0:0|0:0,0:0:0
104,185,88221,1,0,0:0:0
34,250,88601,6,0,P|54:329|122:364,2,160,0|8|0,0:0|0:0|0:0,0:0:0
22,154,90500,1,0,0:0:0
48,62,90879,2,0,P|110:9,1,80,8|0,0:0|0:0,0:0:0
189,63,91639,6,0,P|271:85|345:65,1,160,0|8,0:0|0:0,0:0:0
357,161,92778,1,0,0:0:0
451,175,93158,2,0,P|429:257|449:331,1,160,0|8,0:0|0:0,0:0:0
356,358,94297,1,0,0:0:0
260,367,94677,6,0,P|178:345|104:365,1,160,0|8,0:0|0:0,0:0:0
58,280,95816,1,0,0:0:0
115,203,96196,2,0,P|197:225|271:205,1,160,0|8,0:0|0:0,0:0:0
266,110,97335,1,0,0:0:0
266,110,97715,6,0,P|336:91|418:113,1,160,0|8,0:0|0:0,0:0:0
439,207,98854,1,0,0:0:0
419,301,99234,2,0,P|348:319|266:297,1,160,0|8,0:0|0:0,0:0:0
228,208,100373,1,0,0:0:0
256,192,100753,12,0,103791,0:0:0
227,71,118981,6,0,P|194:150,1,80,0|0,0:0|0:0,0:0:0
103,118,119740,2,0,P|70:197,1,80,8|0,0:0|0:0,0:0:0
80,287,120500,2,0,P|132:349|207:362,1,160,0|8,0:0|0:0,0:0:0
286,308,121639,1,0,0:0:0
371,352,122018,6,0,P|454:352,1,80
417,261,122778,2,0,P|500:261,1,80,8|0,0:0|0:0,0:0:0
470,170,123537,2,0,P|390:170,1,80
392,73,124297,2,0,P|312:73,1,80,8|0,0:0|0:0,0:0:0
233,128,125056,6,0,P|158:158|83:137,1,160,0|8,0:0|0:0,0:0:0
21,210,126196,1,0,0:0:0
50,301,126575,2,0,P|125:271|200:292,1,160,0|8,0:0|0:0,0:0:0
264,361,127715,1,0,0:0:0
360,350,128094,6,0,P|437:320|464:249,3,160,0|8|0|8,0:0|0:0|0:0|0:0,0:0:0
455,156,130753,1,0,0:0:0
411,70,131132,6,0,P|349:13,2,80,0|0|8,0:0|0:0|0:0,0:0:0
219,84,132651,2,0,P|157:27,2,80,0|0|8,0:0|0:0|0:0,0:0:0
257,172,133791,1,0,0:0:0
257,267,134170,6,0,P|257:346,2,80,0|0|8,0:0|0:0|0:0,0:0:0
446,300,135689,2,0,P|446:379,2,80,0|0|8,0:0|0:0|0:0,0:0:0
446,203,136829,1,0,0:0:0
469,110,137208,6,0,P|493:76|503:36,2,80,0|0|8,0:0|0:0|0:0,0:0:0
277,126,138727,2,0,P|253:160|243:200,2,80,0|0|8,0:0|0:0|0:0,0:0:0
335,202,139867,1,0,0:0:0
356,295,140246,6,0,P|346:331|322:365,2,80,0|0|8,0:0|0:0|0:0,0:0:0
176,225,141765,2,0,P|139:215|105:191,2,80,0|0|8,0:0|0:0|0:0,0:0:0
256,192,143284,12,0,146322,0:0:0
