osu file format v11

[General]
AudioFilename: rikka.mp3
AudioLeadIn: 0
PreviewTime: 79513
Countdown: 0
SampleSet: Soft
StackLeniency: 0.7
Mode: 0
LetterboxInBreaks: 0

[Editor]
DistanceSpacing: 1.2
BeatDivisor: 4
GridSize: 32

[Metadata]
Title:Kimi no Tonari ni
TitleUnicode:君のとなりに
Artist:ZAQ
ArtistUnicode:ZAQ
Creator:Nymph
Version:Hard
Source:Chu-2 byo demo KOI ga shitai!
Tags:takanashi rikka togashi yuuta Chuunibyou
BeatmapID:210227
BeatmapSetID:73903

[Difficulty]
HPDrainRate:5
CircleSize:4
OverallDifficulty:6
ApproachRate:7
SliderMultiplier:2.6
SliderTickRate:1

[Events]
//Background and Video events
0,0,"111.jpg"
//Break Periods
2,106829,118081
//Storyboard Layer 0 (Background)
//Storyboard Layer 1 (Fail)
//Storyboard Layer 2 (Pass)
//Storyboard Layer 3 (Foreground)
//Storyboard Sound Samples
//Background Colour Transformations
3,100,163,162,255

[TimingPoints]
500,759.493670886076,4,2,1,30,1,0
52905,-100,4,1,1,15,0,0
54803,-100,4,2,1,30,0,0
79487,-100,4,2,1,40,0,1
103791,-100,4,2,1,30,0,0
118981,-100,4,2,1,40,0,1
131132,-100,4,2,1,30,0,0
143284,-100,4,2,1,10,0,0
146322,-100,4,2,1,5,0,0

[Colours]
Combo1 : 205,155,255
Combo2 : 192,192,192
Combo3 : 151,203,255

[HitObjects]
124,60,12651,2,0,P|109:89|103:123,1,65,2|0,0:0|0:0,0:0:0
93,191,13031,1,0,0:0:0
231,227,13411,1,8,0:0:0
140,338,13791,1,0,0:0:0
231,228,14170,2,0,P|260:243|294:249,1,65,2|0,0:0|0:0,0:0:0
362,259,14550,1,0,0:0:0
338,117,14930,1,8,0:0:0
472,166,15310,1,0,0:0:0
363,258,15689,6,0,P|357:289|342:318,1,65,2|0,0:0|0:0,0:0:0
284,361,16069,1,0,0:0:0
192,250,16449,1,8,0:0:0
83,343,16829,2,0,P|68:314|62:282,1,65,0|0,0:0|0:0,0:0:0
83,179,17208,2,0,P|77:147|62:118,2,65,2|0|0,0:0|0:0|0:0,0:0:0
316,216,17968,2,0,P|346:270|354:343,1,130,8|0,0:0|0:0,0:0:0
457,120,18727,6,0,P|442:91|436:59,2,65,2|0|0,0:0|0:0|0:0,0:0:0
346,211,19487,1,8,0:0:0
400,343,19867,2,0,P|371:358|339:364,1,65,0|0,0:0|0:0,0:0:0
242,325,20246,2,0,P|210:331|181:346,2,65,2|0|0,0:0|0:0|0:0,0:0:0
251,181,21006,1,8,0:0:0
126,252,21386,1,0,0:0:0
147,110,21765,6,0,P|141:78|126:49,2,65,2|0|0,0:0|0:0|0:0,0:0:0
44,228,22525,2,0,P|55:291|103:337,1,130,8|0,0:0|0:0,0:0:0
449,328,23473,5,0,0:0:0
443,312,23569,1,0,0:0:0
437,296,23664,1,0,0:0:0
408,223,23854,1,0,0:0:0
444,152,24044,2,0,P|463:126|475:95,1,65,8|0,0:0|0:0,0:0:0
383,79,24424,2,0,P|395:48|415:22,2,65,0|0|2,0:0|0:0|0:0,0:0:0
291,77,24993,6,0,P|258:82|226:77,2,65,0|0|0,0:0|0:0|0:0,0:0:0
341,154,25563,2,0,P|361:179|373:210,2,65,8|0|0,0:0|0:0|0:0,0:0:0
290,213,26132,1,0,0:0:0
183,322,26322,2,0,P|160:350|137:366,1,65,2|0,0:0|0:0,0:0:0
82,288,26702,2,0,P|59:304|36:332,1,65,0|0,0:0|0:0,0:0:0
58,203,27082,2,0,P|81:187|104:159,1,65,8|0,0:0|0:0,0:0:0
134,79,27462,2,0,P|157:51|180:35,1,65,0|0,0:0|0:0,0:0:0
336,29,28031,5,0,0:0:0
413,31,28221,2,0,P|443:36|471:56,1,65,0|0,0:0|0:0,0:0:0
373,97,28601,2,0,P|367:127|347:155,1,65,8|0,0:0|0:0,0:0:0
269,149,28981,2,0,P|249:177|243:207,1,65,0|0,0:0|0:0,0:0:0
391,308,29360,2,0,P|421:313|449:333,2,65,2|0|0,0:0|0:0|0:0,0:0:0
150,304,30120,5,8,0:0:0
150,304,30310,2,0,P|136:333|114:356,1,65,0|0,0:0|0:0,0:0:0
35,363,30689,1,0,0:0:0
48,163,30879,2,0,P|62:134|84:111,1,65,2|0,0:0|0:0,0:0:0
196,38,31259,2,0,P|182:67|160:90,1,65,0|0,0:0|0:0,0:0:0
142,166,31639,2,0,P|181:202|226:214,2,97.5,8|0|0,0:0|0:0|0:0,0:0:0
386,118,32398,6,0,P|415:132|438:154,1,65,2|0,0:0|0:0,0:0:0
334,179,32778,2,0,P|312:202|298:231,1,65,0|0,0:0|0:0,0:0:0
379,298,33158,2,0,P|418:334|463:346,2,97.5,8|0|0,0:0|0:0|0:0,0:0:0
177,343,33917,5,2,0:0:0
177,343,34107,2,0,P|142:348|111:344,1,65,0|0,0:0|0:0,0:0:0
103,265,34487,1,0,0:0:0
103,265,34677,2,0,P|70:271|33:265,1,65,8|0,0:0|0:0,0:0:0
36,188,35056,2,0,P|69:182|106:188,1,65,0|0,0:0|0:0,0:0:0
177,49,35436,6,0,P|234:79|298:79,1,130,2|0,0:0|0:0,0:0:0
448,121,36006,2,0,P|391:151|327:151,1,130,0|0,0:0|0:0,0:0:0
241,338,36575,2,0,P|244:312|255:275,1,65,0|0,0:0|0:0,0:0:0
264,198,36955,1,2,0:0:0
396,290,37145,5,0,0:0:0
396,290,37335,2,0,P|429:303|454:321,1,65,0|0,0:0|0:0,0:0:0
433,180,37715,2,0,P|455:207|467:235,1,65,8|0,0:0|0:0,0:0:0
471,59,38094,2,0,P|485:91|490:121,1,65,0|0,0:0|0:0,0:0:0
364,40,38474,2,0,P|331:54|301:59,1,65,2|0,0:0|0:0,0:0:0
209,58,38854,2,0,P|180:54|148:40,2,65,0|0|8,0:0|0:0|0:0,0:0:0
256,121,39424,1,0,0:0:0
256,198,39613,1,0,0:0:0
113,261,39993,5,2,0:0:0
113,261,40183,2,0,P|105:294|94:322,1,65,0|0,0:0|0:0,0:0:0
83,179,40563,2,0,P|59:203|36:222,1,65,0|8,0:0|0:0,0:0:0
108,81,40943,2,0,P|79:98|51:111,2,65,0|0|0,0:0|0:0|0:0,0:0:0
182,57,41512,2,0,P|210:39|238:26,1,65,2|0,0:0|0:0,0:0:0
354,47,41892,2,0,P|371:75|384:103,1,65,0|0,0:0|0:0,0:0:0
377,221,42272,2,0,P|348:238|320:251,2,65,8|0|0,0:0|0:0|0:0,0:0:0
256,320,43031,5,2,0:0:0
256,320,43221,2,0,P|204:359|139:369,1,130,0|0,0:0|0:0,0:0:0
90,309,43791,2,0,P|60:321|35:341,2,65,8|0|0,0:0|0:0|0:0,0:0:0
94,231,44360,1,0,0:0:0
108,154,44550,2,0,P|120:124|140:99,2,65,2|0|0,0:0|0:0|0:0,0:0:0
235,52,45120,2,0,P|276:106|332:136,1,130,0|0,0:0|0:0,0:0:0
398,97,45689,2,0,P|424:117|441:143,1,65,0|0,0:0|0:0,0:0:0
428,221,46069,5,2,0:0:0
408,296,46259,2,0,P|425:322|451:342,2,65,0|0|0,0:0|0:0|0:0,0:0:0
333,320,46829,2,0,P|310:346|284:360,1,65,8|0,0:0|0:0,0:0:0
213,326,47208,2,0,P|187:340|164:366,1,65,0|0,0:0|0:0,0:0:0
86,352,47588,2,0,P|33:316|9:254,1,130,2|0,0:0|0:0,0:0:0
138,206,48158,2,0,P|114:146|61:110,1,130,0|0,0:0|0:0,0:0:0
6,54,48727,1,0,0:0:0
63,0,48917,1,0,0:0:0
119,53,49107,1,2,0:0:0
253,132,49487,5,0,0:0:0
253,132,49867,2,0,P|317:124|382:132,1,130,8|0,0:0|0:0,0:0:0
315,204,50436,2,0,P|379:212|444:204,1,130,0|0,0:0|0:0,0:0:0
496,145,51006,1,0,0:0:0
407,328,51386,1,8,0:0:0
407,328,51575,2,0,P|440:340|470:344,1,65,0|0,0:0|0:0,0:0:0
269,321,52145,2,0,P|210:348|144:346,1,130,2|0,0:0|0:0,0:0:0
12,264,52905,5,0,0:0:0
12,108,53284,1,0,0:0:0
145,26,53664,1,0,0:0:0
301,26,54044,1,0,0:0:0
301,26,54803,6,0,P|329:87|381:122,1,130,0|2,0:0|0:0,0:0:0
465,252,55563,1,0,0:0:0
465,252,55753,2,0,P|430:302|369:330,1,130,0|0,0:0|0:0,0:0:0
264,263,56322,2,0,P|203:291|168:341,1,130,0|2,0:0|0:0,0:0:0
96,372,56892,1,0,0:0:0
27,335,57082,1,0,0:0:0
27,178,57462,1,8,0:0:0
135,65,57841,1,0,0:0:0
135,222,58221,6,0,P|159:252|180:268,1,65,2|0,0:0|0:0,0:0:0
245,311,58601,1,0,0:0:0
350,196,58981,2,0,P|371:212|395:242,1,65,8|0,0:0|0:0,0:0:0
439,306,59360,1,0,0:0:0
355,87,59740,2,0,P|334:71|310:41,1,65,2|0,0:0|0:0,0:0:0
202,41,60120,2,0,P|178:71|157:87,1,65,0|0,0:0|0:0,0:0:0
256,138,60499,1,8,0:0:0
256,293,60879,1,0,0:0:0
256,293,61069,1,0,0:0:0
256,293,61259,6,0,P|216:344|157:368,1,130,2|0,0:0|0:0,0:0:0
96,317,61829,1,0,0:0:0
35,173,62208,1,0,0:0:0
43,95,62398,2,0,P|83:44|142:20,1,130,0|2,0:0|0:0,0:0:0
189,82,62968,1,0,0:0:0
237,20,63158,1,0,0:0:0
391,35,63537,1,8,0:0:0
452,178,63917,1,0,0:0:0
381,317,64297,6,0,P|359:345|335:363,1,65,2|0,0:0|0:0,0:0:0
257,373,64677,2,0,P|223:379|190:375,1,65,0|0,0:0|0:0,0:0:0
35,318,65056,2,0,P|57:290|81:272,1,65,8|0,0:0|0:0,0:0:0
147,231,65436,2,0,P|181:237|214:233,1,65,0|0,0:0|0:0,0:0:0
233,41,65816,2,0,P|265:48|296:44,1,65,2|0,0:0|0:0,0:0:0
320,118,66196,2,0,P|352:111|383:115,1,65,0|0,0:0|0:0,0:0:0
461,120,66575,1,8,0:0:0
462,320,66955,1,0,0:0:0
462,320,67145,1,0,0:0:0
462,320,67335,6,0,P|398:334|336:324,1,130,2|0,0:0|0:0,0:0:0
260,298,67905,2,0,P|198:288|134:302,1,130,0|0,0:0|0:0,0:0:0
55,303,68474,1,0,0:0:0
44,72,68854,1,2,0:0:0
44,72,69044,2,0,P|52:108|65:132,1,65,0|0,0:0|0:0,0:0:0
204,61,69613,1,8,0:0:0
204,61,69803,2,0,P|217:85|225:121,1,65,0|0,0:0|0:0,0:0:0
147,257,70373,6,0,P|181:313|237:341,1,130,2|0,0:0|0:0,0:0:0
473,341,71132,2,0,P|439:285|383:257,1,130,8|0,0:0|0:0,0:0:0
344,188,71702,1,0,0:0:0
256,27,72082,1,0,0:0:0
256,27,72272,2,0,P|223:23|191:27,1,65,0|0,0:0|0:0,0:0:0
153,95,72651,2,0,P|120:99|88:95,1,65,8|0,0:0|0:0,0:0:0
34,152,73031,2,0,P|30:185|34:217,1,65,0|0,0:0|0:0,0:0:0
44,294,73411,5,2,0:0:0
205,209,73791,2,0,P|209:242|205:274,1,65,0|0,0:0|0:0,0:0:0
195,351,74170,1,8,0:0:0
363,217,74550,2,0,P|359:250|363:282,1,65,0|0,0:0|0:0,0:0:0
373,359,74930,1,2,0:0:0
373,359,75120,1,0,0:0:0
488,321,75310,2,0,P|503:256|495:191,1,130,0|8,0:0|0:0,0:0:0
292,179,76069,2,0,P|277:114|285:49,1,130,0|2,0:0|0:0,0:0:0
176,165,76829,6,0,P|191:230|183:295,1,130,0|8,0:0|0:0,0:0:0
128,346,77398,1,0,0:0:0
128,346,77588,2,0,P|95:353|63:350,1,65,0|0,0:0|0:0,0:0:0
29,195,77968,2,0,P|14:130|22:65,1,130,2|0,0:0|0:0,0:0:0
176,165,78537,2,0,P|191:230|183:295,1,130,0|0,0:0|0:0,0:0:0
245,340,79107,2,0,P|276:351|308:351,1,65,0|0,0:0|0:0,0:0:0
456,336,79487,5,2,0:0:0
486,182,79867,1,0,0:0:0
486,182,80056,2,0,P|492:150|493:114,1,65,0|8,0:0|0:0,0:0:0
357,38,80626,1,0,0:0:0
357,38,80816,2,0,P|351:70|350:106,1,65,0|2,0:0|0:0,0:0:0
308,169,81196,2,0,P|276:175|240:176,2,65,0|0|0,0:0|0:0|0:0,0:0:0
198,251,81765,2,0,P|134:260|67:253,1,130,8|0,0:0|0:0,0:0:0
307,348,82525,6,0,P|371:357|438:350,1,130,2|0,0:0|0:0,0:0:0
415,274,83094,2,0,P|449:271|479:277,1,65,0|8,0:0|0:0,0:0:0
486,120,83664,1,0,0:0:0
486,120,83854,1,0,0:0:0
427,68,84044,2,0,P|394:72|363:69,1,65,2|0,0:0|0:0,0:0:0
307,124,84424,2,0,P|274:120|243:123,1,65,0|0,0:0|0:0,0:0:0
75,159,84803,1,8,0:0:0
75,159,84993,2,0,P|60:192|53:219,1,65,0|0,0:0|0:0,0:0:0
49,298,85373,1,0,0:0:0
170,362,85563,6,0,P|197:307|208:240,1,130,2|0,0:0|0:0,0:0:0
298,51,86322,2,0,P|325:106|336:173,1,130,8|0,0:0|0:0,0:0:0
389,230,86892,2,0,P|420:241|453:242,1,65,0|2,0:0|0:0,0:0:0
372,309,87272,2,0,P|341:320|308:321,1,65,0|0,0:0|0:0,0:0:0
115,154,87841,1,8,0:0:0
39,290,88221,1,0,0:0:0
186,342,88601,6,0,P|247:367|313:369,2,130,2|0|8,0:0|0:0|0:0,0:0:0
372,232,89740,2,0,P|406:235|435:246,1,65,0|0,0:0|0:0,0:0:0
356,37,90120,2,0,P|353:71|342:100,1,65,2|0,0:0|0:0,0:0:0
292,239,90499,2,0,P|295:205|306:176,1,65,0|0,0:0|0:0,0:0:0
173,157,90879,2,0,P|139:154|110:143,1,65,8|0,0:0|0:0,0:0:0
59,48,91259,2,0,P|93:51|122:62,1,65,0|0,0:0|0:0,0:0:0
186,239,91639,6,0,P|123:237|61:210,1,130,2|0,0:0|0:0,0:0:0
319,325,92398,2,0,P|382:327|444:354,1,130,8|0,0:0|0:0,0:0:0
476,44,93158,2,0,P|474:107|447:169,1,130,2|0,0:0|0:0,0:0:0
411,237,93727,1,0,0:0:0
411,237,93917,1,8,0:0:0
254,127,94297,2,0,P|219:117|187:119,1,65,0|0,0:0|0:0,0:0:0
156,189,94677,6,0,P|93:197|27:182,1,130,2|0,0:0|0:0,0:0:0
109,350,95436,2,0,P|171:341|237:356,1,130,8|0,0:0|0:0,0:0:0
299,310,96006,1,0,0:0:0
299,310,96196,2,0,P|330:306|363:310,1,65,2|0,0:0|0:0,0:0:0
420,362,96575,2,0,P|451:365|484:362,1,65,0|0,0:0|0:0,0:0:0
509,287,96955,1,8,0:0:0
509,287,97145,2,0,P|512:255|509:223,1,65,0|0,0:0|0:0,0:0:0
500,144,97525,1,0,0:0:0
403,28,97715,6,0,P|388:93|392:156,1,130,2|0,0:0|0:0,0:0:0
249,348,98474,2,0,P|264:283|260:220,1,130,8|0,0:0|0:0,0:0:0
161,156,99044,1,0,0:0:0
56,206,99234,2,0,P|41:271|45:334,1,130,2|0,0:0|0:0,0:0:0
270,191,99993,2,0,P|285:126|281:63,1,130,8|0,0:0|0:0,0:0:0
256,192,100753,12,0,103791,0:0:0
160,64,118981,5,2,0:0:0
160,64,119170,2,0,P|149:98|131:127,1,65
22,332,119740,1,8,0:0:0
177,322,120120,1,0,0:0:0
177,322,120310,2,0,P|203:298|233:281,1,65,0|2,0:0|0:0,2:0:0
307,283,120689,2,0,P|336:302|360:327,1,65,0|0,0:0|0:0,0:0:0
495,249,121259,2,0,P|512:187|511:121,1,130,8|0,0:0|0:0,0:0:0
431,53,121829,1,0,0:0:0
330,75,122018,6,0,P|313:137|314:203,1,130,2|0,0:0|0:0,0:0:0
177,334,122778,2,0,P|115:351|49:350,1,130,8|0,0:0|0:0,0:0:0
5,214,123348,2,0,P|67:197|133:198,1,130
209,187,123917,2,0,P|225:156|232:127,1,65
337,129,124297,2,0,P|335:94|326:65,1,65,8|0,0:0|0:0,0:0:0
459,88,124677,2,0,P|440:58|418:38,1,65
481,167,125056,5,2,0:0:0
388,332,125436,2,0,P|326:349|260:348,1,130,0|8,0:0|0:0,0:0:0
189,315,126006,1,0,0:0:0
189,315,126196,2,0,P|152:311|123:315,1,65
26,211,126575,2,0,P|88:228|154:227,1,130,2|0,0:0|0:0,0:0:0
302,67,127335,2,0,P|364:50|430:51,1,130,8|0,0:0|0:0,0:0:0
256,192,128094,12,0,131132,0:0:0
219,244,131322,6,0,P|211:277|195:306,1,65
119,288,131702,2,0,P|104:315|96:348,1,65,0|8,0:0|0:0,0:0:0
64,149,132272,2,0,P|49:122|41:89,1,65,0|0,0:0|0:0,0:0:0
105,45,132651,2,0,P|138:37|165:22,1,65,2|0,0:0|0:0,0:0:0
275,111,133031,1,0,0:0:0
350,130,133221,2,0,P|382:139|413:140,1,65,0|8,0:0|0:0,0:0:0
388,269,133601,1,0,0:0:0
459,300,133791,2,0,P|482:324|508:340,1,65,0|0,0:0|0:0,0:0:0
287,366,134170,6,0,P|263:341|237:325,1,65,2|0,0:0|0:0,0:0:0
188,264,134550,2,0,P|163:287|147:313,1,65,0|0,0:0|0:0,0:0:0
105,380,134930,1,8,0:0:0
12,210,135310,2,0,P|36:186|52:160,1,65,0|0,0:0|0:0,0:0:0
140,18,135689,1,2,0:0:0
153,94,135879,1,0,0:0:0
201,155,136069,2,0,P|217:181|241:205,1,65,0|0,0:0|0:0,0:0:0
407,95,136449,1,8,0:0:0
436,167,136639,1,0,0:0:0
397,237,136829,2,0,P|381:263|357:287,1,65,0|0,0:0|0:0,0:0:0
212,367,137208,6,0,P|177:362|145:367,1,65,2|0,0:0|0:0,0:0:0
30,298,137588,2,0,P|65:303|97:298,1,65
136,232,137968,1,8,0:0:0
246,56,138348,2,0,P|281:61|313:56,1,65
451,35,138727,1,2,0:0:0
469,110,138917,2,0,P|464:145|451:174,1,65
391,123,139297,1,0,0:0:0
325,285,139487,1,8,0:0:0
361,353,139677,2,0,P|393:366|425:370,1,65
483,320,140056,1,0,0:0:0
263,232,140246,6,0,P|230:218|198:214,1,65,2|0,0:0|0:0,0:0:0
161,83,140626,2,0,P|147:115|143:147,1,65
120,219,141006,1,8,0:0:0
36,351,141386,1,0,0:0:0
191,351,141765,2,0,P|252:375|318:372,1,130,2|0,0:0|0:0,0:0:0
494,233,142525,2,0,P|433:209|367:212,1,130,8|0,0:0|0:0,0:0:0
256,192,143284,12,0,146322,0:0:0
