osu file format v12

[General]
AudioFilename: ! Lite OP.mp3
AudioLeadIn: 0
PreviewTime: 49772
Countdown: 0
SampleSet: Soft
StackLeniency: 0.7
Mode: 0
LetterboxInBreaks: 1
WidescreenStoryboard: 0

[Editor]
DistanceSpacing: 1.2
BeatDivisor: 4
GridSize: 4

[Metadata]
Title:Kimi e (TV Size)
TitleUnicode:君へ (TV Size)
Artist:ZAQ
ArtistUnicode:ZAQ
Creator:leon1341414
Version:Normal
Source:Chuunibyou demo koi ga shitai
Tags:121561995 cococanro Jerry
BeatmapID:257478
BeatmapSetID:63103

[Difficulty]
HPDrainRate:5
CircleSize:3
OverallDifficulty:5
ApproachRate:5
SliderMultiplier:1.5
SliderTickRate:1

[Events]
//Background and Video events
0,0,"JRSw.jpg",0,0
Video,0,"video.avi"
//Break Periods
//Storyboard Layer 0 (Background)
//Storyboard Layer 1 (Fail)
//Storyboard Layer 2 (Pass)
//Storyboard Layer 3 (Foreground)
//Storyboard Sound Samples
//Background Colour Transformations
3,100,163,162,255

[TimingPoints]
732,645.161290322581,4,2,2,30,1,0
48151,-100,4,2,2,40,0,0
49764,-100,4,2,1,50,0,1
83312,-100,4,2,2,30,0,0
86054,-100,4,2,2,5,0,0

[Colours]
Combo1 : 181,220,253
Combo2 : 47,182,247
Combo3 : 91,104,217
Combo4 : 116,207,177

[HitObjects]
96,112,11054,2,0,P|176:80|264:80,1,150,2|0,0:0|0:0,0:0:0:0:
224,168,12022,1,0,0:0:0:0:
208,256,12344,2,0,P|290:255|370:223,1,150,2|8,0:0|0:0,0:0:0:0:
360,56,13635,5,2,0:0:0:0:
272,56,13957,1,0,0:0:0:0:
200,104,14280,1,0,0:0:0:0:
128,160,14602,2,0,B|152:208|104:248|104:248,2,75
56,104,15570,1,8,0:0:0:0:
232,56,16215,5,2,0:0:0:0:
280,128,16538,2,0,L|312:96,2,37.5
192,136,17183,1,0,0:0:0:0:
152,216,17506,1,0,0:0:0:0:
216,280,17828,2,0,L|304:280,1,75,0|8,0:0|0:0,0:0:0:0:
360,224,18473,6,0,L|400:256,2,37.5,0|0|2,0:0|0:0|0:0,0:0:0:0:
360,136,19119,1,0,0:0:0:0:
312,64,19441,1,8,0:0:0:0:
224,64,19764,2,0,P|143:68|72:104,1,150
80,184,20732,1,8,0:0:0:0:
200,320,21377,5,2,0:0:0:0:
288,320,21699,1,0,0:0:0:0:
360,264,22022,2,0,P|376:192|451:141,1,150
432,56,22990,1,0,0:0:0:0:
344,56,23312,1,8,0:0:0:0:
256,56,23635,6,0,L|256:104,2,37.5,0|0|2,0:0|0:0|0:0,0:0:0:0:
168,56,24280,1,0,0:0:0:0:
104,120,24602,2,0,P|72:152|64:184,1,75
152,192,25248,2,0,P|200:248|280:256,1,150,0|8,0:0|0:0,0:0:0:0:
432,184,26538,5,2,0:0:0:0:
376,112,26861,2,0,L|408:80,2,37.5
288,112,27506,2,0,L|261:85,2,37.5
240,192,28151,1,0,0:0:0:0:
176,256,28473,1,8,0:0:0:0:
152,168,28796,6,0,P|128:144|120:96,1,75,0|2,0:0|0:0,0:0:0:0:
192,48,29441,1,0,0:0:0:0:
240,48,29602,2,0,B|352:48|352:48|416:96,1,187.5,8|0,0:0|0:0,0:0:0:0:
416,184,30732,1,0,0:0:0:0:
416,272,31054,1,8,0:0:0:0:
256,336,31699,5,2,0:0:0:0:
176,288,32022,2,0,P|144:272|120:232,1,75,0|8,0:0|0:0,0:0:0:0:
200,200,32667,2,0,P|180:170|179:123,1,75,0|2,0:0|0:0,0:0:0:0:
256,96,33312,1,0,0:0:0:0:
336,64,33635,1,8,0:0:0:0:
336,152,33957,6,0,L|336:232,1,75,0|2,0:0|0:0,0:0:0:0:
336,320,34602,1,0,0:0:0:0:
248,320,34925,2,0,P|216:288|184:280,1,75,8|0,0:0|0:0,0:0:0:0:
96,264,35570,1,2,0:0:0:0:
152,192,35893,2,0,P|168:160|200:128,1,75,0|8,0:0|0:0,0:0:0:0:
360,56,36861,5,2,0:0:0:0:
272,56,37183,2,0,L|232:56,2,37.5,0|0|8,0:0|0:0|0:0,0:0:0:0:
272,144,37828,2,0,L|320:144,2,37.5,0|0|2,0:0|0:0|0:0,0:0:0:0:
224,224,38473,1,0,0:0:0:0:
176,304,38796,2,0,L|256:304,1,75,8|0,0:0|0:0,0:0:0:0:
336,336,39441,6,0,P|368:304|376:264,1,75,2|0,0:0|0:0,0:0:0:0:
400,192,40086,1,8,0:0:0:0:
360,112,40409,1,0,0:0:0:0:
272,80,40732,2,0,P|256:112|224:136,2,75,8|0|2,0:0|0:0|0:0,0:0:0:0:
128,184,42022,5,2,0:0:0:0:
184,256,42344,2,0,L|240:320,1,75,0|2,0:0|0:0,0:0:0:0:
304,256,42990,2,0,L|360:320,1,75,0|2,0:0|0:0,0:0:0:0:
424,256,43635,2,0,L|464:256,2,37.5,0|0|8,0:0|0:0|0:0,0:0:0:0:
456,168,44280,1,0,0:0:0:0:
416,88,44602,1,2,0:0:0:0:
328,88,44925,6,0,L|248:88,1,75,0|8,0:0|0:0,0:0:0:0:
168,128,45570,1,0,0:0:0:0:
128,208,45893,1,2,0:0:0:0:
168,288,46215,2,0,P|208:312|248:312,1,75,0|8,0:0|0:0,0:0:0:0:
328,312,46861,1,0,0:0:0:0:
400,264,47183,6,0,L|400:184,1,75,2|0,0:0|0:0,0:0:0:0:
320,224,47828,2,0,L|320:136,1,75
320,56,48473,2,0,B|200:56|200:56|168:80,1,150,2|8,0:0|0:0,0:0:0:0:
120,144,49441,1,0,0:0:0:0:
120,232,49764,5,4,0:0:0:0:
192,288,50086,2,0,L|272:288,1,75,0|8,0:0|0:0,0:0:0:0:
360,288,50732,2,0,L|400:320,2,37.5,0|0|2,0:0|0:0|0:0,0:0:0:0:
352,200,51377,2,0,L|272:200,1,75,0|8,0:0|0:0,0:0:0:0:
184,200,52022,2,0,L|144:160,2,37.5,0|0|2,0:0|0:0|0:0,0:0:0:0:
184,288,52667,5,0,0:0:0:0:
96,288,52990,1,8,0:0:0:0:
96,200,53312,2,0,L|96:120,1,75,0|0,0:0|0:0,0:0:0:0:
184,112,53957,2,0,L|184:64,2,37.5,0|0|8,0:0|0:0|0:0,0:0:0:0:
272,120,54602,6,0,L|320:120,2,37.5,0|0|2,0:0|0:0|0:0,0:0:0:0:
272,208,55248,2,0,L|272:288,1,75,0|8,0:0|0:0,0:0:0:0:
184,288,55893,1,0,0:0:0:0:
184,200,56215,6,0,L|104:200,1,75,2|0,0:0|0:0,0:0:0:0:
152,120,56861,2,0,L|232:120,1,75,8|0,0:0|0:0,0:0:0:0:
320,120,57506,2,0,B|376:192|280:192|336:264,1,150,2|8,0:0|0:0,0:0:0:0:
272,320,58473,1,0,0:0:0:0:
184,296,58796,2,0,B|144:288|112:296|112:296|88:276|80:224,1,150,0|8,0:0|0:0,0:0:0:0:
112,48,60086,5,2,0:0:0:0:
196,80,60409,2,0,L|196:136,2,37.5,0|0|8,0:0|0:0|0:0,0:0:0:0:
288,76,61054,2,0,L|376:76,1,75,0|2,0:0|0:0,0:0:0:0:
368,164,61699,1,0,0:0:0:0:
316,236,62022,1,8,0:0:0:0:
260,308,62344,1,2,0:0:0:0:
108,212,62990,5,0,0:0:0:0:
172,148,63312,1,8,0:0:0:0:
236,84,63635,1,0,0:0:0:0:
412,120,64280,2,0,P|388:192|412:264,1,150
328,300,65248,1,0,0:0:0:0:
244,336,65570,6,0,L|164:336,1,75,0|8,0:0|0:0,0:0:0:0:
124,256,66215,2,0,L|204:256,1,75,0|2,0:0|0:0,0:0:0:0:
284,232,66861,1,0,0:0:0:0:
372,232,67183,2,0,L|412:264,2,37.5,8|0|0,0:0|0:0|0:0,0:0:0:0:
428,160,67828,1,2,0:0:0:0:
360,100,68151,5,0,0:0:0:0:
272,100,68473,1,8,0:0:0:0:
208,36,68796,2,0,P|180:64|183:104,1,75,0|2,0:0|0:0,0:0:0:0:
188,188,69441,2,0,P|190:227|162:256,1,75,0|8,0:0|0:0,0:0:0:0:
256,280,70086,6,0,L|256:320,2,37.5,0|0|2,0:0|0:0|0:0,0:0:0:0:
344,256,70732,2,0,P|322:230|325:191,1,75,0|8,0:0|0:0,0:0:0:0:
416,196,71377,1,0,0:0:0:0:
416,108,71699,6,0,L|336:108,1,75,2|0,0:0|0:0,0:0:0:0:
280,176,72344,2,0,L|200:176,1,75,8|0,0:0|0:0,0:0:0:0:
140,112,72990,2,0,P|105:179|143:240,1,150,2|8,0:0|0:0,0:0:0:0:
208,292,73957,1,0,0:0:0:0:
284,336,74280,2,0,B|396:336|396:336|420:304,1,150,2|8,0:0|0:0,0:0:0:0:
428,124,75570,5,2,0:0:0:0:
428,216,75893,2,0,L|428:264,2,37.5,0|0|8,0:0|0:0|0:0,0:0:0:0:
336,212,76538,2,0,L|256:212,1,75,0|0,0:0|0:0,0:0:0:0:
264,120,77183,1,0,0:0:0:0:
172,116,77506,2,0,L|172:76,2,37.5,8|0|0,0:0|0:0|0:0,0:0:0:0:
172,208,78151,6,0,L|92:208,1,75,2|0,0:0|0:0,0:0:0:0:
100,300,78796,2,0,L|100:348|100:348,2,37.5,8|0|0,0:0|0:0|0:0,0:0:0:0:
192,300,79441,2,0,B|248:356|280:260|336:308,1,150,0|8,0:0|0:0,0:0:0:0:
336,128,80732,6,0,B|216:128|216:128|192:152,1,150,2|8,0:0|0:0,0:0:0:0:
144,224,81699,1,0,0:0:0:0:
104,304,82022,2,0,B|224:304|224:304|248:280,1,150,2|8,0:0|0:0,0:0:0:0:
296,208,82990,1,0,0:0:0:0:
384,208,83312,1,4,0:0:0:0:
256,192,83473,12,0,86054,0:0:0:0:
