osu file format v12

[General]
AudioFilename: ! Lite OP.mp3
AudioLeadIn: 0
PreviewTime: 49772
Countdown: 0
SampleSet: Soft
StackLeniency: 0.7
Mode: 0
LetterboxInBreaks: 1
WidescreenStoryboard: 0

[Editor]
Bookmarks: 32667,63957,67990,75570
DistanceSpacing: 1.9
BeatDivisor: 4
GridSize: 4

[Metadata]
Title:Kimi e (TV Size)
TitleUnicode:君へ (TV Size)
Artist:ZAQ
ArtistUnicode:ZAQ
Creator:leon1341414
Version:Hard
Source:Chuunibyou demo Koi ga Shitai!
Tags:121561995 cococanro Jerry Opening
BeatmapID:257473
BeatmapSetID:63103

[Difficulty]
HPDrainRate:7
CircleSize:4
OverallDifficulty:7
ApproachRate:7
SliderMultiplier:1.7
SliderTickRate:1

[Events]
//Background and Video events
0,0,"JRSw.jpg",0,0
Video,0,"video.avi"
//Break Periods
//Storyboard Layer 0 (Background)
//Storyboard Layer 1 (Fail)
//Storyboard Layer 2 (Pass)
//Storyboard Layer 3 (Foreground)
//Storyboard Sound Samples
//Background Colour Transformations
3,100,163,162,255

[TimingPoints]
732,645.161290322581,4,2,2,30,1,0
25893,-133.333333333333,4,2,2,30,0,0
26538,-100,4,2,2,30,0,0
48151,-100,4,2,2,40,0,0
49764,-100,4,2,1,50,0,1
72990,-133.333333333333,4,2,2,50,0,1
73635,-100,4,2,2,50,0,1
83312,-100,4,2,2,30,0,0
86054,-100,4,2,2,5,0,0

[Colours]
Combo1 : 181,220,253
Combo2 : 47,182,247
Combo3 : 91,104,217
Combo4 : 116,207,177

[HitObjects]
256,56,11054,2,0,B|296:96|352:104|352:104|296:152,1,170,2|0,0:0|0:0,0:0:0:0:
240,200,12022,1,0,0:0:0:0:
168,248,12344,2,0,B|121:287|121:287|177:295|217:335,1,170,2|8,0:0|0:0,0:0:0:0:
336,280,13474,5,0,0:0:0:0:
336,240,13635,2,0,B|400:160,1,85
392,128,14119,1,0,0:0:0:0:
328,72,14441,1,0,0:0:0:0:
328,72,14602,2,0,P|288:96|232:88,1,85,0|2,0:0|0:0,0:0:0:0:
176,56,15248,2,0,P|165:102|187:148,1,85
208,304,16215,1,2,0:0:0:0:
296,304,16538,5,0,0:0:0:0:
336,304,16700,1,0,0:0:0:0:
376,304,16861,2,0,B|392:264|376:216,1,85,0|0,0:0|0:0,0:0:0:0:
328,152,17506,1,2,0:0:0:0:
256,104,17829,1,0,0:0:0:0:
216,104,17990,1,0,0:0:0:0:
176,104,18151,2,0,P|136:112|88:104,1,85,8|0,0:0|0:0,0:0:0:0:
136,32,18796,5,2,0:0:0:0:
136,120,19119,1,0,0:0:0:0:
136,160,19280,2,0,B|136:256,1,85
136,288,19764,2,0,B|192:288|192:288|248:320|304:288,1,170
248,224,20732,1,8,0:0:0:0:
392,136,21377,5,2,0:0:0:0:
432,64,21699,2,0,B|392:48|344:64,1,85,0|0,0:0|0:0,0:0:0:0:
280,112,22345,1,0,0:0:0:0:
248,144,22506,2,0,B|208:168|216:224|168:245,1,127.5
168,328,23313,1,8,0:0:0:0:
256,328,23635,6,0,L|304:328,1,42.5
328,296,23957,2,0,P|344:256|392:232,1,85
416,312,24602,1,8,0:0:0:0:
416,312,24925,1,0,0:0:0:0:
416,312,25248,2,0,L|336:248,1,85,2|0,0:0|0:0,0:0:0:0:
288,208,25893,2,0,P|344:232|408:200,1,127.5,8|2,0:0|0:0,0:0:0:0:
344,144,26861,6,0,B|344:96,1,42.5
304,112,27183,2,0,B|256:64,1,42.5,0|0,0:0|0:0,0:0:0:0:
248,112,27506,1,0,0:0:0:0:
248,112,27667,2,0,P|192:96|120:120,1,127.5
192,176,28473,1,8,0:0:0:0:
192,264,28796,5,0,0:0:0:0:
232,264,28958,1,0,0:0:0:0:
272,264,29119,2,0,P|312:264|360:240,2,85,2|0|8,0:0|0:0|0:0,0:0:0:0:
296,184,30086,1,0,0:0:0:0:
224,56,30409,1,2,0:0:0:0:
80,80,30732,1,0,0:0:0:0:
64,224,31054,1,8,0:0:0:0:
192,288,31377,1,0,0:0:0:0:
336,288,31699,6,0,P|296:296|248:288,2,85
296,192,32667,1,0,0:0:0:0:
296,192,32990,2,0,P|304:144|288:104,1,85
200,160,33635,1,0,0:0:0:0:
96,160,33958,1,0,0:0:0:0:
144,248,34280,6,0,B|144:160,1,85,2|0,0:0|0:0,0:0:0:0:
144,112,34764,1,0,0:0:0:0:
232,56,35086,1,0,0:0:0:0:
312,112,35409,1,0,0:0:0:0:
312,160,35570,2,0,B|296:208|320:256,1,85,2|8,0:0|0:0,0:0:0:0:
408,200,36215,1,8,0:0:0:0:
352,288,36538,1,0,0:0:0:0:
248,288,36861,1,2,0:0:0:0:
192,200,37183,6,0,B|234:185,1,42.5
241,135,37506,2,2,B|294:116,1,42.5,8|0,0:0|0:0,0:0:0:0:
288,72,37829,2,0,B|292:118|335:139,1,85,0|2,0:0|0:0,0:0:0:0:
432,168,38474,1,0,0:0:0:0:
400,264,38796,1,8,0:0:0:0:
304,240,39119,1,0,0:0:0:0:
256,328,39441,5,2,0:0:0:0:
160,296,39764,2,0,B|152:272|160:248,1,42.5
160,152,40248,1,0,0:0:0:0:
256,192,40570,12,2,42022,0:0:0:0:
376,280,42345,5,0,0:0:0:0:
432,192,42667,1,8,0:0:0:0:
368,112,42990,2,0,B|320:112,1,42.5
168,112,43473,6,0,L|216:112,2,42.5
120,112,43957,1,8,0:0:0:0:
72,200,44280,1,0,0:0:0:0:
176,200,44602,1,2,0:0:0:0:
256,80,44925,5,0,0:0:0:0:
256,136,45087,1,0,0:0:0:0:
256,192,45248,1,8,0:0:0:0:
256,296,45571,2,0,B|256:344,1,42.5
376,192,46215,5,0,0:0:0:0:
256,72,46538,1,8,0:0:0:0:
136,192,46861,1,0,0:0:0:0:
256,312,47183,1,2,0:0:0:0:
152,288,47506,2,0,L|128:248,2,42.5,0|0|8,0:0|0:0|0:0,0:0:0:0:
256,264,48151,1,2,0:0:0:0:
360,288,48473,2,0,L|384:248,2,42.5,2|0|0,0:0|0:0|0:0,0:0:0:0:
256,264,49119,5,8,0:0:0:0:
256,208,49280,1,0,0:0:0:0:
256,152,49441,1,0,0:0:0:0:
256,96,49602,1,0,0:0:0:0:
256,40,49764,1,4,0:0:0:0:
352,96,50087,5,0,0:0:0:0:
448,152,50409,1,8,0:0:0:0:
448,264,50732,5,0,0:0:0:0:
392,264,50893,1,0,0:0:0:0:
336,264,51054,1,2,0:0:0:0:
224,264,51377,2,0,P|216:224|232:176,1,85,0|8,0:0|0:0,0:0:0:0:
144,112,52022,1,0,0:0:0:0:
144,112,52183,1,0,0:0:0:0:
144,112,52344,1,4,0:0:0:0:
256,112,52667,5,0,0:0:0:0:
304,144,52828,2,0,L|304:192,2,42.5,0|8|0,0:0|0:0|0:0,0:0:0:0:
352,112,53312,1,0,0:0:0:0:
400,80,53473,1,0,0:0:0:0:
448,112,53635,6,0,B|448:160,1,42.5,2|0,0:0|0:0,0:0:0:0:
400,216,53957,2,0,L|400:168,1,42.5
360,248,54280,2,0,B|312:248|312:248|288:280,1,85,8|0,0:0|0:0,0:0:0:0:
200,320,54925,5,8,0:0:0:0:
200,320,55248,1,2,0:0:0:0:
168,280,55409,1,0,0:0:0:0:
200,233,55570,1,0,0:0:0:0:
288,136,55893,5,0,0:0:0:0:
168,88,56215,1,2,0:0:0:0:
184,216,56538,1,0,0:0:0:0:
248,64,56861,1,8,0:0:0:0:
120,160,57183,1,0,0:0:0:0:
272,224,57506,2,0,B|320:224|320:224|360:272|432:256,1,170,2|8,0:0|0:0,0:0:0:0:
416,96,58473,1,0,0:0:0:0:
416,96,58796,2,0,P|408:144|392:176,1,85,2|0,0:0|0:0,0:0:0:0:
272,280,59441,5,8,0:0:0:0:
232,280,59602,1,0,0:0:0:0:
176,280,59764,2,0,B|128:280|128:280|96:248,1,85,0|2,0:0|0:0,0:0:0:0:
104,144,60409,2,0,L|64:176,2,42.5,0|0|8,0:0|0:0|0:0,0:0:0:0:
152,112,60893,1,0,0:0:0:0:
208,112,61054,2,0,P|248:120|296:112,1,85
440,184,61700,5,0,0:0:0:0:
336,304,62022,1,8,0:0:0:0:
272,152,62344,2,0,P|280:104|264:64,2,85,0|2|0,0:0|0:0|0:0,0:0:0:0:
112,152,63312,5,8,0:0:0:0:
192,288,63635,1,0,0:0:0:0:
352,288,63958,2,0,B|375:234,1,42.5,2|0,0:0|0:0,0:0:0:0:
384,200,64280,2,0,B|358:147,1,42.5
336,112,64602,2,0,P|296:128|256:104,1,85,8|0,0:0|0:0,0:0:0:0:
152,112,65248,1,2,0:0:0:0:
152,224,65570,6,0,L|104:224,2,42.5,0|0|8,0:0|0:0|0:0,0:0:0:0:
208,224,66054,2,0,L|256:224,1,42.5
304,224,66377,2,0,B|344:224|344:224|384:256,1,85
416,288,66861,5,0,0:0:0:0:
416,176,67183,1,8,0:0:0:0:
376,136,67344,2,0,L|344:104,1,42.5
304,64,67667,1,0,0:0:0:0:
264,224,68151,5,0,0:0:0:0:
208,224,68473,1,8,0:0:0:0:
152,224,68796,1,0,0:0:0:0:
96,224,69119,2,0,L|96:176,1,42.5,2|0,0:0|0:0,0:0:0:0:
240,120,69441,2,0,L|240:168,1,42.5
400,160,69764,2,0,B|440:160|440:160|472:200,1,85,8|0,0:0|0:0,0:0:0:0:
408,288,70409,6,0,P|368:272|328:288,1,85,2|0,0:0|0:0,0:0:0:0:
280,312,70893,2,0,P|240:304|208:264,1,85
184,224,71377,1,0,0:0:0:0:
104,88,71699,1,2,0:0:0:0:
264,88,72022,1,0,0:0:0:0:
352,224,72344,1,8,0:0:0:0:
432,80,72667,1,0,0:0:0:0:
264,88,72990,6,0,P|280:144|264:216,1,127.500004863739,2|8,0:0|0:0,0:0:0:0:
168,152,73957,1,0,0:0:0:0:
168,152,74280,2,0,L|344:152,1,170,2|8,0:0|0:0,0:0:0:0:
336,40,75248,1,0,0:0:0:0:
224,40,75570,5,4,0:0:0:0:
152,128,75893,2,0,L|104:128,2,42.5,0|0|8,0:0|0:0|0:0,0:0:0:0:
192,168,76377,2,0,L|240:168,2,42.5
152,208,76861,2,0,B|168:248|168:248|152:296,1,85,2|0,0:0|0:0,0:0:0:0:
208,288,77344,2,0,B|256:288,1,42.5,0|8,0:0|0:0,0:0:0:0:
304,288,77667,2,0,B|328:248,1,42.5
352,208,77990,1,0,0:0:0:0:
256,152,78312,5,0,0:0:0:0:
280,72,78473,2,0,L|312:40,1,42.5
232,72,78796,2,0,L|200:40,2,42.5,8|0|0,0:0|0:0|0:0,0:0:0:0:
256,232,79441,2,0,L|256:144,2,85,2|0|8,0:0|0:0|0:0,0:0:0:0:
376,56,80732,6,0,B|264:56|264:56|200:88,1,170,2|8,0:0|0:0,0:0:0:0:
120,136,81699,1,0,0:0:0:0:
120,248,82022,2,0,B|232:247|232:247|295:216,1,170,2|8,0:0|0:0,0:0:0:0:
396,220,82990,1,0,0:0:0:0:
256,192,83312,12,0,86053,0:0:0:0:
