osu file format v12

[General]
AudioFilename: ! Lite OP.mp3
AudioLeadIn: 0
PreviewTime: 49772
Countdown: 0
SampleSet: Soft
StackLeniency: 0.7
Mode: 0
LetterboxInBreaks: 1
WidescreenStoryboard: 0

[Editor]
DistanceSpacing: 0.9
BeatDivisor: 4
GridSize: 4

[Metadata]
Title:Kimi e (TV Size)
TitleUnicode:君へ (TV Size)
Artist:ZAQ
ArtistUnicode:ZAQ
Creator:leon1341414
Version:Easy
Source:Chuunibyou demo koi ga shitai
Tags:121561995 cococanro Jerry
BeatmapID:257472
BeatmapSetID:63103

[Difficulty]
HPDrainRate:3
CircleSize:3
OverallDifficulty:3
ApproachRate:3
SliderMultiplier:1.4
SliderTickRate:1

[Events]
//Background and Video events
0,0,"JRSw.jpg",0,0
Video,0,"video.avi"
//Break Periods
//Storyboard Layer 0 (Background)
//Storyboard Layer 1 (Fail)
//Storyboard Layer 2 (Pass)
//Storyboard Layer 3 (Foreground)
//Storyboard Sound Samples
//Background Colour Transformations
3,100,163,162,255

[TimingPoints]
732,645.161290322581,4,2,2,30,1,0
47828,-100,4,2,2,40,0,0
49764,-100,4,2,1,50,0,1
60086,-100,4,2,2,50,0,0
65248,-100,4,2,2,50,0,1
83312,-100,4,2,2,30,0,0
86054,-100,4,2,1,5,0,0

[Colours]
Combo1 : 181,220,253
Combo2 : 47,182,247
Combo3 : 91,104,217
Combo4 : 116,207,177

[HitObjects]
128,220,11054,6,0,B|232:316,1,140,2|0,0:0|0:0,0:0:0:0:
268,196,12344,2,0,B|156:92,1,140,0|8,0:0|0:0,0:0:0:0:
284,56,13635,2,0,L|392:156,1,140
384,276,14925,1,0,0:0:0:0:
264,236,15570,1,8,0:0:0:0:
216,352,16215,38,0,P|156:304|136:245,1,140,2|0,0:0|0:0,0:0:0:0:
28,180,17506,2,0,P|84:129|145:119,1,140,0|8,0:0|0:0,0:0:0:0:
240,36,18796,2,0,P|272:104|252:176,1,140,2|0,0:0|0:0,0:0:0:0:
192,272,20086,1,0,0:0:0:0:
424,176,21377,6,0,B|424:320|224:176|224:324,1,280,2|0,0:0|0:0,0:0:0:0:
172,196,23312,1,8,0:0:0:0:
48,172,23957,2,0,B|48:28|247:171|248:24,1,280,2|0,0:0|0:0,0:0:0:0:
368,80,25893,1,8,0:0:0:0:
376,204,26538,1,2,0:0:0:0:
372,328,27183,6,0,P|256:263|136:327,1,280,0|8,0:0|0:0,0:0:0:0:
60,224,29119,1,2,0:0:0:0:
180,184,29764,2,0,B|244:112|380:236|444:112,1,280,0|8,0:0|0:0,0:0:0:0:
328,60,31699,37,2,0:0:0:0:
204,60,32344,2,0,B|60:60,1,140,0|0,0:0|0:0,0:0:0:0:
64,188,33635,2,0,B|64:332,1,140,8|2,0:0|0:0,0:0:0:0:
188,328,34925,2,0,B|332:328,1,140,0|2,0:0|0:0,0:0:0:0:
412,232,36215,1,8,0:0:0:0:
376,112,36861,22,0,B|264:208,1,140,0|0,0:0|0:0,0:0:0:0:
144,192,38151,2,0,B|256:100,1,140,2|8,0:0|0:0,0:0:0:0:
128,92,39441,2,0,B|20:184,1,140,2|0,0:0|0:0,0:0:0:0:
20,308,40732,1,2,0:0:0:0:
256,220,42022,22,0,B|360:324,1,140,4|2,0:0|0:0,0:0:0:0:
380,196,43312,2,0,B|280:92,1,140,0|8,0:0|0:0,0:0:0:0:
156,96,44602,1,2,0:0:0:0:
52,164,45248,6,0,B|92:228|172:220,1,140,2|0,0:0|0:0,0:0:0:0:
244,324,46538,2,0,B|305:274|300:202,1,140,8|0,0:0|0:0,0:0:0:0:
372,100,47828,2,0,B|228:100,1,140,0|2,0:0|0:0,0:0:0:0:
104,100,49119,1,8,0:0:0:0:
160,212,49764,5,4,0:0:0:0:
132,336,50409,2,0,P|204:336|258:298,1,140,8|2,0:0|0:0,0:0:0:0:
384,312,51699,2,0,P|375:244|323:193,1,140,8|2,0:0|0:0,0:0:0:0:
220,128,52990,1,8,0:0:0:0:
96,152,53635,2,0,L|95:224,1,70,2|0,0:0|0:0,0:0:0:0:
160,224,54280,2,0,L|160:296,1,70,8|0,0:0|0:0,0:0:0:0:
224,292,54925,6,0,L|376:292,1,140,2|8,0:0|0:0,0:0:0:0:
300,184,56215,2,0,L|444:184,1,140,0|8,0:0|0:0,0:0:0:0:
368,80,57506,1,2,0:0:0:0:
244,84,58151,2,0,L|132:180,1,140,8|0,0:0|0:0,0:0:0:0:
168,296,59441,1,8,0:0:0:0:
292,296,60086,5,2,0:0:0:0:
408,248,60732,2,0,B|408:100,1,140,8|2,0:0|0:0,0:0:0:0:
344,104,61699,2,0,B|344:20,2,70,0|8|2,0:0|0:0|0:0,0:0:0:0:
216,104,62990,38,0,B|144:104,2,70,0|8|0,0:0|0:0|0:0,0:0:0:0:
256,224,64280,2,0,B|104:224|104:224,1,140,8|8,0:0|0:0,0:0:0:0:
116,160,65248,5,4,0:0:0:0:
228,104,65893,2,0,P|300:104|356:144,1,140,8|2,0:0|0:0,0:0:0:0:
356,268,67183,2,0,P|308:316|228:316,1,140,8|2,0:0|0:0,0:0:0:0:
172,212,68473,1,0,0:0:0:0:
64,144,69119,2,0,L|64:216,2,70,0|2|8,0:0|0:0|0:0,0:0:0:0:
152,56,70409,6,0,B|304:56,1,140,2|8,0:0|0:0,0:0:0:0:
344,172,71699,2,0,B|200:172,1,140,2|8,0:0|0:0,0:0:0:0:
156,288,72990,2,4,B|296:288,1,140,2|8,0:0|0:0,0:0:0:0:
420,288,74280,1,2,0:0:0:0:
288,72,75570,5,0,0:0:0:0:
176,128,76215,1,8,0:0:0:0:
280,200,76861,1,0,0:0:0:0:
172,264,77506,1,8,0:0:0:0:
280,332,78151,6,0,B|424:332,1,140,2|8,0:0|0:0,0:0:0:0:
420,208,79441,2,0,B|464:144|416:64,1,140,0|8,0:0|0:0,0:0:0:0:
316,144,80732,2,0,B|172:143,1,140,2|8,0:0|0:0,0:0:0:0:
96,244,82022,1,0,0:0:0:0:
204,308,82667,1,8,0:0:0:0:
256,192,83312,12,0,86054,0:0:0:0:
