osu file format v12

[General]
AudioFilename: Kimi e.mp3
AudioLeadIn: 1500
PreviewTime: 50085
Countdown: 0
SampleSet: Soft
StackLeniency: 0.7
Mode: 0
LetterboxInBreaks: 0

[Editor]
DistanceSpacing: 1
BeatDivisor: 4
GridSize: 4

[Metadata]
Title:Kimi e (TV Size)
TitleUnicode:君へ (TV Size)
Artist:ZAQ
ArtistUnicode:ZAQ
Creator:Sekai-nyan
Version:Hard
Source:Chu-2 byo demo KOI ga shitai! Lite
Tags:Rikka Takanashi chuunibyou opening Sekai alacat CXu NoHitter
BeatmapID:215341
BeatmapSetID:76395

[Difficulty]
HPDrainRate:5
CircleSize:4
OverallDifficulty:5
ApproachRate:6
SliderMultiplier:1.6
SliderTickRate:1

[Events]
//Background and Video events
Video,0,"video.flv"
0,0,"BG.jpg",0,0
//Break Periods
//Storyboard Layer 0 (Background)
//Storyboard Layer 1 (Fail)
//Storyboard Layer 2 (Pass)
//Storyboard Layer 3 (Foreground)
//Storyboard Sound Samples
//Background Colour Transformations
3,100,163,162,255

[TimingPoints]
-1527,645.161290322581,4,2,1,70,1,0
1053,-100,4,2,1,40,0,0
4118,-100,4,2,1,20,0,0
4763,-100,4,2,2,40,0,0
50085,-100,4,2,1,60,0,1
60408,-100,4,2,1,60,0,0
65569,-100,4,2,1,60,0,1
75892,-100,4,2,1,60,0,0
80247,-100,4,2,1,50,0,0
80569,-100,4,2,1,60,0,0
86214,-100,4,2,1,40,0,0

[Colours]
Combo1 : 204,87,113
Combo2 : 142,226,254
Combo3 : 94,88,134
Combo4 : 251,250,193
SliderBorder : 235,235,235

[HitObjects]
88,324,1053,2,0,P|68:292|76:236,1,80,2|0,0:0|0:0,0:0:0:0:
72,172,1698,1,0,0:0:0:0:
48,88,2021,2,0,P|96:88|136:120,1,80,0|2,0:0|0:0,0:0:0:0:
252,212,3311,5,0,0:0:0:0:
292,224,3473,1,0,0:0:0:0:
328,208,3634,2,0,P|384:208|428:296,1,160,2|0,0:0|0:0,0:0:0:0:
348,288,4602,1,2,0:0:0:0:
288,144,5247,1,0,0:0:0:0:
232,88,5569,2,0,P|188:72|140:80,1,80,2|0,0:0|0:0,0:0:0:0:
72,52,6214,6,0,P|72:108|108:136,1,80,2|0,0:0|0:0,0:0:0:0:
84,204,6860,1,0,0:0:0:0:
84,204,7182,2,0,P|88:248|64:280,1,80,0|2,0:0|0:0,0:0:0:0:
124,332,7827,5,0,0:0:0:0:
204,316,8150,1,0,0:0:0:0:
276,348,8473,1,0,0:0:0:0:
268,268,8795,6,0,P|344:288|360:360,2,160,2|0|2,0:0|0:0|0:0,0:0:0:0:
56,140,11376,5,2,0:0:0:0:
88,68,11698,1,0,0:0:0:0:
168,76,12021,2,0,P|220:88|264:72,1,80,0|0,0:0|0:0,0:0:0:0:
312,40,12666,2,0,P|324:88|308:128,1,80,2|0,0:0|0:0,0:0:0:0:
368,176,13311,2,0,P|328:200|280:192,1,80,8|0,0:0|0:0,0:0:0:0:
256,196,13794,1,0,0:0:0:0:
216,196,13956,5,2,0:0:0:0:
184,272,14279,2,0,P|132:264|92:288,1,80
60,336,14924,1,0,0:0:0:0:
32,260,15247,2,0,P|8:216|12:188,1,80,2|0,0:0|0:0,0:0:0:0:
36,112,15892,2,0,P|68:80|112:72,1,80,8|0,0:0|0:0,0:0:0:0:
172,36,16537,5,2,0:0:0:0:
244,72,16860,1,0,0:0:0:0:
278,90,17021,1,0,0:0:0:0:
316,80,17182,2,0,P|368:80|400:100,1,80
440,160,17827,2,0,P|468:244|420:304,1,160,2|8,0:0|0:0,0:0:0:0:
352,316,18795,1,0,0:0:0:0:
316,328,18956,1,0,0:0:0:0:
276,324,19118,6,0,P|232:316|188:328,1,80,2|0,0:0|0:0,0:0:0:0:
160,344,19602,2,0,P|116:356|64:340,1,80
52,324,20085,1,0,0:0:0:0:
52,244,20408,2,0,P|76:160|40:92,1,160,2|8,0:0|0:0,0:0:0:0:
88,28,21376,1,0,0:0:0:0:
156,68,21698,6,0,B|212:56|252:92|324:68,1,160,2|0,0:0|0:0,0:0:0:0:
388,40,22666,2,0,P|396:88|376:124,1,80,0|2,0:0|0:0,0:0:0:0:
328,172,23311,2,0,P|376:196|416:184,1,80,0|8,0:0|0:0,0:0:0:0:
448,256,23956,1,0,0:0:0:0:
448,256,24118,1,0,0:0:0:0:
448,256,24279,6,0,P|428:308|328:312,1,160,2|0,0:0|0:0,0:0:0:0:
264,352,25247,2,0,P|240:320|232:280,1,80,0|2,0:0|0:0,0:0:0:0:
192,212,25892,1,0,0:0:0:0:
124,252,26214,2,0,P|84:264|48:252,2,80,8|0|2,0:0|0:0|0:0,0:0:0:0:
124,172,27182,6,0,L|136:120,1,40
144,92,27505,1,0,0:0:0:0:
212,48,27827,1,0,0:0:0:0:
276,96,28150,2,0,P|324:104|364:80,2,80,2|0|8,0:0|0:0|0:0,0:0:0:0:
212,48,29118,1,0,0:0:0:0:
132,52,29440,6,0,P|76:48|40:136,1,160,2|0,0:0|0:0,0:0:0:0:
52,212,30408,2,0,P|103:250|190:227,1,160,2|0,0:0|0:0,0:0:0:0:
256,272,31376,1,8,0:0:0:0:
272,192,31698,1,0,0:0:0:0:
340,236,32021,6,0,P|388:256|428:248,1,80,2|0,0:0|0:0,0:0:0:0:
472,196,32666,2,0,P|424:176|384:184,1,80,8|0,0:0|0:0,0:0:0:0:
340,124,33311,1,2,0:0:0:0:
272,84,33634,2,0,L|188:84,1,80,0|8,0:0|0:0,0:0:0:0:
112,68,34279,2,0,L|84:104,1,40
68,132,34602,5,2,0:0:0:0:
24,200,34924,2,0,P|28:256|56:280,1,80,0|8,0:0|0:0,0:0:0:0:
80,344,35569,1,0,0:0:0:0:
148,300,35892,2,0,B|208:292|256:328|316:304,1,160,2|8,0:0|0:0,0:0:0:0:
384,332,36860,1,0,0:0:0:0:
420,320,37021,1,0,0:0:0:0:
432,284,37182,6,0,P|440:232|416:188,1,80,2|0,0:0|0:0,0:0:0:0:
496,160,37827,2,0,P|424:128|356:176,1,160,8|2,0:0|0:0,0:0:0:0:
284,148,38795,1,0,0:0:0:0:
212,188,39118,2,0,L|128:156,1,80,8|0,0:0|0:0,0:0:0:0:
100,148,39602,1,0,0:0:0:0:
64,136,39763,5,2,0:0:0:0:
60,216,40085,2,0,P|52:272|80:312,1,80,0|8,0:0|0:0,0:0:0:0:
120,348,40731,1,0,0:0:0:0:
188,304,41053,2,0,P|256:273|339:322,1,160,2|8,0:0|0:0,0:0:0:0:
400,348,42021,1,0,0:0:0:0:
448,280,42343,5,2,0:0:0:0:
460,200,42666,2,0,P|476:152|464:108,1,80,0|8,0:0|0:0,0:0:0:0:
412,68,43311,1,0,0:0:0:0:
372,80,43473,1,0,0:0:0:0:
336,92,43634,2,0,P|288:108|180:88,1,160,2|8,0:0|0:0,0:0:0:0:
112,52,44602,1,0,0:0:0:0:
48,96,44924,5,2,0:0:0:0:
32,176,45247,2,0,L|24:220,1,40
20,256,45569,1,8,0:0:0:0:
72,316,45892,1,0,0:0:0:0:
72,316,46053,1,0,0:0:0:0:
72,316,46214,2,0,P|152:300|228:328,1,160,2|8,0:0|0:0,0:0:0:0:
304,316,47182,1,0,0:0:0:0:
348,248,47505,6,0,P|368:192|324:96,1,160,2|8,0:0|3:0,0:0:0:0:
256,80,48473,1,8,3:0:0:0:
176,96,48795,2,0,P|112:112|40:60,2,160,2|8|4,0:0|3:0|0:0,0:0:0:0:
160,216,50408,5,0,0:0:0:0:
160,216,50569,1,0,0:0:0:0:
160,216,50731,2,0,P|124:272|180:344,1,160,8|2,0:0|0:0,0:0:0:0:
244,304,51698,1,0,0:0:0:0:
308,348,52021,2,0,P|320:304|312:264,1,80,10|0,0:0|0:0,0:0:0:0:
332,236,52505,6,0,P|372:160|296:92,1,200,0|8,0:0|0:0,0:0:0:0:
232,136,53634,1,0,0:0:0:0:
232,136,53795,1,0,0:0:0:0:
232,136,53956,2,0,P|224:88|240:48,1,80,2|0,0:0|0:0,0:0:0:0:
304,92,54602,1,10,0:0:0:0:
356,32,54924,1,0,0:0:0:0:
404,96,55247,5,4,0:0:0:0:
352,156,55569,1,0,0:0:0:0:
372,192,55731,1,0,0:0:0:0:
384,232,55892,2,0,P|372:316|300:352,1,160,8|2,0:0|0:0,0:0:0:0:
256,292,56860,2,0,L|172:292,1,80,0|10,0:0|0:0,0:0:0:0:
112,340,57505,2,0,P|96:296|108:252,1,80,0|2,0:0|0:0,0:0:0:0:
156,204,58150,5,0,0:0:0:0:
100,148,58473,1,8,0:0:0:0:
132,76,58795,1,0,0:0:0:0:
132,76,58956,1,0,0:0:0:0:
132,76,59118,2,0,P|192:48|284:84,2,160,2|8|4,0:0|0:0|0:0,0:0:0:0:
100,148,60731,5,0,0:0:0:0:
160,204,61053,1,8,0:0:0:0:
236,176,61376,1,0,0:0:0:0:
236,176,61698,2,0,P|312:168|364:232,1,160,2|8,0:0|0:0,0:0:0:0:
284,240,62666,1,0,0:0:0:0:
248,312,62989,5,2,0:0:0:0:
324,332,63311,1,0,0:0:0:0:
360,316,63473,1,0,0:0:0:0:
396,332,63634,2,0,P|448:344|512:260,1,160,8|2,0:0|0:0,0:0:0:0:
492,196,64602,5,8,0:0:0:0:
488,156,64763,1,0,0:0:0:0:
480,116,64924,2,0,P|436:88|388:88,1,80,8|8,0:0|0:0,0:0:0:0:
328,80,65569,6,0,P|286:84|242:59,1,80,4|0,0:0|0:0,0:0:0:0:
180,36,66214,1,8,0:0:0:0:
112,84,66537,1,0,0:0:0:0:
80,108,66698,1,8,0:0:0:0:
80,148,66860,1,2,0:0:0:0:
100,224,67182,2,0,L|120:276,1,40
136,296,67505,1,8,0:0:0:0:
208,328,67827,1,0,0:0:0:0:
264,272,68150,6,0,P|312:280|372:188,1,160,2|8,0:0|0:0,0:0:0:0:
288,192,69118,1,0,0:0:0:0:
312,116,69440,1,2,0:0:0:0:
264,52,69763,1,0,0:0:0:0:
264,52,69924,1,0,0:0:0:0:
264,52,70085,2,0,P|204:40|168:56,1,80,8|0,0:0|0:0,0:0:0:0:
108,32,70731,6,0,P|116:84|212:116,1,160,4|8,0:0|0:0,0:0:0:0:
256,180,71698,1,0,0:0:0:0:
212,248,72021,2,0,P|120:281|112:333,1,160,2|8,0:0|0:0,0:0:0:0:
192,328,72989,1,0,0:0:0:0:
228,340,73150,1,8,0:0:0:0:
264,320,73311,6,0,P|340:296|420:324,1,160,2|8,0:0|0:0,0:0:0:0:
460,252,74279,1,0,0:0:0:0:
500,184,74602,1,2,0:0:0:0:
468,112,74924,1,0,0:0:0:0:
468,112,75247,2,0,P|420:80|324:108,1,160,8|4,0:0|0:0,0:0:0:0:
252,92,76214,6,0,L|212:76,2,40,0|0|8,0:0|0:0|0:0,0:0:0:0:
256,172,76860,1,0,0:0:0:0:
212,240,77182,2,0,P|206:283|285:326,1,120,2|0,0:0|0:0,0:0:0:0:
300,336,77827,2,0,L|352:360,2,40,8|0|0,0:0|0:0|0:0,0:0:0:0:
356,276,78473,5,2,0:0:0:0:
412,216,78795,1,0,0:0:0:0:
360,156,79118,1,8,0:0:0:0:
304,212,79440,1,0,0:0:0:0:
280,136,79763,2,0,P|252:96|164:140,1,160,2|8,0:0|0:0,0:0:0:0:
84,140,80731,1,0,0:0:0:0:
56,168,80892,1,0,0:0:0:0:
48,208,81053,6,0,P|52:256|152:296,1,160,4|8,0:0|0:0,0:0:0:0:
224,312,82021,1,0,0:0:0:0:
216,232,82343,2,0,P|264:236|306:327,1,160,2|8,0:0|0:0,0:0:0:0:
388,336,83311,1,0,0:0:0:0:
256,192,83634,12,0,86214,0:0:0:0:
