osu file format v11

[General]
AudioFilename: ZAQ.mp3
AudioLeadIn: 1500
PreviewTime: 50085
Countdown: 0
SampleSet: Normal
StackLeniency: 0.3
Mode: 0
LetterboxInBreaks: 1

[Editor]
DistanceSpacing: 0.7
BeatDivisor: 4
GridSize: 4

[Metadata]
Title:Kimi e (TV Size)
TitleUnicode:君へ (TV Size)
Artist:ZAQ
ArtistUnicode:ZAQ
Creator:No_Gu
Version:Hard
Source:Chu-2 byo demo KOI ga shitai! Lite
Tags:Chuunibyou
BeatmapID:179089
BeatmapSetID:59806

[Difficulty]
HPDrainRate:6
CircleSize:4
OverallDifficulty:6
ApproachRate:6
SliderMultiplier:1.6
SliderTickRate:1

[Events]
//Background and Video events
Video,0,"video.flv"
0,0,"BG.png"
//Break Periods
//Storyboard Layer 0 (Background)
//Storyboard Layer 1 (Fail)
//Storyboard Layer 2 (Pass)
//Storyboard Layer 3 (Foreground)
//Storyboard Sound Samples
//Background Colour Transformations
3,100,163,162,255

[TimingPoints]
-1527,645.161290322581,4,2,1,40,1,0
892,-200,4,2,1,40,0,0
4279,-200,4,2,1,5,0,0
4602,-200,4,2,1,40,0,0
5247,-200,4,2,1,25,0,0
5408,-200,4,2,1,40,0,0
6214,-100,4,2,1,40,0,0
10085,-200,4,2,1,40,0,0
10247,-200,4,2,1,5,0,0
11376,-117.647058823529,4,2,2,30,0,0
32021,-117.647058823529,4,1,1,50,0,0
36860,-117.647058823529,4,2,2,50,0,0
37021,-117.647058823529,4,1,1,50,0,0
39118,-117.647058823529,4,2,1,50,0,0
39440,-117.647058823529,4,1,1,50,0,0
41214,-117.647058823529,4,2,1,50,0,0
41376,-117.647058823529,4,1,1,50,0,0
41537,-117.647058823529,4,2,1,50,0,0
41698,-117.647058823529,4,1,1,50,0,0
44279,-117.647058823529,4,2,1,50,0,0
44440,-117.647058823529,4,1,1,50,0,0
45892,-117.647058823529,4,2,1,50,0,0
46214,-117.647058823529,4,1,1,50,0,0
46537,-117.647058823529,4,2,1,50,0,0
46698,-117.647058823529,4,1,1,50,0,0
46860,-117.647058823529,4,2,1,50,0,0
47505,-117.647058823529,4,1,1,50,0,0
47989,-117.647058823529,4,2,1,40,0,0
48150,-117.647058823529,4,1,1,30,0,0
48311,-117.647058823529,4,1,1,50,0,0
49440,-117.647058823529,4,2,1,50,0,0
50085,-100,4,2,1,70,0,1
65085,-100,4,1,1,70,0,1
65408,-100,4,2,1,70,0,0
65569,-100,4,2,1,70,0,1
83634,-100,4,2,1,70,0,0
85731,-100,4,1,1,50,0,0
86214,-100,4,2,1,5,0,0

[Colours]
Combo1 : 0,128,128
Combo2 : 128,255,128
Combo3 : 0,128,255
Combo4 : 128,128,255

[HitObjects]
128,204,892,2,0,B|144:208,2,10,0|0|2,0:0|0:0|0:0,0:0:0
51,179,1376,1,0,0:0:0
51,99,1698,1,2,0:0:0
128,74,2021,1,0,0:0:0
175,139,2343,1,2,0:0:0
175,139,3311,5,0,0:0:0
240,92,3473,1,2,0:0:0
316,112,3634,2,0,B|292:144|304:196|344:212,1,120,0|2,0:0|0:0,0:0:0
176,139,5247,5,2,0:0:0
89,257,5569,1,0,0:0:0
29,123,5892,1,0,0:0:0
100,173,6214,5,2,0:0:0
161,121,6537,1,0,0:0:0
234,154,6860,1,2,0:0:0
236,234,7183,1,0,0:0:0
320,341,7504,5,2,0:0:0
244,314,7827,1,0,0:0:0
236,235,8150,1,2,0:0:0
305,193,8473,1,0,0:0:0
355,67,8795,5,2,0:0:0
370,146,9118,1,0,0:0:0
305,193,9441,1,2,0:0:0
234,154,9764,1,0,0:0:0
177,211,10085,6,0,B|96:208,1,80,2|0,0:0|0:0,0:0:0
288,64,11376,5,2,0:0:0
348,112,11698,2,0,B|384:116|416:104,1,68.0000012969971,0|0,0:0|0:0,0:0:0
276,136,12343,1,0,0:0:0
264,152,12505,1,0,0:0:0
252,168,12666,2,0,B|264:268,1,102.000001945496,2|0,0:0|0:0,0:0:0
264,269,13311,1,8,0:0:0
136,204,13795,1,0,0:0:0
136,204,13956,6,0,B|100:196|80:168,1,68.0000012969971,2|0,0:0|0:0,0:0:0
64,116,14440,2,0,B|88:168|48:212,1,102.000001945496,2|0,0:0|0:0,0:0:0
92,280,15247,2,0,B|228:264,1,136.000002593994,2|8,0:0|0:0,0:0:0
320,112,16537,5,2,0:0:0
352,188,16860,1,0,0:0:0
368,204,17021,1,0,0:0:0
384,216,17182,2,0,B|416:224|452:212,2,68.0000012969971,0|0|2,0:0|0:0|0:0,0:0:0
272,176,18150,2,0,B|240:172,1,34.0000006484985
164,196,18473,2,0,B|152:160|172:128,1,68.0000012969971,8|0,0:0|0:0,0:0:0
184,112,18956,1,0,0:0:0
200,100,19118,6,0,B|216:96|236:96|236:96|268:100,1,68.0000012969971,2|0,0:0|0:0,0:0:0
312,80,19602,2,0,B|332:52|320:16,1,68.0000012969971,2|0,0:0|0:0,0:0:0
348,20,20085,2,0,B|384:28|416:16,1,68.0000012969971,2|0,0:0|0:0,0:0:0
500,96,20731,2,0,B|464:88|432:100,1,68.0000012969971,0|8,0:0|0:0,0:0:0
248,156,21698,6,0,B|268:188|256:224,1,68.0000012969971,2|0,0:0|0:0,0:0:0
140,176,22343,2,0,B|120:144|132:108,1,68.0000012969971,0|0,0:0|0:0,0:0:0
176,80,22827,2,0,B|128:104|76:88,1,102.000001945496,2|0,0:0|0:0,0:0:0
24,148,23634,2,0,B|32:256,1,102.000001945496,8|0,0:0|0:0,0:0:0
64,284,24279,6,0,B|96:300|132:288,1,68.0000012969971,2|0,0:0|0:0,0:0:0
216,224,24924,2,0,B|248:208|284:220,1,68.0000012969971,2|0,0:0|0:0,0:0:0
304,240,25408,1,0,0:0:0
320,272,25569,2,0,B|448:212,1,136.000002593994,2|8,0:0|0:0,0:0:0
256,56,26860,5,2,0:0:0
168,40,27182,2,0,B|136:36,1,34.0000006484985,0|0,0:0|0:0,0:0:0
96,56,27505,2,0,B|64:60,1,34.0000006484985,2|0,0:0|0:0,0:0:0
24,68,27827,1,0,0:0:0
8,104,27989,2,0,B|32:128|44:168|24:224,1,102.000001945496,2|0,0:0|0:0,0:0:0
4,280,28795,1,8,0:0:0
88,268,29118,1,0,0:0:0
88,268,29279,1,0,0:0:0
88,268,29440,6,0,B|160:272,1,68.0000012969971,2|0,0:0|0:0,0:0:0
192,244,29924,2,0,B|164:192|192:144,1,102.000001945496,2|0,0:0|0:0,0:0:0
264,196,30731,1,2,0:0:0
272,112,31053,1,0,0:0:0
272,112,31214,1,0,0:0:0
272,112,31376,2,0,B|340:108,1,68.0000012969971,8|0,0:0|0:0,0:0:0
364,216,32021,6,0,B|368:168|436:152|468:192,1,136.000002593994,2|8,0:0|0:0,0:0:0
432,264,32989,1,0,0:0:0
432,264,33150,1,0,0:0:0
432,264,33311,2,0,B|432:336,1,68.0000012969971,2|2,0:0|0:0,0:0:0
256,308,34279,1,0,0:0:0
188,248,34602,6,0,B|188:180,1,68.0000012969971,2|0,0:0|0:0,0:0:0
176,164,35085,1,0,0:0:0
164,148,35247,2,0,B|128:160|96:152,1,68.0000012969971,8|0,0:0|0:0,0:0:0
32,96,35892,2,0,B|32:28,1,68.0000012969971,2|2,0:0|0:0,0:0:0
248,120,36860,2,0,B|284:128|316:112,1,68.0000012969971,2|2,0:0|0:0,0:0:0
388,140,37505,6,0,B|384:176,3,34.0000006484985,0|0|8|0,0:0|0:0|0:0|0:0,0:0:0
412,204,38150,2,0,B|416:244,1,34.0000006484985
448,272,38473,2,0,B|484:280|520:268,1,68.0000012969971,2|2,0:0|0:0,0:0:0
484,136,39118,1,2,0:0:0
368,68,39440,1,0,0:0:0
264,156,39763,6,0,B|232:164|196:152,1,68.0000012969971,2|0,0:0|0:0,0:0:0
172,136,40247,1,0,0:0:0
148,116,40408,1,8,0:0:0
76,96,40569,6,0,B|48:104|28:144|40:180,1,102.000001945496,0|2,0:0|0:0,0:0:0
36,228,41214,2,0,B|12:252,2,34.0000006484985,2|2|2,0:0|0:0|0:0,0:0:0
76,236,41698,1,0,0:0:0
216,104,42343,6,0,B|224:208,1,102.000001945496,2|2,0:0|0:0,0:0:0
260,236,42989,2,0,B|296:244|328:228,1,68.0000012969971,8|0,0:0|0:0,0:0:0
360,200,43473,2,0,B|432:204,2,68.0000012969971,0|2|2,0:0|0:0|0:0,0:0:0
304,148,44279,2,0,B|292:112|304:80,1,68.0000012969971,2|0,0:0|0:0,0:0:0
188,124,44924,6,0,B|208:172|188:224,1,102.000001945496,2|2,0:0|0:0,0:0:0
152,244,45569,2,0,B|84:232,1,68.0000012969971,8|0,0:0|0:0,0:0:0
85,232,46053,1,2,0:0:0
200,312,46376,1,2,0:0:0
200,312,46537,1,2,0:0:0
200,312,46698,2,0,B|240:308,1,34.0000006484985
308,252,47182,1,2,0:0:0
336,156,47505,6,0,B|404:152,1,68.0000012969971,8|0,0:0|0:0,0:0:0
416,164,47989,1,8,3:0:0
428,176,48150,1,4,3:0:0
440,188,48311,1,2,0:0:0
452,200,48473,1,2,0:0:0
464,212,48634,2,0,B|456:320,1,102.000001945496,2|2,0:0|0:0,0:0:0
300,152,49440,2,0,B|312:140,6,17.0000003242493,2|0|2|0|2|0|2,0:0|0:0|0:0|0:0|0:0|0:0|0:0,0:0:0
224,224,50084,5,4,0:0:0
160,144,50407,2,0,B|124:124|80:132,1,80,2|8,0:0|0:0,0:0:0
72,216,51052,2,0,B|92:220|112:208,1,40,2|0,0:0|0:0,0:0:0
232,104,51697,2,0,B|204:20,2,80,2|10|2,0:0|0:0|0:0,0:0:0
296,156,52504,2,0,B|336:172|380:156,1,80,0|0,0:0|0:0,0:0:0
392,144,52989,5,2,0:0:0
408,124,53150,1,0,0:0:0
412,100,53311,1,8,0:0:0
424,120,53473,1,0,0:0:0
436,140,53634,1,2,0:0:0
452,160,53795,1,0,0:0:0
464,180,53956,6,0,B|460:220,1,40
436,256,54279,2,0,B|440:296,1,40,2|0,0:0|0:0,0:0:0
384,344,54602,2,0,B|344:356|304:340,1,80,10|2,0:0|0:0,0:0:0
288,320,55085,1,8,0:0:0
276,296,55247,6,0,B|196:312,1,80,0|2,0:0|0:0,0:0:0
168,304,55731,1,0,0:0:0
144,280,55892,1,8,0:0:0
220,192,56214,2,0,B|236:156|220:112,1,80,2|0,0:0|0:0,0:0:0
144,152,56860,1,2,0:0:0
260,40,57182,2,0,B|296:24|340:40,1,80,10|0,0:0|0:0,0:0:0
380,112,57827,6,0,B|356:276,1,160,2|8,0:0|0:0,0:0:0
260,104,58795,1,2,0:0:0
260,104,58956,1,8,0:0:0
260,104,59118,2,0,B|272:192,1,80,0|2,0:0|0:0,0:0:0
176,148,59763,1,10,0:0:0
176,148,59924,2,0,B|172:228,1,80
108,272,60408,6,0,B|68:284|28:264,1,80,2|0,0:0|0:0,0:0:0
12,236,60892,1,0,0:0:0
4,204,61053,1,8,0:0:0
8,172,61214,1,0,0:0:0
24,144,61376,1,2,0:0:0
52,124,61537,1,0,0:0:0
224,64,62021,2,0,B|304:76,2,80,2|8|0,0:0|0:0|0:0,0:0:0
96,204,62989,6,0,B|80:244|96:288,1,80,2|0,0:0|0:0,0:0:0
176,324,63634,1,8,0:0:0
248,272,63956,1,0,0:0:0
248,272,64602,1,8,0:0:0
340,192,64924,1,8,0:0:0
340,192,65085,1,2,0:0:0
340,192,65247,1,2,0:0:0
376,312,65569,6,0,B|456:312,1,80,4|2,0:0|0:0,0:0:0
484,296,66053,1,0,0:0:0
496,268,66214,1,8,0:0:0
492,236,66376,1,0,0:0:0
476,208,66537,1,2,0:0:0
404,180,66698,1,8,0:0:0
404,180,66860,2,0,B|384:144|396:104,1,80
296,40,67505,2,0,B|260:56,3,40,10|0|0|0,0:0|0:0|0:0|0:0,0:0:0
236,96,68150,6,0,B|196:112|156:96,1,80,2|0,0:0|0:0,0:0:0
136,80,68634,1,0,0:0:0
120,56,68795,1,8,0:0:0
48,192,69118,1,2,0:0:0
48,192,69279,1,8,0:0:0
48,192,69440,6,0,B|128:184,1,80,0|2,0:0|0:0,0:0:0
160,180,69924,1,0,0:0:0
160,180,70085,1,10,0:0:0
216,312,70408,1,2,0:0:0
216,312,70569,1,8,0:0:0
216,312,70731,6,0,B|244:280|232:232,1,80,2|0,0:0|0:0,0:0:0
248,204,71214,1,0,0:0:0
248,204,71376,1,8,0:0:0
328,116,71698,1,2,0:0:0
372,228,72021,2,0,B|412:236|452:224,1,80,2|0,0:0|0:0,0:0:0
500,112,72666,2,0,B|460:104|420:116,1,80,10|0,0:0|0:0,0:0:0
356,64,73150,1,8,0:0:0
356,64,73311,6,0,B|276:60,1,80,2|0,0:0|0:0,0:0:0
192,124,73956,1,8,0:0:0
264,204,74279,2,0,B|288:288|248:360,1,160,2|2,0:0|0:0,0:0:0
380,300,75247,1,10,0:0:0
372,272,75408,1,0,0:0:0
364,244,75569,1,0,0:0:0
356,216,75731,1,0,0:0:0
348,188,75892,5,2,0:0:0
276,96,76214,2,0,B|256:88|236:92,3,40,0|0|8|0,0:0|0:0|0:0|0:0,0:0:0
208,116,76860,1,0,0:0:0
196,140,77021,1,0,0:0:0
172,156,77182,2,0,B|164:188|96:196|76:144,1,120,2|0,0:0|0:0,0:0:0
68,172,77827,1,10,0:0:0
60,200,77989,1,0,0:0:0
52,228,78150,1,0,0:0:0
44,256,78311,1,0,0:0:0
196,304,78634,6,0,B|192:264,3,40,0|2|0|8,0:0|0:0|0:0|0:0,0:0:0
204,240,79279,1,0,0:0:0
216,216,79440,1,0,0:0:0
336,300,79763,2,0,B|372:320|416:308,1,80,2|0,0:0|0:0,0:0:0
436,292,80247,1,0,0:0:0
452,268,80408,1,8,0:0:0
336,140,81053,6,0,B|300:176|216:160|204:104,1,160,2|8,0:0|0:0,0:0:0
284,72,82021,1,0,0:0:0
116,112,82343,1,2,0:0:0
116,112,82989,2,0,B|112:192,1,80,8|2,0:0|0:0,0:0:0
244,288,83634,6,0,B|284:304|328:288,1,80,2|0,0:0|0:0,0:0:0
340,272,84118,1,2,0:0:0
352,256,84279,2,0,B|384:336,1,80,8|0,0:0|0:0,0:0:0
464,344,84924,1,2,0:0:0
500,192,85247,1,0,0:0:0
464,40,85569,1,10,0:0:0
464,40,85730,2,0,P|456:80,1,40,2|2,0:0|0:0,0:0:0
256,192,86214,12,2,87989,0:0:0
