osu file format v14

[General]
AudioFilename: BRAVER ZAQ.mp3
AudioLeadIn: 0
PreviewTime: 42931
Countdown: 1
SampleSet: Soft
StackLeniency: 0.7
Mode: 0
LetterboxInBreaks: 1
WidescreenStoryboard: 0

[Editor]
DistanceSpacing: 0.8
BeatDivisor: 4
GridSize: 32
TimelineZoom: 1.4

[Metadata]
Title:BRAVER (TV SIZE)
TitleUnicode:BRAVER (TV SIZE)
Artist:ZAQ
ArtistUnicode:ZAQ
Creator:Asphyxia
Version:God Tongue
Source:食戟のソーマ 餐ノ皿
Tags:
BeatmapID:1438101
BeatmapSetID:680104

[Difficulty]
HPDrainRate:6
CircleSize:4
OverallDifficulty:8
ApproachRate:9.2
SliderMultiplier:2.5
SliderTickRate:1

[Events]
//Background and Video events
0,0,"pepper.jpg",0,0
//Break Periods
//Storyboard Layer 0 (Background)
//Storyboard Layer 1 (Fail)
//Storyboard Layer 2 (Pass)
//Storyboard Layer 3 (Foreground)
//Storyboard Sound Samples

[TimingPoints]
220,319.148936170213,4,1,0,60,1,0
220,-100,4,2,0,40,0,0
1232,-200,4,2,0,40,0,0
1656,-100,4,2,0,40,0,0
3730,-200,4,2,0,40,0,0
4209,-66.6666666666667,4,2,0,40,0,0
4368,-55.5555555555556,4,2,0,40,0,0
4688,-125,4,2,0,40,0,0
5300,319.148936170213,4,2,0,100,1,0
5300,-100,4,2,0,40,0,0
20459,-125,4,2,0,40,0,0
21098,-100,4,2,0,40,0,0
21736,-76.9230769230769,4,2,0,40,0,0
22215,-71.4285714285714,4,2,0,40,0,0
22534,-100,4,2,0,40,0,0
25566,-125,4,2,0,40,0,0
27002,-71.4285714285714,4,2,0,40,0,0
27640,-71.4285714285714,4,2,0,40,0,0
28279,-100,4,2,0,40,0,0
32746,-83.3333333333333,4,2,0,40,0,0
33065,-71.4285714285714,4,2,0,40,0,0
33385,-100,4,2,0,40,0,0
35938,-500,4,2,0,40,0,0
36417,-100,4,2,0,40,0,0
43597,-83.3333333333333,4,2,0,40,0,1
64023,-83.3333333333333,4,2,0,40,0,0
71204,-71.4285714285714,4,2,0,40,0,0
71682,-71.4285714285714,4,2,0,40,0,1
74236,-71.4285714285714,4,2,0,40,0,0
75512,-100,4,2,0,40,0,0
86842,-500,4,2,0,40,0,0

[Colours]
Combo1 : 255,128,128
Combo2 : 255,255,128
Combo3 : 128,255,128
Combo4 : 255,128,64

[HitObjects]
256,96,220,5,0,0:0:0:0:
256,288,379,1,0,0:0:0:0:
256,96,698,1,0,0:0:0:0:
256,288,858,1,0,0:0:0:0:
256,256,938,1,0,0:0:0:0:
256,224,1017,1,0,0:0:0:0:
256,192,1097,1,0,0:0:0:0:
256,160,1177,1,0,0:0:0:0:
256,128,1257,1,0,0:0:0:0:
256,96,1337,6,0,L|257:47,3,31.25
256,32,1656,5,0,0:0:0:0:
271,79,1735,1,0,0:0:0:0:
307,112,1815,1,0,0:0:0:0:
353,131,1895,1,0,0:0:0:0:
403,127,1975,1,0,0:0:0:0:
443,97,2055,1,0,0:0:0:0:
471,56,2134,5,0,0:0:0:0:
431,26,2214,1,0,0:0:0:0:
381,22,2294,1,0,0:0:0:0:
335,41,2374,1,0,0:0:0:0:
299,74,2454,1,0,0:0:0:0:
284,121,2533,1,0,0:0:0:0:
278,170,2613,1,0,0:0:0:0:
291,218,2693,1,0,0:0:0:0:
323,256,2773,5,0,0:0:0:0:
504,216,2932,1,0,0:0:0:0:
257,362,3251,5,0,0:0:0:0:
438,322,3411,1,0,0:0:0:0:
418,275,3491,1,0,0:0:0:0:
374,250,3571,1,0,0:0:0:0:
323,256,3650,1,0,0:0:0:0:
287,290,3730,6,0,L|274:333,5,31.25
160,224,4209,6,0,B|141:182|141:182|156:131,1,93.7500035762788
404,166,4368,6,0,B|447:105|424:50|387:11|387:11|338:18|285:46|283:120,1,337.499989700318
277,319,4688,6,0,L|285:357,14,25
357,290,5326,6,0,P|268:318|156:192,1,250
404,166,5778,1,0,0:0:0:0:
151,102,5938,2,0,L|98:374,1,250
357,290,6417,1,0,0:0:0:0:
481,85,6576,6,0,P|363:62|294:159,1,250
406,372,7055,2,0,P|438:337|442:250,1,125
205,126,7374,2,0,P|207:187|246:235,1,125
404,166,7693,1,0,0:0:0:0:
281,47,7853,6,0,P|164:23|94:118,1,250
94,117,8331,1,0,0:0:0:0:
87,324,8491,2,0,P|125:276|127:215,1,125
94,117,8810,1,0,0:0:0:0:
87,324,8970,1,0,0:0:0:0:
316,277,9129,2,0,B|346:219|316:142|272:176|247:98|280:47,1,250
369,79,9608,2,0,L|441:92,1,62.5
512,103,9768,5,0,0:0:0:0:
462,110,9847,1,0,0:0:0:0:
424,143,9927,1,0,0:0:0:0:
400,186,10007,1,0,0:0:0:0:
395,235,10087,5,0,0:0:0:0:
354,205,10167,1,0,0:0:0:0:
306,192,10246,1,0,0:0:0:0:
258,206,10326,1,0,0:0:0:0:
228,246,10406,6,0,P|177:336|37:312,1,250
55,54,10885,1,0,0:0:0:0:
0,384,11044,2,0,L|47:109,1,250
228,247,11523,1,0,0:0:0:0:
55,54,11682,6,0,P|114:9|178:22,1,125
228,247,12002,1,0,0:0:0:0:
231,55,12161,2,0,P|240:128|197:177,1,125
399,281,12480,2,0,P|330:252|309:190,1,125
328,16,12800,1,0,0:0:0:0:
328,16,12879,1,0,0:0:0:0:
328,16,12959,5,0,0:0:0:0:
310,209,13119,1,0,0:0:0:0:
490,136,13278,5,0,0:0:0:0:
385,298,13438,1,0,0:0:0:0:
371,110,13597,1,0,0:0:0:0:
496,258,13757,1,0,0:0:0:0:
310,209,13917,1,0,0:0:0:0:
490,136,14076,1,0,0:0:0:0:
385,298,14236,6,0,L|246:280,1,125
107,38,14555,2,0,L|230:54,1,125
310,209,14874,5,0,0:0:0:0:
268,236,14954,1,0,0:0:0:0:
218,241,15034,1,0,0:0:0:0:
172,219,15113,1,0,0:0:0:0:
147,175,15193,5,0,0:0:0:0:
197,171,15273,1,0,0:0:0:0:
241,195,15353,1,0,0:0:0:0:
268,237,15432,1,0,0:0:0:0:
283,284,15512,5,0,0:0:0:0:
283,284,16151,1,0,0:0:0:0:
283,284,16789,1,0,0:0:0:0:
283,284,17427,5,0,0:0:0:0:
313,263,17507,1,0,0:0:0:0:
316,300,17587,1,0,0:0:0:0:
229,100,17746,1,0,0:0:0:0:
199,121,17826,1,0,0:0:0:0:
196,84,17906,1,0,0:0:0:0:
256,192,18065,5,0,0:0:0:0:
256,192,18385,1,0,0:0:0:0:
503,152,18544,1,0,0:0:0:0:
379,171,18704,2,0,P|356:112|384:49,1,125
503,152,19023,1,0,0:0:0:0:
397,311,19182,6,0,L|258:290,1,125
237,311,19502,2,0,L|360:329,1,125
346,77,19821,6,0,L|207:56,1,125
186,77,20140,2,0,L|309:95,1,125
432,219,20459,6,0,L|109:172,1,300
346,77,21097,5,0,0:0:0:0:
346,77,21257,1,0,0:0:0:0:
111,44,21417,2,0,P|168:-2|240:14,1,125
432,219,21736,6,0,B|351:208|351:208|309:180|309:180|245:215|245:215|206:186|206:186|110:173,1,324.999985122681
346,77,22214,6,0,L|260:89,1,81.2499962806703
292,325,22374,2,0,L|378:313,1,87.499997329712
444,66,22534,1,0,0:0:0:0:
432,219,22693,1,0,0:0:0:0:
444,66,22853,1,0,0:0:0:0:
432,219,23012,1,0,0:0:0:0:
256,192,23172,5,0,0:0:0:0:
256,192,23491,1,0,0:0:0:0:
432,219,23651,1,0,0:0:0:0:
256,192,23810,2,0,P|195:229|119:210,1,125
444,66,24129,1,0,0:0:0:0:
178,140,24289,6,0,P|127:105|65:108,1,125
57,78,24608,2,0,P|118:75|169:109,1,125
455,305,24927,6,0,P|393:308|342:274,1,125
334,244,25246,2,0,P|384:278|446:275,1,125
249,188,25565,5,0,0:0:0:0:
249,188,25725,2,0,P|263:134|242:87,1,100
453,119,26044,1,0,0:0:0:0:
289,6,26204,6,0,P|267:28|260:51,1,50
256,95,26363,1,0,0:0:0:0:
275,141,26443,1,0,0:0:0:0:
315,170,26523,1,0,0:0:0:0:
364,174,26603,1,0,0:0:0:0:
409,152,26682,1,0,0:0:0:0:
436,110,26762,1,0,0:0:0:0:
436,60,26842,2,0,P|426:16|415:3,1,50
178,218,27002,6,0,B|137:301|137:301|170:392,2,174.999994659424
345,80,27480,1,0,0:0:0:0:
245,306,27640,6,0,L|331:321,1,87.499997329712
369,301,27800,2,0,L|283:286,1,87.499997329712
84,197,27959,6,0,L|99:111,1,87.499997329712
79,73,28119,2,0,L|64:159,1,87.499997329712
345,80,28278,5,0,0:0:0:0:
345,80,28438,1,0,0:0:0:0:
180,107,28597,1,0,0:0:0:0:
463,56,28757,1,0,0:0:0:0:
246,20,28917,1,0,0:0:0:0:
280,176,29076,1,0,0:0:0:0:
345,80,29236,1,0,0:0:0:0:
166,225,29395,6,0,P|225:288|380:244,1,250
180,107,29874,1,0,0:0:0:0:
150,364,30034,1,0,0:0:0:0:
169,89,30193,1,0,0:0:0:0:
161,382,30353,1,0,0:0:0:0:
280,176,30512,1,0,0:0:0:0:
166,225,30672,6,0,B|226:256|302:223|253:188|334:156|396:189,1,250
504,52,31151,2,0,P|434:94|379:80,1,125
372,301,31470,2,0,P|370:219|410:178,1,125
189,58,31789,1,0,0:0:0:0:
64,210,31948,6,0,B|119:187|161:130|161:130|156:201|180:252,1,250
372,301,32427,1,0,0:0:0:0:
179,250,32587,1,0,0:0:0:0:
251,356,32746,6,0,P|311:297|297:160,1,224.999993133545
249,102,33065,6,0,P|214:57|294:97,1,262.499991989136
300,164,33385,5,0,0:0:0:0:
251,356,33544,1,0,0:0:0:0:
369,232,33704,1,0,0:0:0:0:
178,286,33863,1,0,0:0:0:0:
346,328,34023,1,0,0:0:0:0:
203,191,34182,1,0,0:0:0:0:
251,356,34342,5,0,0:0:0:0:
300,164,34502,2,0,P|211:174|194:43,1,250
461,125,34980,1,0,0:0:0:0:
249,102,35140,1,0,0:0:0:0:
512,187,35300,1,0,0:0:0:0:
300,164,35459,1,0,0:0:0:0:
512,59,35619,1,0,0:0:0:0:
242,222,35778,1,0,0:0:0:0:
378,117,35938,6,0,L|387:185,1,62.5
388,191,36417,5,0,0:0:0:0:
394,234,36496,1,0,0:0:0:0:
399,270,36576,1,0,0:0:0:0:
403,300,36656,1,0,0:0:0:0:
407,324,36736,1,0,0:0:0:0:
409,342,36815,1,0,0:0:0:0:
410,354,36895,1,0,0:0:0:0:
411,360,36975,1,0,0:0:0:0:
412,366,37055,1,0,0:0:0:0:
413,372,37135,1,0,0:0:0:0:
414,378,37214,5,0,0:0:0:0:
512,187,37374,1,0,0:0:0:0:
98,378,37693,5,0,0:0:0:0:
0,187,37853,1,0,0:0:0:0:
33,204,37932,1,0,0:0:0:0:
53,235,38012,1,0,0:0:0:0:
60,271,38092,1,0,0:0:0:0:
52,307,38172,5,0,0:0:0:0:
86,292,38252,1,0,0:0:0:0:
123,297,38331,2,0,P|168:326|175:356,1,62.5
98,378,38651,5,0,0:0:0:0:
414,378,38810,1,0,0:0:0:0:
98,6,39129,5,0,0:0:0:0:
414,6,39289,1,0,0:0:0:0:
98,378,39608,5,0,0:0:0:0:
414,6,39927,1,0,0:0:0:0:
98,6,40246,1,0,0:0:0:0:
414,378,40565,1,0,0:0:0:0:
256,192,41044,5,0,0:0:0:0:
366,134,41204,1,0,0:0:0:0:
377,137,41284,1,0,0:0:0:0:
388,140,41363,1,0,0:0:0:0:
399,143,41443,1,0,0:0:0:0:
410,146,41523,5,0,0:0:0:0:
366,110,41603,1,0,0:0:0:0:
309,104,41682,1,0,0:0:0:0:
264,138,41762,1,0,0:0:0:0:
228,180,41842,1,0,0:0:0:0:
174,199,41922,1,0,0:0:0:0:
118,186,42002,2,0,L|106:104,1,62.5
206,9,42161,2,0,L|215:70,1,62.5
344,193,42321,5,0,0:0:0:0:
402,214,42401,1,0,0:0:0:0:
459,188,42480,1,0,0:0:0:0:
474,127,42560,1,0,0:0:0:0:
448,70,42640,1,0,0:0:0:0:
387,54,42720,1,0,0:0:0:0:
333,86,42800,1,0,0:0:0:0:
314,146,42879,1,0,0:0:0:0:
345,199,42959,5,0,0:0:0:0:
377,259,43039,1,0,0:0:0:0:
363,326,43119,1,0,0:0:0:0:
314,375,43198,1,0,0:0:0:0:
245,383,43278,1,0,0:0:0:0:
186,348,43358,1,0,0:0:0:0:
160,283,43438,1,0,0:0:0:0:
176,215,43518,1,0,0:0:0:0:
230,173,43597,6,0,L|400:201,1,149.999995422363
164,57,43917,2,0,L|15:32,1,149.999995422363
247,260,44236,2,0,B|276:204|247:130|216:175|186:106|214:52,1,224.999993133545
242,18,44555,1,0,0:0:0:0:
474,127,44714,6,0,P|414:186|337:170,1,149.999995422363
242,18,45034,1,0,0:0:0:0:
242,18,45193,1,0,0:0:0:0:
247,260,45353,2,0,P|307:201|384:217,1,149.999995422363
504,354,45672,1,0,0:0:0:0:
334,288,45831,1,0,0:0:0:0:
473,180,45991,1,0,0:0:0:0:
446,285,46151,5,0,0:0:0:0:
383,117,46310,1,0,0:0:0:0:
334,288,46470,1,0,0:0:0:0:
473,180,46629,1,0,0:0:0:0:
403,8,46789,1,0,0:0:0:0:
297,184,46948,1,0,0:0:0:0:
127,70,47108,1,0,0:0:0:0:
297,184,47268,1,0,0:0:0:0:
103,266,47427,5,0,0:0:0:0:
383,117,47587,2,0,B|414:190|414:190|387:263,1,149.999995422363
201,223,47906,1,0,0:0:0:0:
383,117,48065,1,0,0:0:0:0:
87,63,48225,2,0,L|407:121,1,299.999990844727
458,278,48704,6,0,P|390:330|315:311,1,149.999995422363
369,31,49023,2,0,P|448:63|469:138,1,149.999995422363
364,366,49342,2,0,P|330:288|366:144,1,224.999993133545
383,117,49661,1,0,0:0:0:0:
364,366,49821,1,0,0:0:0:0:
161,202,49980,5,0,0:0:0:0:
306,249,50140,1,0,0:0:0:0:
383,117,50300,1,0,0:0:0:0:
30,158,50459,2,0,P|103:156|161:202,1,149.999995422363
431,29,50778,2,0,P|357:26|300:72,1,149.999995422363
306,249,51097,1,0,0:0:0:0:
491,116,51257,5,0,0:0:0:0:
491,116,51417,1,0,0:0:0:0:
335,327,51576,1,0,0:0:0:0:
335,327,51736,1,0,0:0:0:0:
431,29,51895,1,0,0:0:0:0:
401,274,52055,1,0,0:0:0:0:
160,201,52214,1,0,0:0:0:0:
491,116,52374,1,0,0:0:0:0:
401,274,52534,5,0,0:0:0:0:
392,261,52613,1,0,0:0:0:0:
385,247,52693,1,0,0:0:0:0:
381,232,52773,1,0,0:0:0:0:
380,216,52853,1,0,0:0:0:0:
383,201,52932,1,0,0:0:0:0:
388,186,53012,1,0,0:0:0:0:
396,173,53092,1,0,0:0:0:0:
407,163,53172,5,0,0:0:0:0:
448,216,53252,1,0,0:0:0:0:
451,283,53331,1,0,0:0:0:0:
418,342,53411,1,0,0:0:0:0:
356,367,53491,1,0,0:0:0:0:
289,355,53571,1,0,0:0:0:0:
245,302,53651,1,0,0:0:0:0:
178,291,53730,1,0,0:0:0:0:
123,330,53810,6,0,P|33:345|-20:296,1,149.999995422363
69,145,54129,2,0,P|11:75|27:4,1,149.999995422363
254,104,54448,2,0,B|308:76|377:106|332:137|406:166|462:137,1,224.999993133545
494,106,54768,1,0,0:0:0:0:
328,319,54927,6,0,B|334:245|292:176|292:176|349:232|434:234,1,299.999990844727
489,24,55406,1,0,0:0:0:0:
119,84,55565,2,0,B|184:126|184:126|262:101,1,149.999995422363
224,306,55885,2,0,B|159:264|159:264|81:289,1,149.999995422363
253,103,56204,1,0,0:0:0:0:
224,306,56363,5,0,0:0:0:0:
352,229,56523,1,0,0:0:0:0:
253,103,56682,1,0,0:0:0:0:
390,44,56842,1,0,0:0:0:0:
352,229,57002,5,0,0:0:0:0:
118,187,57161,1,0,0:0:0:0:
457,253,57321,1,0,0:0:0:0:
457,253,57640,6,0,P|506:313|498:385,1,149.999995422363
390,44,57959,1,0,0:0:0:0:
309,357,58119,6,0,P|358:297|350:225,1,149.999995422363
132,145,58438,2,0,P|192:104|264:117,1,149.999995422363
267,273,58757,2,0,P|234:300|180:302,1,74.9999977111817
309,357,58917,6,0,B|338:301|309:227|278:272|248:203|276:149,1,224.999993133545
302,113,59236,1,0,0:0:0:0:
309,357,59395,1,0,0:0:0:0:
471,277,59555,2,0,P|417:200|454:44,1,224.999993133545
454,36,59874,1,0,0:0:0:0:
471,277,60034,1,0,0:0:0:0:
302,113,60193,6,0,P|238:57|155:66,1,149.999995422363
405,183,60512,2,0,P|406:97|346:40,1,149.999995422363
418,343,60831,2,0,P|484:289|489:206,1,149.999995422363
366,50,61151,1,0,0:0:0:0:
366,50,61310,1,0,0:0:0:0:
405,183,61470,5,0,0:0:0:0:
405,183,61629,1,0,0:0:0:0:
107,183,61789,1,0,0:0:0:0:
107,183,61948,1,0,0:0:0:0:
428,108,62108,1,0,0:0:0:0:
428,108,62268,1,0,0:0:0:0:
84,108,62427,1,0,0:0:0:0:
84,108,62587,1,0,0:0:0:0:
319,176,62746,5,0,0:0:0:0:
328,187,62826,1,0,0:0:0:0:
332,201,62906,1,0,0:0:0:0:
334,215,62986,1,0,0:0:0:0:
331,229,63065,1,0,0:0:0:0:
325,242,63145,1,0,0:0:0:0:
316,254,63225,1,0,0:0:0:0:
304,263,63305,1,0,0:0:0:0:
289,267,63385,5,0,0:0:0:0:
260,205,63464,1,0,0:0:0:0:
283,141,63544,1,0,0:0:0:0:
336,102,63624,1,0,0:0:0:0:
403,97,63704,1,0,0:0:0:0:
463,126,63784,1,0,0:0:0:0:
498,183,63863,1,0,0:0:0:0:
497,250,63943,1,0,0:0:0:0:
464,308,64023,5,0,0:0:0:0:
266,342,64182,1,0,0:0:0:0:
377,218,64342,1,0,0:0:0:0:
179,252,64502,1,0,0:0:0:0:
464,308,64661,1,0,0:0:0:0:
464,308,64980,1,0,0:0:0:0:
347,86,65140,6,0,P|334:158|377:218,1,149.999995422363
173,352,65459,2,0,P|241:327|272:261,1,149.999995422363
256,32,65778,1,0,0:0:0:0:
272,260,65938,1,0,0:0:0:0:
256,32,66097,2,0,P|168:17|63:110,1,224.999993133545
132,141,66417,2,0,P|141:95|116:54,1,74.9999977111817
49,206,66576,5,0,0:0:0:0:
273,172,66736,1,0,0:0:0:0:
132,141,66895,1,0,0:0:0:0:
356,107,67055,1,0,0:0:0:0:
49,206,67214,1,0,0:0:0:0:
49,206,67534,1,0,0:0:0:0:
260,310,67693,6,0,P|201:242|114:257,1,149.999995422363
378,16,68012,2,0,P|305:25|264:85,1,149.999995422363
330,361,68331,1,0,0:0:0:0:
264,84,68491,1,0,0:0:0:0:
330,361,68651,2,0,P|387:380|418:370,2,74.9999977111817
264,84,68970,1,0,0:0:0:0:
264,84,69050,1,0,0:0:0:0:
264,84,69129,5,0,0:0:0:0:
307,287,69289,1,0,0:0:0:0:
151,24,69448,1,0,0:0:0:0:
194,227,69608,1,0,0:0:0:0:
264,84,69768,1,0,0:0:0:0:
264,84,70087,1,0,0:0:0:0:
438,251,70246,6,0,P|365:297|292:277,1,149.999995422363
26,381,70565,2,0,P|85:337|157:345,1,149.999995422363
60,157,70885,1,0,0:0:0:0:
157,345,71044,1,0,0:0:0:0:
60,157,71204,6,0,P|93:182|151:187,1,87.499997329712
221,127,71363,2,0,P|226:85|201:33,1,87.499997329712
110,15,71523,2,0,P|71:31|38:78,1,87.499997329712
305,252,71682,5,0,0:0:0:0:
376,154,71842,1,0,0:0:0:0:
447,54,72002,1,0,0:0:0:0:
396,274,72161,5,0,0:0:0:0:
376,154,72321,1,0,0:0:0:0:
356,33,72480,1,0,0:0:0:0:
475,225,72640,5,0,0:0:0:0:
376,154,72800,1,0,0:0:0:0:
276,82,72959,1,0,0:0:0:0:
497,135,73119,5,0,0:0:0:0:
376,154,73278,1,0,0:0:0:0:
255,174,73438,1,0,0:0:0:0:
447,54,73597,6,0,P|483:77|498:134,1,87.499997329712
303,253,73757,2,0,P|267:230|252:173,1,87.499997329712
475,225,73917,6,0,P|452:261|395:276,1,87.499997329712
276,82,74076,2,0,P|299:46|356:31,1,87.499997329712
376,154,75193,5,0,0:0:0:0:
376,154,75512,6,0,P|420:219|407:283,1,125
354,351,75831,1,0,0:0:0:0:
277,149,75991,2,0,P|311:78|373:57,1,125
322,236,76310,2,0,P|243:241|194:198,1,125
376,154,76629,2,0,P|419:219|407:283,1,125
354,351,76948,5,0,0:0:0:0:
376,154,77108,1,0,0:0:0:0:
156,115,77268,2,0,L|309:157,1,125
449,35,77587,2,0,L|328:68,2,125
322,236,78065,5,0,0:0:0:0:
376,154,78225,1,0,0:0:0:0:
354,351,78385,1,0,0:0:0:0:
322,236,78544,2,0,L|309:276,3,41.6666666666667
376,154,78863,1,0,0:0:0:0:
344,39,79023,1,0,0:0:0:0:
376,154,79182,6,0,P|440:103|495:117,1,125
257,111,79502,2,0,P|215:66|154:64,1,125
451,188,79821,6,0,P|476:219|469:247,1,62.5
432,330,79980,1,0,0:0:0:0:
414,348,80060,1,0,0:0:0:0:
390,357,80140,1,0,0:0:0:0:
365,360,80220,1,0,0:0:0:0:
340,357,80300,1,0,0:0:0:0:
316,347,80379,1,0,0:0:0:0:
296,331,80459,1,0,0:0:0:0:
281,310,80539,1,0,0:0:0:0:
273,285,80619,5,0,0:0:0:0:
451,188,80778,1,0,0:0:0:0:
365,261,80938,1,0,0:0:0:0:
257,111,81097,2,0,L|247:66,4,31.25
365,261,81417,1,0,0:0:0:0:
185,188,81576,1,0,0:0:0:0:
451,188,81736,6,0,P|485:132|469:73,1,125
385,371,82055,2,0,P|351:315|367:256,1,125
401,117,82374,2,0,L|391:72,4,31.25
364,261,82693,1,0,0:0:0:0:
223,294,82853,1,0,0:0:0:0:
223,294,83172,5,0,0:0:0:0:
141,234,83331,1,0,0:0:0:0:
120,331,83491,1,0,0:0:0:0:
229,193,83651,5,0,0:0:0:0:
141,234,83810,1,0,0:0:0:0:
120,331,83970,1,0,0:0:0:0:
81,130,84129,5,0,0:0:0:0:
141,234,84289,1,0,0:0:0:0:
120,331,84448,1,0,0:0:0:0:
169,89,84608,1,0,0:0:0:0:
169,89,84768,6,0,P|184:50|180:17,3,62.5
81,130,85087,1,0,0:0:0:0:
81,130,85167,1,0,0:0:0:0:
81,130,85246,1,0,0:0:0:0:
229,193,85406,1,0,0:0:0:0:
269,50,85565,1,0,0:0:0:0:
269,50,85645,1,0,0:0:0:0:
269,50,85725,5,0,0:0:0:0:
312,140,85885,1,0,0:0:0:0:
229,193,86044,1,0,0:0:0:0:
275,281,86204,1,0,0:0:0:0:
222,366,86363,1,0,0:0:0:0:
275,281,86523,1,0,0:0:0:0:
229,193,86682,1,0,0:0:0:0:
505,279,86842,6,0,P|431:267|367:343,1,175
367,287,88039,6,0,L|364:274,4,12.5
427,239,88438,6,0,P|401:208|342:204,1,100
