osu file format v12

[General]
AudioFilename: Alteration (TV Size).mp3
AudioLeadIn: 2000
PreviewTime: 51826
Countdown: 0
SampleSet: Soft
StackLeniency: 0.7
Mode: 0
LetterboxInBreaks: 0
WidescreenStoryboard: 1

[Editor]
DistanceSpacing: 1.1
BeatDivisor: 4
GridSize: 4

[Metadata]
Title:Alteration (TV Size)
TitleUnicode:Alteration (TV Size)
Artist:ZAQ
ArtistUnicode:ZAQ
Creator:spboxer3
Version:TuEasy
Source:Sasami-san@Ganbaranai
Tags:ささみさん@がんばらない 月読 鎖々美 Tsukuyomi Sasami tutuhaha yanlu
BeatmapID:336082
BeatmapSetID:102550

[Difficulty]
HPDrainRate:3
CircleSize:3
OverallDifficulty:3
ApproachRate:4
SliderMultiplier:0.8
SliderTickRate:2

[Events]
//Background and Video events
0,0,"BG.jpg",0,0
Video,1074,"video.flv"
//Break Periods
//Storyboard Layer 0 (Background)
//Storyboard Layer 1 (Fail)
//Storyboard Layer 2 (Pass)
//Storyboard Layer 3 (Foreground)
//Storyboard Sound Samples
//Background Colour Transformations
3,100,163,162,255

[TimingPoints]
-205,375,4,2,1,35,1,0
920,-100,4,2,1,35,0,0
1295,-100,4,2,1,35,0,0
2420,-100,4,2,0,60,0,0
8420,-100,4,2,0,60,0,0
8795,-100,4,2,0,60,0,0
14795,-100,4,2,0,45,0,0
16295,-100,4,2,0,55,0,0
17045,-100,4,2,0,60,0,0
17982,-100,4,2,0,60,0,0
26982,-100,4,2,0,60,0,0
38795,-100,4,2,0,70,0,0
52295,-100,4,2,0,80,0,1
64201,-100,4,2,0,90,0,0
64295,-100,4,2,0,90,0,1
76107,-100,4,2,0,70,0,0
85295,-100,4,2,0,50,0,0
85857,-100,4,2,0,35,0,0
86232,-100,4,2,0,20,0,0
86607,-100,4,2,0,5,0,0

[Colours]
Combo1 : 236,236,0
Combo2 : 255,128,192
Combo3 : 237,156,48
Combo4 : 113,255,113

[HitObjects]
32,152,2795,2,0,P|52:104|160:60,1,160,4|0,0:0|0:0,0:0:0:0:
216,112,3920,1,0,0:0:0:0:
292,156,4295,2,0,P|312:204|420:248,1,160,4|0,0:0|0:0,0:0:0:0:
448,80,5795,5,4,0:0:0:0:
496,248,6545,1,0,0:0:0:0:
348,340,7295,2,0,P|312:288|204:264,1,160,4|0,0:0|0:0,0:0:0:0:
136,260,8420,1,8,0:0:0:0:
52,240,8795,6,0,L|52:80,1,160,4|0,0:0|0:0,0:0:0:0:
132,44,9920,1,0,0:0:0:0:
176,120,10295,2,0,P|192:176|216:200,1,80,0|0,0:0|0:0,0:0:0:0:
292,180,11045,2,0,P|352:224|408:308,1,160,0|4,0:0|0:0,0:0:0:0:
320,332,12170,6,0,P|248:328|160:280,1,160,2|2,0:0|0:0,0:0:0:0:
96,244,13295,2,0,P|64:168|4:112,1,160,0|0,0:0|0:0,0:0:0:0:
44,36,14420,2,0,P|88:60|112:92,1,80,2|8,0:0|0:3,0:0:0:0:
256,192,14888,12,4,17795,0:0:0:0:
352,100,18545,5,0,0:0:0:0:
360,276,19295,2,0,P|336:304|296:328,2,80,0|8|0,0:0|0:0|0:0,0:0:0:0:
404,200,20420,1,0,0:0:0:0:
440,120,20795,5,0,0:0:0:0:
280,48,21545,1,0,0:0:0:0:
116,112,22295,2,0,P|80:136|56:172,1,80,8|0,0:0|0:0,0:0:0:0:
36,252,23045,1,0,0:0:0:0:
208,288,23795,6,0,P|272:276|320:244,1,120
348,164,24732,2,0,P|368:128|400:108,1,80
440,128,25295,2,0,L|460:296,1,160,0|0,0:0|0:0,0:0:0:0:
292,340,26795,5,0,1:3:0:0:
188,196,27545,1,0,1:3:0:0:
24,128,28295,2,0,P|48:80|144:24,1,160,0|0,1:3|1:3,0:0:0:0:
220,56,29420,1,0,3:0:0:0:
292,104,29795,5,0,1:0:0:0:
380,256,30545,1,0,1:0:0:0:
216,324,31295,2,0,P|188:280|184:168,1,160,0|0,1:0|1:0,0:0:0:0:
200,88,32420,1,0,0:0:0:0:
244,12,32795,5,0,1:0:0:0:
364,140,33545,1,0,1:0:0:0:
320,312,34295,2,0,P|344:348|376:368,2,80,0|0|0,1:0|0:0|1:0,0:0:0:0:
264,244,35420,1,0,0:0:0:0:
192,196,35795,6,0,P|136:164|28:148,1,160,0|0,1:0|1:0,0:0:0:0:
60,60,36920,2,0,P|120:52|212:16,1,160,0|0,1:0|0:0,0:0:0:0:
236,52,37857,2,0,P|276:64|316:96,1,80,0|2,0:0|1:3,0:0:0:0:
348,104,38420,1,0,0:0:0:0:
432,136,38795,5,4,0:0:0:0:
384,304,39545,2,0,P|328:288|276:244,2,120,8|0|0,0:3|0:0|1:0,0:0:0:0:
372,216,41045,2,0,P|340:188|312:152,1,80,8|0,0:3|1:3,0:0:0:0:
244,112,41795,6,0,P|208:72|172:52,1,80,0|2,1:0|3:0,0:0:0:0:
100,40,42545,1,8,3:3:0:0:
64,120,42920,1,0,1:0:0:0:
60,208,43295,2,0,P|64:264|72:296,1,80,0|0,0:0|1:0,0:0:0:0:
132,348,44045,1,8,0:3:0:0:
152,264,44420,1,0,1:0:0:0:
176,180,44795,6,0,P|192:120|260:44,1,160,0|8,0:0|1:3,0:0:0:0:
344,44,45920,1,0,1:0:0:0:
400,112,46295,2,0,P|440:156|472:176,1,80,0|0,1:0|0:0,0:0:0:0:
436,252,47045,2,0,P|468:288|500:312,1,80,8|0,0:3|1:0,0:0:0:0:
416,352,47795,6,0,P|368:332|288:332,1,120,4|0,3:0|0:0,0:0:0:0:
244,264,48732,1,0,0:0:0:0:
164,304,49107,2,0,P|112:328|36:328,1,120
24,296,49857,1,0,0:0:0:0:
256,192,50045,12,4,52295,0:0:0:0:
96,96,53045,5,0,0:0:0:0:
264,152,53795,2,0,P|332:172|408:232,1,160,0|0,0:0|0:0,0:0:0:0:
464,288,54920,1,0,1:0:0:0:
380,312,55295,6,0,P|332:328|292:332,2,80,0|0|0,0:0|1:0|0:0,0:0:0:0:
396,224,56420,1,0,0:0:0:0:
444,148,56795,2,0,P|364:116|292:60,1,160,0|4,1:0|0:0,0:0:0:0:
232,124,57920,1,2,0:3:0:0:
156,168,58295,6,0,P|108:224|72:316,1,160,4|0,0:0|0:0,0:0:0:0:
164,300,59420,1,0,1:0:0:0:
252,300,59795,2,0,P|332:304|404:336,1,160,0|0,0:0|0:0,0:0:0:0:
444,256,60920,1,0,1:0:0:0:
476,176,61295,6,0,P|492:112|476:48,2,120,4|4|0,0:0|0:0|0:0,0:0:0:0:
396,136,62795,2,0,P|368:80|348:56,2,80,4|0|4,0:0|1:0|0:0,0:0:0:0:
360,216,63920,1,2,0:0:0:0:
304,284,64295,6,0,P|240:320|152:328,1,160,4|0,0:0|0:0,0:0:0:0:
80,284,65420,1,0,0:0:0:0:
36,208,65795,2,0,P|40:160|28:112,1,80,0|0,0:0|1:0,0:0:0:0:
20,40,66545,1,4,1:0:0:0:
140,168,67295,5,0,0:0:0:0:
316,156,68045,1,0,0:0:0:0:
252,320,68795,2,0,P|320:296|412:304,1,160,4|4,0:0|0:0,0:0:0:0:
476,244,69920,1,0,1:0:0:0:
476,156,70295,6,0,P|460:96|396:24,1,160,0|0,0:0|0:0,0:0:0:0:
324,72,71420,1,0,1:0:0:0:
252,124,71795,2,0,P|200:152|176:156,1,80,0|0,0:0|1:0,0:0:0:0:
96,184,72545,6,0,P|92:228|116:304,2,120,0|0|0,0:0|1:0|1:0,0:0:0:0:
100,96,74045,2,0,P|100:44|92:8,2,80,0|0|0,1:0|0:0|1:0,0:0:0:0:
172,144,75170,1,0,1:0:0:0:
248,188,75545,2,0,P|324:224|352:252,1,120,0|0,1:0|0:0,0:0:0:0:
256,192,76295,12,0,79295,1:0:0:0:
160,100,80045,5,0,1:0:0:0:
152,276,80795,2,0,P|176:304|216:328,2,80,0|0|0,0:0|0:0|1:0,0:0:0:0:
108,200,81920,1,0,1:0:0:0:
72,120,82295,6,0,P|112:100|200:104,2,120,4|4|4,0:0|0:0|0:0,0:0:0:0:
12,240,83982,1,4,0:0:0:0:
256,192,84170,12,0,86607,0:0:0:0:
