osu file format v12

[General]
AudioFilename: Alteration (TV Size).mp3
AudioLeadIn: 2000
PreviewTime: 51826
Countdown: 0
SampleSet: Soft
StackLeniency: 0.7
Mode: 0
LetterboxInBreaks: 0
WidescreenStoryboard: 1

[Editor]
DistanceSpacing: 1
BeatDivisor: 4
GridSize: 4

[Metadata]
Title:Alteration (TV Size)
TitleUnicode:Alteration (TV Size)
Artist:ZAQ
ArtistUnicode:ZAQ
Creator:spboxer3
Version:Hard
Source:Sasami-san@Ganbaranai
Tags:ささみさん@がんばらない 月読 鎖々美 Tsukuyomi Sasami tutuhaha yanlu
BeatmapID:335871
BeatmapSetID:102550

[Difficulty]
HPDrainRate:6
CircleSize:4
OverallDifficulty:6
ApproachRate:8
SliderMultiplier:1.6
SliderTickRate:2

[Events]
//Background and Video events
0,0,"BG.jpg",0,0
Video,1074,"video.flv"
//Break Periods
//Storyboard Layer 0 (Background)
//Storyboard Layer 1 (Fail)
//Storyboard Layer 2 (Pass)
//Storyboard Layer 3 (Foreground)
//Storyboard Sound Samples
//Background Colour Transformations
3,100,163,162,255

[TimingPoints]
-205,375,4,2,1,35,1,0
920,-100,4,2,1,35,0,0
1295,-100,4,2,1,35,0,0
2420,-100,4,2,1,60,0,0
8420,-100,4,2,1,60,0,0
8795,-100,4,2,1,60,0,0
14795,-100,4,2,1,45,0,0
16295,-100,4,2,1,55,0,0
17045,-100,4,2,1,60,0,0
17982,-100,4,2,1,60,0,0
26982,-100,4,2,1,60,0,0
38795,-100,4,2,1,70,0,0
52295,-100,4,2,1,80,0,1
64201,-100,4,2,1,90,0,0
64295,-100,4,2,1,90,0,1
76107,-100,4,2,1,70,0,0
85295,-100,4,2,1,50,0,0
85857,-100,4,2,1,35,0,0
86232,-100,4,2,1,20,0,0
86607,-100,4,2,1,5,0,0

[Colours]
Combo1 : 236,236,0
Combo2 : 255,128,192
Combo3 : 237,156,48
Combo4 : 113,255,113

[HitObjects]
88,60,2420,2,0,P|70:95|67:134,1,80,0|0,0:0|0:0,0:0:0:0:
148,124,2795,2,0,L|284:96,1,120,4|0,0:0|0:0,0:0:0:0:
220,212,3357,1,0,0:0:0:0:
280,268,3545,2,0,P|340:292|400:284,1,120,0|0,0:0|0:0,0:0:0:0:
500,232,4107,1,8,0:0:0:0:
476,156,4295,2,0,P|472:96|504:40,2,120,4|0|0,0:0|0:0|0:0,0:0:0:0:
419,212,5045,2,0,P|380:216|340:210,1,80,0|0,0:0|0:0,0:0:0:0:
300,140,5420,2,0,P|339:133|379:138,1,80,2|8,0:3|0:0,0:0:0:0:
420,212,5795,6,0,P|426:251|421:291,1,80,4|0,0:0|0:0,0:0:0:0:
348,324,6170,2,0,P|310:309|278:286,1,80,2|0,0:3|0:0,0:0:0:0:
344,240,6545,1,0,0:0:0:0:
200,308,6920,6,0,P|160:308|121:300,1,80,2|8,0:3|0:0,0:0:0:0:
105,222,7295,1,4,0:0:0:0:
200,307,7576,1,0,0:0:0:0:
96,372,7857,1,0,0:0:0:0:
44,312,8045,2,0,P|18:281|12:156,1,160,0|8,0:0|0:0,0:0:0:0:
56,104,8607,1,0,0:0:0:0:
132,80,8795,6,0,P|171:86|204:108,1,80,4|0,0:0|0:0,0:0:0:0:
236,228,9170,1,0,0:0:0:0:
144,160,9357,1,8,0:0:0:0:
268,152,9545,2,0,P|298:177|316:213,1,80,0|8,0:0|0:0,0:0:0:0:
336,292,9920,2,0,P|339:331|327:369,1,80,0|8,0:0|0:0,0:0:0:0:
189,351,10295,5,0,0:0:0:0:
198,275,10482,1,8,0:0:0:0:
264,320,10670,1,0,0:0:0:0:
188,352,10857,1,8,0:0:0:0:
124,308,11045,2,0,L|76:140,1,160,0|8,0:0|0:0,0:0:0:0:
56,80,11607,1,0,0:0:0:0:
136,64,11795,6,0,P|174:66|209:84,1,80,4|0,0:0|0:0,0:0:0:0:
288,108,12170,2,0,P|266:140|233:161,1,80,2|0,0:0|0:0,0:0:0:0:
172,216,12545,2,0,P|155:180|153:141,1,80,0|0,0:0|0:0,0:0:0:0:
212,84,12920,1,2,0:0:0:0:
288,108,13107,1,2,0:0:0:0:
360,76,13295,6,0,P|438:62|513:89,1,160,0|2,0:0|0:0,0:0:0:0:
476,160,13857,1,0,0:0:0:0:
424,224,14045,2,0,P|400:188|396:132,1,80,0|0,0:0|0:0,0:0:0:0:
508,236,14420,2,0,P|488:274|442:306,1,80,2|0,0:0|0:0,0:0:0:0:
384,312,14795,6,0,L|225:322,1,160,8|8,0:3|0:3,0:0:0:0:
156,280,15357,1,2,0:0:0:0:
228,244,15545,2,0,L|307:239,1,80,8|0,0:3|0:0,0:0:0:0:
156,360,15920,2,0,L|77:365,1,80,8|0,0:3|0:0,0:0:0:0:
1,275,16295,6,0,P|-5:235|3:197,1,80,8|8,0:3|0:3,0:0:0:0:
148,124,16670,2,0,P|154:163|145:201,1,80,8|8,0:3|0:3,0:0:0:0:
1,275,17045,5,6,0:3:0:0:
73,159,17232,1,4,0:3:0:0:
160,280,17420,1,6,0:3:0:0:
0,276,17607,1,4,0:3:0:0:
72,160,17795,6,0,P|144:128|232:120,1,160,4|8,0:0|0:0,0:0:0:0:
304,136,18357,1,0,0:0:0:0:
344,204,18545,2,0,P|352:242|339:279,1,80,0|0,0:0|0:0,0:0:0:0:
272,240,18920,1,8,0:0:0:0:
344,204,19107,1,0,0:0:0:0:
288,340,19295,6,0,P|214:368|136:355,1,160,0|8,0:0|0:0,0:0:0:0:
84,292,19857,1,0,0:0:0:0:
124,220,20045,2,0,P|161:205|200:207,1,80,0|8,0:0|0:0,0:0:0:0:
272,241,20420,2,0,P|311:241|348:227,1,80,0|8,0:0|0:0,0:0:0:0:
404,168,20795,6,0,L|432:94,2,80,0|0|8,0:0|0:0|0:0,0:0:0:0:
424,244,21357,1,0,0:0:0:0:
484,180,21545,6,0,L|512:254,2,80,0|0|8,0:0|0:0|0:0,0:0:0:0:
512,104,22107,1,0,0:0:0:0:
448,36,22295,2,0,L|352:24,1,80,8|0,0:0|0:0,0:0:0:0:
300,68,22670,2,0,L|204:56,1,80,0|8,0:0|0:0,0:0:0:0:
144,80,23045,2,0,P|116:140|136:264,1,160,0|0,3:3|2:0,0:0:0:0:
148,304,23607,1,0,0:0:0:0:
216,348,23795,1,4,0:0:0:0:
228,360,24357,5,4,0:0:0:0:
216,348,24732,5,4,0:0:0:0:
188,272,24920,1,0,0:0:0:0:
120,232,25107,1,4,0:0:0:0:
40,236,25295,2,0,P|2:250|-25:277,1,80,0|0,0:0|0:0,0:0:0:0:
188,272,25670,2,0,P|158:245|120:232,1,80,4|0,0:0|0:0,0:0:0:0:
216,348,26045,2,0,L|160:180,1,160,0|0,0:0|0:0,0:0:0:0:
100,152,26607,1,0,0:0:0:0:
256,132,26795,5,0,1:3:0:0:
274,51,26982,2,0,P|234:52|200:72,2,80,2|0|2,0:3|3:0|0:3,0:0:0:0:
311,188,27545,2,0,P|277:207|237:208,1,80,0|2,1:3|0:3,0:0:0:0:
340,112,27920,2,0,P|360:78|392:55,1,80,0|2,3:0|0:3,0:0:0:0:
312,188,28295,1,0,1:3:0:0:
424,140,28482,5,2,0:3:0:0:
424,140,28576,1,0,0:0:0:0:
424,140,28670,2,0,P|455:164|474:198,1,80,0|2,0:0|0:3,0:0:0:0:
488,280,29045,2,0,P|482:318|462:352,1,80,0|2,1:3|0:3,0:0:0:0:
408,296,29420,1,0,3:0:0:0:
336,332,29607,2,0,L|236:328,1,80,2|0,0:3|1:0,0:0:0:0:
184,292,29982,1,2,0:3:0:0:
220,172,30170,2,0,P|243:204|252:242,1,80,0|2,0:3|0:3,0:0:0:0:
184,292,30545,2,0,P|158:263|145:226,1,80,0|2,1:0|0:3,0:0:0:0:
252,244,30920,1,0,3:0:0:0:
220,360,31107,1,2,0:3:0:0:
112,328,31295,6,0,P|77:257|82:178,1,160,0|0,1:0|3:0,0:0:0:0:
124,112,31857,2,0,P|80:177|9:212,1,160,2|2,1:3|1:3,0:0:0:0:
16,136,32420,2,0,P|53:150|81:177,1,80,0|2,0:0|1:3,0:0:0:0:
120,248,32795,6,0,P|124:287|112:324,2,80,0|2|0,0:0|1:3|1:0,0:0:0:0:
164,180,33357,1,2,0:3:0:0:
244,164,33545,2,0,P|282:172|314:194,1,80,0|2,1:0|0:3,0:0:0:0:
364,260,33920,1,0,0:0:0:0:
344,120,34107,2,0,L|520:104,1,160,2|2,1:3|0:3,0:0:0:0:
511,184,34670,2,0,P|472:180|439:158,1,80,0|2,1:0|0:3,0:0:0:0:
439,158,35232,5,2,0:3:0:0:
504,104,35420,1,0,1:0:0:0:
438,158,35607,1,2,0:3:0:0:
368,128,35795,2,0,P|332:113|293:113,1,80,0|2,3:0|0:3,0:0:0:0:
216,136,36170,1,0,1:0:0:0:
312,188,36357,1,2,3:3:0:0:
168,205,36545,2,0,P|164:244|175:282,1,80,0|2,0:0|0:3,0:0:0:0:
247,317,36920,2,0,P|251:278|240:240,1,80,0|2,1:0|1:3,0:0:0:0:
240,240,37482,6,0,L|150:196,1,80,0|0,0:0|0:0,0:0:0:0:
92,196,37857,2,0,P|52:200|15:214,1,80,8|0,1:3|0:0,0:0:0:0:
120,348,38232,2,0,P|126:309|122:270,2,80,0|2|2,0:0|1:3|0:3,0:0:0:0:
92,196,38795,6,0,P|121:170|158:158,1,80,4|0,0:0|0:0,0:0:0:0:
240,148,39170,1,0,1:0:0:0:
316,168,39357,1,0,0:0:0:0:
208,224,39545,2,0,P|237:249|274:261,1,80,8|4,0:3|0:3,0:0:0:0:
356,272,39920,1,0,1:0:0:0:
432,252,40107,1,0,0:0:0:0:
448,144,40295,2,0,L|460:64,2,80,0|4|0,0:0|0:3|1:0,0:0:0:0:
431,252,40857,2,0,P|352:272|260:256,1,160,8|4,0:3|0:3,0:0:0:0:
280,180,41420,1,0,1:3:0:0:
212,296,41607,5,0,0:0:0:0:
212,296,41701,1,0,0:0:0:0:
212,296,41795,2,0,P|134:313|58:291,1,160,0|2,1:0|3:0,0:0:0:0:
40,132,42545,1,4,3:0:0:0:
120,124,42732,1,8,3:0:0:0:
40,132,42920,1,0,1:0:0:0:
192,164,43107,5,0,0:0:0:0:
192,164,43201,1,0,0:0:0:0:
192,164,43295,2,0,P|228:180|269:181,1,80,0|0,0:0|0:0,0:0:0:0:
348,152,43670,1,0,1:0:0:0:
368,12,44045,1,4,0:3:0:0:
288,4,44232,1,8,0:3:0:0:
368,12,44420,1,0,1:0:0:0:
220,48,44607,5,0,1:0:0:0:
220,48,44701,1,0,2:0:0:0:
220,48,44795,2,0,P|182:61|143:59,1,80,0|2,0:0|0:3,0:0:0:0:
88,116,45170,2,0,P|86:155|99:193,1,80,0|2,0:0|0:3,0:0:0:0:
176,220,45545,2,0,P|215:221|253:208,1,80,8|6,1:3|0:3,0:0:0:0:
328,180,45920,2,0,P|329:219|316:257,1,80,0|2,1:0|0:3,0:0:0:0:
252,304,46295,6,0,L|156:296,1,80,0|2,1:0|0:3,0:0:0:0:
224,380,46670,2,0,L|320:372,1,80,0|2,0:0|0:3,0:0:0:0:
368,324,47045,1,8,0:3:0:0:
396,248,47232,1,4,0:3:0:0:
420,384,47420,1,0,1:0:0:0:
448,308,47607,1,0,0:0:0:0:
368,324,47795,5,4,3:0:0:0:
396,248,47982,1,4,3:0:0:0:
380,168,48170,1,0,0:0:0:0:
320,224,48357,2,0,P|400:200|452:144,1,160,4|0,0:3|0:0,0:0:0:0:
468,68,48920,1,0,0:0:0:0:
387,54,49107,2,0,P|310:75|255:132,1,160,4|8,0:3|0:3,0:0:0:0:
256,220,49670,1,0,1:0:0:0:
256,132,49857,2,0,P|201:75|125:54,1,160,2|0,0:3|0:0,0:0:0:0:
44,68,50420,2,0,L|60:148,1,80,0|0,0:0|0:0,0:0:0:0:
116,200,50795,6,0,P|152:196|176:184,2,53.3333333333333,2|0|0,0:0|0:0|0:0,0:0:0:0:
56,256,51170,2,0,P|20:252|-4:240,2,53.3333333333333,2|0|0,0:0|0:0|0:0,0:0:0:0:
132,280,51545,2,0,P|188:304|296:288,1,160,4|2,3:0|0:0,0:0:0:0:
352,248,52107,1,10,0:3:0:0:
356,328,52295,6,0,P|412:348|444:340,1,80,4|0,0:0|0:0,0:0:0:0:
472,336,52576,2,0,L|489:207,1,120,0|0,1:0|0:0,0:0:0:0:
416,140,53045,2,0,P|360:120|328:128,1,80,0|0,0:0|0:0,0:0:0:0:
300,132,53326,2,0,L|282:260,1,120,0|0,1:0|0:0,0:0:0:0:
360,276,53795,2,0,P|337:308|303:328,1,80,0|0,0:0|0:0,0:0:0:0:
264,324,54076,2,0,L|120:308,1,120,0|0,1:0|0:0,0:0:0:0:
80,264,54545,1,0,0:0:0:0:
156,232,54732,1,0,0:0:0:0:
88,184,54920,1,0,1:0:0:0:
164,152,55107,1,0,0:0:0:0:
11,215,55295,6,0,P|7:176|18:138,1,80,0|0,0:0|0:0,0:0:0:0:
80,264,55670,2,0,P|47:287|9:297,1,80,0|0,1:0|0:0,0:0:0:0:
88,184,56045,2,0,P|124:200|152:228,1,80,0|0,0:0|0:0,0:0:0:0:
10,298,56420,5,0,1:0:0:0:
20,140,56607,1,0,0:0:0:0:
152,228,56795,6,0,P|166:265|165:304,1,80,0|0,1:0|0:0,0:0:0:0:
128,312,57076,2,0,L|254:291,1,120,2|2,0:3|0:0,0:0:0:0:
354,210,57545,2,0,P|385:234|404:268,1,80,4|0,0:0|0:0,0:0:0:0:
379,346,57920,2,0,P|347:322|328:288,1,80,2|0,0:3|0:0,0:0:0:0:
404,268,58295,6,0,L|496:248,1,80,4|0,0:0|0:0,0:0:0:0:
432,188,58670,2,0,L|524:168,1,80,0|0,1:0|0:0,0:0:0:0:
452,112,59045,2,0,L|360:92,1,80,0|0,0:0|0:0,0:0:0:0:
424,32,59420,2,0,L|332:12,1,80,0|0,1:0|1:0,0:0:0:0:
376,96,59795,5,0,0:0:0:0:
316,160,59982,1,0,0:0:0:0:
292,76,60170,2,0,L|208:64,1,80,0|0,1:0|0:0,0:0:0:0:
172,60,60451,2,0,P|152:116|168:192,1,120,0|0,0:0|0:0,0:0:0:0:
180,252,60920,2,0,L|96:240,1,80,0|0,1:0|3:0,0:0:0:0:
44,184,61295,5,4,0:0:0:0:
36,104,61482,1,0,0:0:0:0:
92,52,61670,1,0,1:0:0:0:
172,60,61857,2,0,P|252:76|332:64,1,160,4|0,0:0|0:0,0:0:0:0:
424,52,62420,2,0,P|405:86|401:125,1,80,0|4,0:0|0:0,0:0:0:0:
401,127,62982,5,0,0:0:0:0:
432,196,63170,1,0,1:0:0:0:
496,240,63357,1,0,1:0:0:0:
424,276,63545,2,0,P|345:269|273:302,1,160,0|2,0:0|0:0,0:0:0:0:
220,364,64107,1,2,3:0:0:0:
144,336,64295,6,0,P|88:300|76:268,1,80,4|0,0:0|0:0,0:0:0:0:
80,248,64576,2,0,L|72:120,1,120,0|0,1:0|0:0,0:0:0:0:
180,72,65045,6,0,P|236:108|248:140,1,80,0|0,0:0|0:0,0:0:0:0:
244,160,65326,2,0,L|252:288,1,120,0|0,1:0|0:0,0:0:0:0:
256,320,65701,1,0,0:0:0:0:
288,344,65795,6,0,P|332:356|372:344,1,80,0|0,0:0|0:0,0:0:0:0:
408,280,66170,2,0,P|364:268|324:280,1,80,0|0,1:0|0:0,0:0:0:0:
448,352,66545,2,0,P|492:288|448:208,1,160,0|0,1:0|0:0,0:0:0:0:
384,200,67107,1,0,3:0:0:0:
300,204,67295,6,0,P|307:165|329:133,1,80,4|0,0:0|0:0,0:0:0:0:
432,32,67670,2,0,P|424:70|402:102,1,80,0|0,0:0|0:0,0:0:0:0:
300,204,68045,2,0,L|221:214,1,80,0|0,0:0|0:0,0:0:0:0:
76,156,68420,2,0,L|154:145,1,80,0|0,0:0|0:0,0:0:0:0:
228,308,68795,6,0,P|208:356|164:396,1,80,4|0,0:0|0:0,0:0:0:0:
152,372,69076,2,0,L|32:360,1,120,0|4,0:0|0:2,0:0:0:0:
8,244,69545,1,0,0:0:0:0:
128,224,69732,1,0,0:0:0:0:
144,344,69920,1,4,0:2:0:0:
8,244,70107,5,0,0:0:0:0:
8,244,70201,1,0,0:0:0:0:
8,244,70295,2,0,P|16:205|38:173,1,80,4|0,1:0|0:0,0:0:0:0:
104,128,70670,1,0,1:0:0:0:
180,100,70857,2,0,L|284:100,1,80,0|0,0:0|0:0,0:0:0:0:
324,148,71232,2,0,P|335:185|330:225,2,80,0|0|0,0:0|1:0|0:0,0:0:0:0:
332,72,71795,6,0,P|400:36|480:48,1,160,0|0,0:0|1:0,0:0:0:0:
500,124,72357,1,0,0:0:0:0:
461,193,72545,2,0,P|434:164|421:127,2,80,0|0|0,0:0|1:0|0:0,0:0:0:0:
512,248,73107,5,0,1:0:0:0:
504,264,73201,1,0,0:0:0:0:
496,280,73295,2,0,L|416:288,1,80,0|0,0:0|0:0,0:0:0:0:
352,240,73670,2,0,L|272:248,1,80,0|0,1:0|0:0,0:0:0:0:
212,300,74045,2,0,P|207:339|217:377,2,80,0|0|0,1:0|0:0|0:0,0:0:0:0:
144,256,74607,6,0,P|107:243|68:245,1,80,0|0,1:0|1:0,0:0:0:0:
16,308,74982,2,0,P|53:321|92:319,1,80,0|0,0:0|1:0,0:0:0:0:
144,256,75357,1,0,0:0:0:0:
148,176,75545,2,0,P|119:148|81:134,2,80,0|0|0,1:0|0:0|0:0,0:0:0:0:
144,256,76107,1,0,0:0:0:0:
256,192,76295,12,0,78920,0:0:0:0:
216,228,79295,6,0,P|198:263|195:302,1,80,0|0,1:0|0:0,0:0:0:0:
248,152,79670,2,0,P|226:118|194:96,1,80,0|0,0:0|1:0,0:0:0:0:
296,220,80045,2,0,P|335:218|370:201,1,80,0|0,1:0|0:0,0:0:0:0:
248,152,80420,1,0,0:0:0:0:
196,304,80607,1,0,1:0:0:0:
196,304,80982,5,0,1:0:0:0:
248,152,81169,1,0,0:0:0:0:
371,200,81357,2,0,P|335:217|296:220,1,80,0|0,1:0|1:0,0:0:0:0:
193,96,81732,2,0,P|226:118|248:152,1,80,0|0,0:0|1:0,0:0:0:0:
195,303,82107,2,0,P|197:263|216:228,1,80,0|4,0:0|0:0,0:0:0:0:
372,200,82857,5,4,0:0:0:0:
196,304,83420,1,4,0:0:0:0:
192,96,83982,1,4,0:0:0:0:
256,192,84170,12,0,86607,0:0:0:0:
