osu file format v12

[General]
AudioFilename: Alteration (TV Size).mp3
AudioLeadIn: 2000
PreviewTime: 51826
Countdown: 0
SampleSet: Soft
StackLeniency: 0.7
Mode: 0
LetterboxInBreaks: 0

[Editor]
DistanceSpacing: 0.8
BeatDivisor: 4
GridSize: 4

[Metadata]
Title:Alteration (TV Size)
TitleUnicode:Alteration (TV Size)
Artist:ZAQ
ArtistUnicode:ZAQ
Creator:Quilt
Version:Insane
Source:Sasami-san@Ganbaranai
Tags:ささみさん@がんばらない 月読 鎖々美 Tsukuyomi Sasami ReySHeL taiko_maniac1811 Wreath
BeatmapID:216386
BeatmapSetID:76947

[Difficulty]
HPDrainRate:7
CircleSize:4
OverallDifficulty:8
ApproachRate:9
SliderMultiplier:1.8
SliderTickRate:2

[Events]
//Background and Video events
0,0,"BG.jpg",1,1
//Break Periods
//Storyboard Layer 0 (Background)
//Storyboard Layer 1 (Fail)
//Storyboard Layer 2 (Pass)
//Storyboard Layer 3 (Foreground)
//Storyboard Sound Samples
//Background Colour Transformations
3,100,163,162,255

[TimingPoints]
-205,375,4,2,1,35,1,0
920,-100,4,2,1,40,0,0
1295,-100,4,2,1,45,0,0
8420,-100,4,2,1,50,0,0
11795,-133.333333333333,4,2,1,45,0,0
17982,-100,4,2,1,55,0,0
26982,-100,4,2,1,60,0,0
38795,-100,4,2,1,70,0,0
50795,-100,4,2,1,55,0,0
51357,-100,4,2,1,40,0,0
51826,-100,4,2,1,20,0,0
51920,-100,4,2,1,50,0,0
52295,-83.3333333333333,4,2,1,80,0,1
64201,-100,4,2,1,90,0,0
64295,-83.3333333333333,4,2,1,90,0,1
68795,-83.3333333333333,4,2,1,75,0,1
70295,-83.3333333333333,4,2,1,85,0,1
74795,-83.3333333333333,4,2,1,80,0,1
76107,-100,4,2,1,70,0,0
77607,-100,4,2,1,5,0,0
77795,-100,4,2,1,80,0,0
78170,-100,4,2,1,75,0,0
78545,-100,4,2,1,70,0,0
85295,-100,4,2,1,50,0,0
85857,-100,4,2,1,35,0,0
86232,-100,4,2,1,20,0,0
86607,-100,4,2,1,5,0,0

[Colours]
Combo1 : 236,236,0
Combo2 : 255,128,192
Combo3 : 237,156,48
Combo4 : 113,255,113

[HitObjects]
256,192,732,12,4,2794,0:0:0:0:
180,112,3545,5,0,0:0:0:0:
264,304,4295,2,0,P|352:312|408:248,2,180,0|2|0,0:0|0:0|0:0,0:0:0:0:
192,236,5232,1,0,0:0:0:0:
188,136,5420,1,2,0:0:0:0:
268,76,5607,1,0,0:0:0:0:
360,120,5795,6,0,B|420:152|400:232|400:232|452:208,2,180,4|2|0,0:0|0:0|0:0,0:0:0:0:
268,76,6732,1,0,0:0:0:0:
168,100,6920,1,2,0:0:0:0:
112,184,7107,1,0,0:0:0:0:
112,184,7201,1,0,0:0:0:0:
112,184,7295,2,0,P|80:220|40:224,1,90
24,124,7670,2,0,P|56:88|100:80,2,90,2|0|0,0:0|0:0|0:0,0:0:0:0:
268,76,8420,6,0,P|304:108|312:152,1,90,2|0,0:0|0:0,0:0:0:0:
268,244,8795,2,0,B|227:267|227:267|180:264,1,90,4|0,0:0|0:0,0:0:0:0:
172,136,9170,2,0,B|212:112|212:112|260:120,1,90,8|0,0:0|0:0,0:0:0:0:
360,184,9545,2,0,B|383:224|383:224|380:272,1,90
236,272,9920,2,0,B|212:231|212:231|216:184,1,90,8|0,0:0|0:0,0:0:0:0:
248,68,10295,5,0,0:0:0:0:
317,289,10482,1,0,0:0:0:0:
152,144,10670,1,8,0:0:0:0:
194,289,10857,1,0,0:0:0:0:
340,144,11045,2,0,P|404:92|488:124,1,180,0|8,0:0|0:0,0:0:0:0:
464,236,11607,1,0,0:0:0:0:
464,236,11795,6,0,P|416:280|348:268,1,135.000005149842,4|0,0:0|0:0,0:0:0:0:
220,156,12357,2,0,P|158:145|108:192,1,135.000005149842
68,268,12920,1,2,0:0:0:0:
124,336,13107,1,0,0:0:0:0:
212,320,13295,2,0,P|288:240|220:116,1,270.000010299683,0|2,0:0|0:0,0:0:0:0:
220,116,14420,1,0,0:0:0:0:
256,192,14795,12,4,17795,0:0:0:0:
256,192,17982,5,0,0:0:0:0:
192,280,18170,2,0,P|148:300|108:288,1,90,2|0,0:0|0:0,0:0:0:0:
156,168,18545,2,0,P|200:148|240:160,1,90
312,240,18920,1,2,0:0:0:0:
232,88,19107,1,0,0:0:0:0:
192,280,19295,6,0,P|184:332|192:368,1,90
312,240,19670,2,0,P|320:188|312:148,1,90,2|0,0:0|0:0,0:0:0:0:
268,52,20045,1,0,0:0:0:0:
388,252,20232,1,0,0:0:0:0:
204,184,20420,1,2,0:0:0:0:
380,112,20607,6,0,P|424:108|468:128,1,90
388,252,20982,1,0,0:0:0:0:
388,252,21076,1,0,0:0:0:0:
388,252,21170,1,2,0:0:0:0:
256,308,21357,2,0,P|212:312|168:292,1,90
248,168,21732,1,0,0:0:0:0:
248,168,21826,1,0,0:0:0:0:
248,168,21920,1,2,0:0:0:0:
364,84,22107,1,0,0:0:0:0:
200,272,22295,5,0,0:0:0:0:
192,52,22482,1,2,0:0:0:0:
340,268,22670,1,2,0:0:0:0:
104,172,22857,2,0,P|80:216|88:256,1,90,2|0,0:0|0:0,0:0:0:0:
156,336,23232,1,0,0:0:0:0:
248,168,23420,1,2,0:0:0:0:
86,254,23607,1,0,0:0:0:0:
272,300,23795,6,0,P|356:288|400:208,1,180,4|0,0:0|0:0,0:0:0:0:
300,108,24357,2,0,P|216:120|172:204,1,180,4|0,0:0|0:0,0:0:0:0:
184,304,24920,1,2,0:0:0:0:
96,136,25107,1,0,0:0:0:0:
184,304,25295,6,0,P|228:320|268:308,1,90,4|0,0:0|0:0,0:0:0:0:
300,108,25670,2,0,P|256:92|216:104,1,90,2|0,0:0|0:0,0:0:0:0:
136,176,26045,1,4,0:0:0:0:
244,28,26232,1,0,0:0:0:0:
316,264,26420,1,2,0:0:0:0:
81,131,26607,2,0,P|65:175|81:215,1,90
161,284,26982,5,0,0:0:0:0:
264,315,27170,1,2,0:0:0:0:
371,321,27357,2,0,P|419:313|447:285,1,90
352,200,27732,2,0,P|304:208|276:236,1,90,0|2,0:0|0:0,0:0:0:0:
220,348,28107,1,0,0:0:0:0:
288,124,28295,1,0,0:0:0:0:
412,304,28482,5,0,0:0:0:0:
412,304,28576,1,0,0:0:0:0:
412,304,28670,2,0,P|452:276|464:236,1,90,2|0,0:0|0:0,0:0:0:0:
288,124,29045,2,0,P|248:152|236:192,1,90
224,296,29420,1,2,0:0:0:0:
384,228,29607,1,0,0:0:0:0:
232,136,29795,1,0,0:0:0:0:
88,236,29982,5,0,0:0:0:0:
88,236,30076,1,0,0:0:0:0:
88,236,30170,2,0,P|76:284|88:324,1,90,2|0,0:0|0:0,0:0:0:0:
288,264,30545,2,0,P|300:216|292:176,1,90
228,68,30920,1,2,0:0:0:0:
180,168,31107,1,0,0:0:0:0:
244,260,31295,6,0,P|328:296|404:260,1,180,0|2,0:0|0:0,0:0:0:0:
348,140,31857,2,0,P|264:104|192:144,1,180,2|0,0:0|0:0,0:0:0:0:
128,232,32420,1,2,0:0:0:0:
132,44,32607,1,0,0:0:0:0:
52,236,32795,6,0,P|72:284|104:304,1,90,0|0,0:0|0:0,0:0:0:0:
244,208,33170,2,0,P|224:160|192:144,1,90,2|0,0:0|0:0,0:0:0:0:
56,94,33545,1,0,0:0:0:0:
52,236,33732,1,0,0:0:0:0:
188,292,33920,2,0,P|236:272|256:240,1,90,2|0,0:0|0:0,0:0:0:0:
264,96,34295,5,0,0:0:0:0:
300,308,34482,1,0,0:0:0:0:
144,160,34670,2,0,P|108:192|104:232,1,90,2|0,0:0|0:0,0:0:0:0:
300,308,35045,2,0,P|336:276|340:236,1,90
316,132,35420,1,0,0:0:0:0:
384,292,35607,1,0,0:0:0:0:
316,132,35795,6,0,P|272:128|232:148,1,90
300,308,36170,2,0,P|344:312|384:292,1,90,2|0,0:0|0:0,0:0:0:0:
459,220,36545,1,0,0:0:0:0:
300,308,36732,2,0,P|256:312|216:292,1,90,0|2,0:0|0:0,0:0:0:0:
232,116,37107,2,0,P|276:112|316:132,1,90
380,216,37482,5,0,0:0:0:0:
288,48,37670,1,2,0:0:0:0:
204,252,37857,2,0,P|148:184|160:96,1,180
159,97,38420,1,2,0:0:0:0:
64,248,38607,1,0,0:0:0:0:
284,188,38795,5,4,0:0:0:0:
284,188,38888,1,0,0:0:0:0:
284,188,38982,2,0,P|320:216|324:262,1,90,0|8,0:0|0:0,0:0:0:0:
216,344,39357,2,0,P|180:316|176:270,1,90
176,152,39732,1,0,0:0:0:0:
120,308,39920,1,8,0:0:0:0:
284,280,40107,2,0,P|356:236|370:147,1,180
228,164,40670,1,8,0:0:0:0:
174,33,40857,2,0,P|100:78|88:164,1,180
296,52,41420,1,8,0:0:0:0:
228,164,41607,1,8,0:0:0:0:
296,52,41795,6,0,P|384:76|408:154,2,180,2|8|2,0:0|0:0|0:0,0:0:0:0:
192,64,42732,1,0,0:0:0:0:
108,128,42920,1,8,0:0:0:0:
92,232,43107,2,0,P|104:280|135:304,1,90
288,264,43482,2,0,P|276:216|244:192,1,90,0|8,0:0|0:0,0:0:0:0:
108,128,43857,1,0,0:0:0:0:
32,276,44045,2,0,P|112:308|189:266,1,180,0|8,0:0|0:0,0:0:0:0:
248,144,44607,5,0,0:0:0:0:
189,266,44795,2,0,P|217:294|264:308,1,90,4|0,0:0|0:0,0:0:0:0:
324,184,45170,2,0,P|296:156|246:145,1,90,8|0,0:0|0:0,0:0:0:0:
104,148,45545,2,0,P|76:176|64:224,1,90
284,260,45920,2,0,P|312:232|324:184,1,90,8|0,0:0|0:0,0:0:0:0:
292,44,46295,6,0,P|208:16|120:40,1,180,0|8,0:0|0:0,0:0:0:0:
32,120,46857,1,0,0:0:0:0:
124,204,47045,2,0,P|168:220|208:208,1,90
308,112,47420,2,0,P|264:96|224:108,1,90,8|0,0:0|0:0,0:0:0:0:
124,204,47795,5,0,0:0:0:0:
288,216,47982,1,0,0:0:0:0:
144,56,48170,1,8,0:0:0:0:
208,284,48357,1,0,0:0:0:0:
208,284,48732,5,0,0:0:0:0:
252,88,48920,1,8,0:0:0:0:
124,204,49107,1,0,0:0:0:0:
288,216,49295,1,0,0:0:0:0:
120,96,49482,1,0,0:0:0:0:
316,304,49670,1,8,0:0:0:0:
168,152,49857,6,0,P|108:312|316:300,1,450
328,280,50888,1,0,0:0:0:0:
340,256,50982,1,0,0:0:0:0:
348,232,51076,1,0,0:0:0:0:
348,204,51170,1,0,0:0:0:0:
348,176,51263,1,0,0:0:0:0:
344,148,51357,1,0,0:0:0:0:
328,128,51451,1,0,0:0:0:0:
312,108,51545,1,0,0:0:0:0:
288,96,51638,1,0,0:0:0:0:
264,88,51732,1,0,0:0:0:0:
236,88,51826,1,0,0:0:0:0:
208,88,51920,2,0,L|168:92,6,22.5
144,100,52295,6,0,P|96:124|72:172,1,107.999996704102,4|0,0:0|0:0,0:0:0:0:
64,192,52576,1,0,0:0:0:0:
64,212,52670,1,8,0:0:0:0:
96,332,52857,1,0,0:0:0:0:
96,332,52951,1,0,0:0:0:0:
96,332,53045,2,0,P|152:348|196:324,1,107.999996704102
272,196,53420,2,0,P|220:180|172:204,1,107.999996704102,8|0,0:0|0:0,0:0:0:0:
96,332,53795,5,0,0:0:0:0:
96,332,53888,1,0,0:0:0:0:
96,332,53982,2,0,P|76:285|88:232,1,107.999996704102,0|8,0:0|0:0,0:0:0:0:
156,100,54357,1,0,0:0:0:0:
156,100,54545,2,0,P|260:72|328:144,1,215.999993408203,0|8,0:0|0:0,0:0:0:0:
372,256,55107,1,0,0:0:0:0:
272,336,55295,6,0,P|168:364|100:292,1,215.999993408203,0|8,0:0|0:0,0:0:0:0:
64,176,55857,1,0,0:0:0:0:
24,352,56045,1,0,0:0:0:0:
196,320,56232,2,0,P|248:296|272:248,1,107.999996704102,0|8,0:0|0:0,0:0:0:0:
288,96,56607,1,0,0:0:0:0:
400,328,56795,5,4,0:0:0:0:
112,56,57076,1,4,0:0:0:0:
180,332,57357,1,0,0:0:0:0:
180,332,57545,6,0,P|280:320|335:226,1,215.999993408203,4|8,0:0|0:0,0:0:0:0:
320,108,58107,1,0,0:0:0:0:
408,276,58295,1,4,0:0:0:0:
220,256,58482,6,0,P|164:244|141:202,1,107.999996704102,0|8,0:0|0:0,0:0:0:0:
320,108,58857,2,0,P|376:120|401:161,1,107.999996704102
408,284,59232,1,0,0:0:0:0:
460,104,59420,1,8,0:0:0:0:
288,156,59607,2,0,P|252:192|250:247,1,107.999996704102
424,280,59982,2,0,P|460:244|466:189,1,107.999996704102,0|8,0:0|0:0,0:0:0:0:
436,68,60357,1,0,0:0:0:0:
424,60,60451,6,0,P|352:36|272:59,1,161.999995056153
188,152,60920,1,8,0:0:0:0:
276,244,61107,1,0,0:0:0:0:
312,76,61295,1,0,0:0:0:0:
180,256,61482,5,0,0:0:0:0:
316,72,61670,1,8,0:0:0:0:
176,260,61857,2,0,P|80:196|76:103,1,215.999993408203
244,128,62420,1,8,0:0:0:0:
176,260,62607,1,0,0:0:0:0:
108,152,62795,2,0,P|64:184|49:233,1,107.999996704102
256,360,63170,2,0,P|300:328|318:278,1,107.999996704102,8|0,0:0|0:0,0:0:0:0:
336,132,63545,2,0,P|272:56|163:68,1,215.999993408203
212,184,64107,1,0,0:0:0:0:
164,300,64295,5,4,0:0:0:0:
164,300,64388,1,0,0:0:0:0:
164,300,64482,2,0,P|108:288|80:246,1,107.999996704102,0|8,0:0|0:0,0:0:0:0:
60,124,64857,1,0,0:0:0:0:
188,108,65045,1,0,0:0:0:0:
188,108,65138,1,0,0:0:0:0:
188,108,65232,2,0,P|244:120|274:158,1,107.999996704102,0|8,0:0|0:0,0:0:0:0:
280,284,65607,1,0,0:0:0:0:
384,140,65795,5,0,0:0:0:0:
156,244,65982,1,0,0:0:0:0:
311,72,66170,2,0,P|359:92|383:141,1,107.999996704102,8|0,0:0|0:0,0:0:0:0:
352,328,66545,2,0,P|260:364|198:280,1,215.999993408203,0|8,0:0|0:0,0:0:0:0:
192,160,67107,1,0,0:0:0:0:
284,72,67295,6,0,P|380:32|468:88,2,215.999993408203,0|8|0,0:0|0:0|0:0,0:0:0:0:
192,160,68232,1,0,0:0:0:0:
64,124,68420,1,8,0:0:0:0:
267,352,68795,5,4,0:0:0:0:
312,120,69076,1,8,0:0:0:0:
89,198,69357,1,8,0:0:0:0:
292,264,69545,6,0,P|412:256|467:184,1,215.999993408203,4|8,0:0|0:0,0:0:0:0:
312,120,70107,1,0,0:0:0:0:
188,144,70295,2,0,P|152:184|152:236,1,107.999996704102,4|0,0:0|0:0,0:0:0:0:
208,348,70670,1,8,0:0:0:0:
332,348,70857,2,0,P|416:292|417:185,1,215.999993408203
340,64,71420,1,8,0:0:0:0:
264,188,71607,1,0,0:0:0:0:
264,188,71795,2,0,P|160:172|127:77,1,215.999993408203,0|8,0:0|0:0,0:0:0:0:
127,77,72357,1,0,0:0:0:0:
266,111,72545,2,0,P|316:128|338:176,1,107.999996704102
312,300,72920,1,8,0:0:0:0:
184,304,73107,6,0,P|136:276|119:228,1,107.999996704102
196,104,73482,2,0,P|244:132|260:181,1,107.999996704102,0|8,0:0|0:0,0:0:0:0:
252,304,73857,2,0,P|224:352|176:369,1,107.999996704102
124,100,74232,2,0,P|152:52|199:35,1,107.999996704102,0|8,0:0|0:0,0:0:0:0:
324,36,74607,1,0,0:0:0:0:
416,124,74795,1,4,0:0:0:0:
412,252,74982,2,0,P|380:296|330:304,1,107.999996704102,0|8,0:0|0:0,0:0:0:0:
196,200,75357,2,0,P|228:156|279:148,1,107.999996704102
407,165,75732,1,0,0:0:0:0:
448,176,75826,1,0,0:0:0:0:
488,156,75920,1,0,0:0:0:0:
512,120,76013,1,0,0:0:0:0:
508,84,76107,1,0,0:0:0:0:
488,56,76201,1,0,0:0:0:0:
456,40,76295,1,0,0:0:0:0:
256,192,76388,12,0,77607,0:0:0:0:
252,100,77795,6,0,P|292:124|304:164,1,90,2|0,0:0|0:0,0:0:0:0:
256,296,78170,2,0,P|216:272|204:229,1,90,2|0,0:0|0:0,0:0:0:0:
188,96,78545,2,0,P|212:56|253:45,1,90,2|0,0:0|0:0,0:0:0:0:
316,168,78920,2,0,P|292:208|253:221,1,90,2|0,0:0|0:0,0:0:0:0:
136,188,79295,5,4,0:0:0:0:
64,288,79482,1,0,0:0:0:0:
176,340,79670,2,0,P|224:340|255:310,1,90,2|0,0:0|0:0,0:0:0:0:
272,164,80045,2,0,P|224:164|194:194,1,90
253,313,80420,1,2,0:0:0:0:
356,252,80607,1,0,0:0:0:0:
380,132,80795,2,0,P|359:93|318:73,1,90
166,192,81170,2,0,P|187:231|228:248,1,90,2|0,0:0|0:0,0:0:0:0:
356,252,81545,1,0,0:0:0:0:
163,313,81732,5,0,0:0:0:0:
286,133,81920,1,2,0:0:0:0:
290,353,82107,1,0,0:0:0:0:
430,209,82295,2,0,P|462:128|431:43,1,180,4|0,0:0|0:0,0:0:0:0:
286,133,82857,2,0,P|254:214|286:297,1,180,4|0,0:0|0:0,0:0:0:0:
431,43,83420,2,0,P|346:18|260:43,1,180,4|0,0:0|0:0,0:0:0:0:
260,43,83982,1,4,0:0:0:0:
256,192,84170,12,0,86607,0:0:0:0:
