osu file format v12

[General]
AudioFilename: Alteration (TV Size).mp3
AudioLeadIn: 2000
PreviewTime: 51826
Countdown: 0
SampleSet: Soft
StackLeniency: 0.7
Mode: 0
LetterboxInBreaks: 0

[Editor]
DistanceSpacing: 1.2
BeatDivisor: 4
GridSize: 4

[Metadata]
Title:Alteration (TV Size)
TitleUnicode:Alteration (TV Size)
Artist:ZAQ
ArtistUnicode:ZAQ
Creator:Quilt
Version:Hard
Source:Sasami-san@Ganbaranai
Tags:ささみさん@がんばらない 月読 鎖々美 Tsukuyomi Sasami ReySHeL taiko_maniac1811 Wreath
BeatmapID:216409
BeatmapSetID:76947

[Difficulty]
HPDrainRate:6
CircleSize:4
OverallDifficulty:6
ApproachRate:7
SliderMultiplier:1.6
SliderTickRate:2

[Events]
//Background and Video events
0,0,"BG.jpg",1,1
//Break Periods
//Storyboard Layer 0 (Background)
//Storyboard Layer 1 (Fail)
//Storyboard Layer 2 (Pass)
//Storyboard Layer 3 (Foreground)
//Storyboard Sound Samples
//Background Colour Transformations
3,100,163,162,255

[TimingPoints]
-205,375,4,2,1,35,1,0
920,-100,4,2,0,40,0,0
1295,-100,4,2,0,45,0,0
11795,-133.333333333333,4,2,0,45,0,0
17982,-100,4,2,0,45,0,0
26982,-100,4,2,0,60,0,0
38795,-100,4,2,0,70,0,0
52295,-83.3333333333333,4,2,0,80,0,1
64201,-100,4,2,0,90,0,0
64295,-83.3333333333333,4,2,0,90,0,1
76107,-100,4,2,0,70,0,0
85295,-100,4,2,0,50,0,0
85857,-100,4,2,0,35,0,0
86232,-100,4,2,0,20,0,0
86607,-100,4,2,0,5,0,0

[Colours]
Combo1 : 236,236,0
Combo2 : 255,128,192
Combo3 : 237,156,48
Combo4 : 113,255,113

[HitObjects]
256,192,732,12,4,2795,0:0:0:0:
224,106,3545,5,2,0:0:0:0:
316,259,4295,2,0,P|398:280|456:239,2,160,0|2|0,0:0|0:0|0:0,0:0:0:0:
260,180,5232,2,0,P|234:154|193:145,1,80,0|2,0:0|0:0,0:0:0:0:
185,257,5607,2,0,P|211:283|252:292,1,80,0|4,0:0|0:0,0:0:0:0:
411,183,6170,5,2,0:0:0:0:
287,36,6545,2,0,P|206:30|161:88,1,160,0|2,0:0|0:0,0:0:0:0:
153,182,7107,1,0,0:0:0:0:
199,266,7295,2,0,P|246:298|309:291,2,120,0|2|0,0:0|0:0|0:0,0:0:0:0:
199,266,8045,1,0,0:0:0:0:
113,93,8420,6,0,P|85:123|81:163,1,80,2|0,0:0|0:0,0:0:0:0:
96,255,8795,1,4,0:0:0:0:
280,307,9170,1,8,0:0:0:0:
224,123,9545,1,8,0:0:0:0:
96,255,9920,2,0,P|85:299|94:332,1,80,8|0,0:0|0:0,0:0:0:0:
192,277,10295,2,0,P|203:233|194:200,1,80
139,121,10670,1,8,0:0:0:0:
192,276,11045,1,8,0:0:0:0:
292,76,11420,2,0,L|344:145,1,80,2|0,0:0|0:0,0:0:0:0:
404,194,11795,6,0,P|452:234|464:290,1,120.000004577637,4|0,0:0|0:0,0:0:0:0:
363,308,12357,2,0,P|315:268|303:212,1,120.000004577637,0|0,0:0|0:0,0:0:0:0:
302,123,12920,2,0,P|278:103|250:103,1,60.0000022888184,2|0,0:0|0:0,0:0:0:0:
160,104,13295,2,0,B|92:128|92:128|80:236|184:240,1,240.000009155274,0|2,0:0|0:0,0:0:0:0:
182,239,14420,1,0,0:0:0:0:
256,192,14795,12,4,17795,0:0:0:0:
224,248,17982,5,0,0:0:0:0:
224,248,18170,2,0,P|256:272|296:272,1,80,2|0,0:0|0:0,0:0:0:0:
324,164,18545,2,0,P|292:140|252:140,1,80
148,176,18920,1,2,0:0:0:0:
80,264,19107,1,0,0:0:0:0:
164,340,19295,6,0,P|244:360|312:324,2,160,0|2|0,0:0|0:0|0:0,0:0:0:0:
80,264,20232,2,0,P|88:228|120:200,1,80,0|2,0:0|0:0,0:0:0:0:
204,156,20607,1,0,0:0:0:0:
292,192,20795,1,0,0:0:0:0:
388,188,20982,2,0,P|428:172|448:136,1,80,0|2,0:0|0:0,0:0:0:0:
472,48,21357,1,0,0:0:0:0:
380,76,21545,5,0,0:0:0:0:
447,141,21732,1,0,0:0:0:0:
447,141,21920,2,0,P|466:177|465:215,1,80,2|0,0:0|0:0,0:0:0:0:
352,216,22295,2,0,P|314:223|286:254,1,80
328,358,22670,2,0,P|366:351|394:320,1,80,2|0,0:0|0:0,0:0:0:0:
428,214,23045,1,0,0:0:0:0:
442,103,23232,5,2,0:0:0:0:
344,47,23420,1,8,0:0:0:0:
264,125,23607,1,2,0:0:0:0:
300,232,23795,2,0,P|246:290|171:287,1,160,4|0,0:0|0:0,0:0:0:0:
171,287,24357,1,4,0:0:0:0:
228,60,24732,2,0,P|188:48|152:60,2,80,4|0|0,0:0|0:0|0:0,0:0:0:0:
320,124,25295,6,0,P|356:192|344:272,1,160,0|4,0:0|0:0,0:0:0:0:
272,336,25857,1,0,0:0:0:0:
188,292,26045,2,0,P|152:224|164:144,1,160,0|2,0:0|0:0,0:0:0:0:
216,64,26607,1,0,0:0:0:0:
260,152,26795,1,4,0:0:0:0:
164,144,26982,6,0,P|124:128|108:88,1,80,0|2,0:0|0:0,0:0:0:0:
216,64,27357,2,0,P|256:80|272:120,1,80
248,204,27732,1,0,0:0:0:0:
168,260,27920,1,2,0:0:0:0:
236,328,28107,6,0,P|304:360|384:332,1,160
400,320,28576,1,0,0:0:0:0:
416,304,28670,1,2,0:0:0:0:
464,220,28857,2,0,P|484:184|480:144,1,80
368,156,29232,2,0,P|348:192|352:232,1,80,0|2,0:0|0:0,0:0:0:0:
400,320,29607,1,0,0:0:0:0:
83,320,29982,5,0,0:0:0:0:
83,320,30170,1,0,0:0:0:0:
83,320,30357,2,0,P|120:319|152:293,1,80,0|2,0:0|0:0,0:0:0:0:
200,204,30732,2,0,P|240:196|276:216,1,80,0|2,0:0|0:0,0:0:0:0:
348,276,31107,1,0,0:0:0:0:
436,240,31295,2,0,P|480:176|460:100,1,160,0|2,0:0|0:0,0:0:0:0:
352,76,31857,2,0,P|308:140|328:216,1,160
368,304,32420,5,2,0:0:0:0:
368,304,32607,2,0,P|320:360|240:352,1,160
168,292,33170,1,2,0:0:0:0:
104,220,33357,2,0,P|92:180|108:144,1,80
212,184,33732,2,0,P|224:224|208:260,1,80,0|2,0:0|0:0,0:0:0:0:
39,268,34107,2,0,P|16:193|35:113,1,160
86,34,34670,1,2,0:0:0:0:
132,117,34857,1,0,0:0:0:0:
252,292,35232,5,0,0:0:0:0:
252,292,35420,2,0,P|296:296|324:272,1,80,2|0,0:0|0:0,0:0:0:0:
376,196,35795,1,0,0:0:0:0:
376,100,35982,1,0,0:0:0:0:
292,148,36170,2,0,P|256:136|240:100,1,80,2|0,0:0|0:0,0:0:0:0:
324,52,36545,2,0,P|360:64|376:100,1,80
376,196,36920,1,2,0:0:0:0:
296,252,37107,6,0,P|216:256|160:200,1,160
144,108,37670,1,2,0:0:0:0:
236,136,37857,2,0,P|232:216|168:252,1,160
72,252,38420,1,2,0:0:0:0:
120,168,38607,1,0,0:0:0:0:
168,252,38795,6,0,P|192:284|232:288,1,80,4|0,0:0|0:0,0:0:0:0:
324,228,39170,2,0,P|300:196|260:192,1,80,8|0,0:0|0:0,0:0:0:0:
168,192,39545,1,0,0:0:0:0:
80,156,39732,2,0,P|48:132|36:92,1,80,0|8,0:0|0:0,0:0:0:0:
148,76,40107,2,0,P|180:100|192:140,1,80
144,220,40482,1,0,0:0:0:0:
180,308,40670,1,8,0:0:0:0:
276,320,40857,2,0,P|348:308|388:236,1,160
388,140,41420,2,0,P|368:112|324:104,1,80,8|0,0:0|0:0,0:0:0:0:
232,124,41795,6,0,P|148:108|120:40,2,160,0|8|0,0:0|0:0|0:0,0:0:0:0:
320,88,42732,1,0,0:0:0:0:
412,112,42920,2,0,P|444:140|452:176,1,80,8|0,0:0|0:0,0:0:0:0:
408,260,43295,2,0,P|348:304|268:288,2,160,0|8|0,0:0|0:0|0:0,0:0:0:0:
453,175,44232,1,0,0:0:0:0:
440,76,44420,1,8,0:0:0:0:
352,36,44607,5,0,0:0:0:0:
256,32,44795,2,0,P|176:52|144:120,2,160,0|8|0,0:0|0:0|0:0,0:0:0:0:
352,36,45732,1,0,0:0:0:0:
440,76,45920,2,0,P|468:152|436:224,2,160,8|0|8,0:0|0:0|0:0,0:0:0:0:
256,124,47045,2,0,P|244:164|256:200,1,80
364,172,47420,2,0,P|376:132|364:96,1,80,8|0,0:0|0:0,0:0:0:0:
292,32,47795,5,0,0:0:0:0:
196,36,47982,1,0,0:0:0:0:
140,116,48170,1,8,0:0:0:0:
156,212,48357,2,0,P|192:280|268:296,1,160
360,264,48920,1,8,0:0:0:0:
288,200,49107,1,0,0:0:0:0:
268,296,49295,2,0,P|289:333|323:344,1,80,0|2,0:0|0:0,0:0:0:0:
256,192,49670,12,0,51545,0:0:0:0:
148,72,51920,6,0,L|228:84,1,80
298,116,52295,2,0,P|333:149|346:194,1,95.9999970703126,4|0,0:0|0:0,0:0:0:0:
345,193,52576,1,0,0:0:0:0:
345,193,52670,1,8,0:0:0:0:
224,288,52857,1,0,0:0:0:0:
224,288,52951,1,0,0:0:0:0:
224,288,53045,2,0,P|148:236|152:144,1,191.999994140625,0|8,0:0|0:0,0:0:0:0:
204,42,53607,1,0,0:0:0:0:
262,141,53795,6,0,P|362:156|421:93,1,191.999994140625,0|8,0:0|0:0,0:0:0:0:
312,16,54357,1,0,0:0:0:0:
195,84,54545,2,0,P|180:184|243:243,1,191.999994140625,0|8,0:0|0:0,0:0:0:0:
348,278,55107,1,0,0:0:0:0:
423,190,55295,6,0,P|438:90|375:31,2,191.999994140625,0|8|0,0:0|0:0|0:0,0:0:0:0:
348,278,56232,1,0,0:0:0:0:
423,190,56420,1,8,0:0:0:0:
445,302,56607,1,0,0:0:0:0:
423,190,56795,6,0,P|342:140|254:163,1,191.999994140625,0|8,0:0|0:0,0:0:0:0:
163,236,57357,1,0,0:0:0:0:
223,333,57545,2,0,P|274:253|253:163,1,191.999994140625,0|8,0:0|0:0,0:0:0:0:
178,74,58107,5,0,0:0:0:0:
130,179,58295,2,0,P|82:159|66:119,1,95.9999970703126,4|0,0:0|0:0,0:0:0:0:
179,74,58670,2,0,P|227:94|243:134,1,95.9999970703126,8|0,0:0|0:0,0:0:0:0:
267,245,59045,1,0,0:0:0:0:
354,318,59232,2,0,P|403:314|432:280,1,95.9999970703126,0|8,0:0|0:0,0:0:0:0:
454,166,59607,1,0,0:0:0:0:
454,166,59795,2,0,P|425:132|376:128,1,95.9999970703126
276,185,60170,2,0,P|219:204|187:185,1,95.9999970703126,8|0,0:0|0:0,0:0:0:0:
164,176,60451,1,0,0:0:0:0:
144,156,60545,1,0,0:0:0:0:
40,106,60732,6,0,P|13:151|15:194,1,95.9999970703126,0|8,0:0|0:0,0:0:0:0:
57,300,61107,1,0,0:0:0:0:
167,337,61295,2,0,P|216:340|255:312,1,95.9999970703126,4|0,0:0|0:0,0:0:0:0:
292,185,61670,2,0,P|243:182|204:210,1,95.9999970703126,8|0,0:0|0:0,0:0:0:0:
105,265,62045,2,0,P|79:227|82:178,1,95.9999970703126
121,70,62420,1,8,0:0:0:0:
204,152,62607,2,0,P|292:192|368:148,1,191.999994140625
452,68,63170,1,0,0:0:0:0:
452,68,63357,2,0,L|476:208,1,95.9999970703126
81,322,63920,6,0,P|127:339|174:324,1,95.9999970703126,8|0,0:0|0:0,0:0:0:0:
248,241,64295,1,4,0:0:0:0:
248,241,64388,1,0,0:0:0:0:
248,241,64482,2,0,P|274:198|315:181,1,95.9999970703126,0|8,0:0|0:0,0:0:0:0:
427,153,64857,1,0,0:0:0:0:
455,265,65045,2,0,P|392:336|300:339,1,191.999994140625,0|8,0:0|0:0,0:0:0:0:
202,278,65607,1,0,0:0:0:0:
127,189,65795,6,0,P|109:148|120:98,1,95.9999970703126
247,139,66170,2,0,P|265:180|254:230,1,95.9999970703126,8|0,0:0|0:0,0:0:0:0:
158,292,66545,2,0,P|61:267|41:186,1,191.999994140625,0|8,0:0|0:0,0:0:0:0:
46,71,67107,1,0,0:0:0:0:
161,67,67295,2,0,P|252:108|257:191,2,191.999994140625,0|8|0,0:0|0:0|0:0,0:0:0:0:
46,71,68232,1,0,0:0:0:0:
109,167,68420,1,8,0:0:0:0:
265,296,68795,6,0,P|334:315|400:282,2,143.999995605469,8|8|8,0:0|0:0|0:0,0:0:0:0:
208,195,69545,2,0,P|227:102|312:72,1,191.999994140625,8|8,0:0|0:0,0:0:0:0:
420,108,70107,2,0,P|467:124|511:111,2,95.9999970703126,0|2|0,0:0|0:0|0:0,0:0:0:0:
310,71,70670,1,8,0:0:0:0:
196,92,70857,2,0,P|116:139|103:233,1,191.999994140625
127,343,71420,1,8,0:0:0:0:
211,265,71607,5,0,0:0:0:0:
211,265,71795,2,0,P|275:195|368:203,1,191.999994140625,0|8,0:0|0:0,0:0:0:0:
456,271,72357,1,0,0:0:0:0:
358,333,72545,1,0,0:0:0:0:
264,266,72732,2,0,P|223:189|259:98,1,191.999994140625
361,43,73295,6,0,P|410:35|454:48,1,95.9999970703126,0|0,0:0|0:0,0:0:0:0:
401,172,73670,2,0,P|352:180|308:167,1,95.9999970703126,8|0,0:0|0:0,0:0:0:0:
184,114,74045,2,0,P|171:158|179:207,1,95.9999970703126
303,260,74420,2,0,P|316:216|308:167,1,95.9999970703126,8|0,0:0|0:0,0:0:0:0:
258,62,74795,5,0,0:0:0:0:
144,46,74982,1,0,0:0:0:0:
74,138,75170,1,8,0:0:0:0:
73,252,75357,2,0,P|83:296|126:326,1,95.9999970703126
250,282,75732,2,0,P|240:238|197:208,1,95.9999970703126,0|8,0:0|0:0,0:0:0:0:
256,192,76107,12,0,77607,0:0:0:0:
242,312,77795,6,0,P|289:309|312:287,1,80,2|0,0:0|0:0,0:0:0:0:
319,175,78170,2,0,P|272:178|249:200,1,80,2|0,0:0|0:0,0:0:0:0:
173,312,78545,2,0,P|126:309|103:287,1,80,2|0,0:0|0:0,0:0:0:0:
111,175,78920,2,0,P|158:178|181:200,1,80,2|0,0:0|0:0,0:0:0:0:
251,264,79295,5,0,0:0:0:0:
345,280,79482,1,0,0:0:0:0:
438,257,79670,2,0,P|469:231|480:195,1,80,2|0,0:0|0:0,0:0:0:0:
479,99,80045,1,0,0:0:0:0:
393,55,80232,1,0,0:0:0:0:
393,151,80420,1,2,0:0:0:0:
393,151,80607,2,0,P|316:171|250:133,1,160
195,53,81170,5,2,0:0:0:0:
99,41,81357,1,0,0:0:0:0:
41,117,81545,2,0,P|19:158|24:197,1,80,0|0,0:0|0:0,0:0:0:0:
101,244,81920,2,0,P|123:203|118:164,1,80,2|0,0:0|0:0,0:0:0:0:
124,74,82295,6,0,P|248:44|344:93,1,240,4|4,0:0|0:0,0:0:0:0:
388,310,83420,2,0,P|264:340|168:291,1,240,4|4,0:0|0:0,0:0:0:0:
256,192,84170,12,0,86607,0:0:0:0:
