osu file format v12

[General]
AudioFilename: Alteration (TV Size).mp3
AudioLeadIn: 2000
PreviewTime: 51826
Countdown: 0
SampleSet: Soft
StackLeniency: 0.7
Mode: 0
LetterboxInBreaks: 0

[Editor]
DistanceSpacing: 0.9
BeatDivisor: 1
GridSize: 4

[Metadata]
Title:Alteration (TV Size)
TitleUnicode:Alteration (TV Size)
Artist:ZAQ
ArtistUnicode:ZAQ
Creator:Quilt
Version:Easy
Source:Sasami-san@Ganbaranai
Tags:ささみさん@がんばらない 月読 鎖々美 Tsukuyomi Sasami ReySHeL taiko_maniac1811 Wreath
BeatmapID:217037
BeatmapSetID:76947

[Difficulty]
HPDrainRate:3
CircleSize:2
OverallDifficulty:2
ApproachRate:2
SliderMultiplier:1
SliderTickRate:2

[Events]
//Background and Video events
0,0,"BG.jpg",1,1
//Break Periods
//Storyboard Layer 0 (Background)
//Storyboard Layer 1 (Fail)
//Storyboard Layer 2 (Pass)
//Storyboard Layer 3 (Foreground)
//Storyboard Sound Samples
//Background Colour Transformations
3,100,163,162,255

[TimingPoints]
-205,375,4,2,1,35,1,0
920,-100,4,2,1,40,0,0
1295,-100,4,2,1,45,0,0
3545,-100,4,2,1,50,0,0
17982,-100,4,2,1,55,0,0
26982,-100,4,2,1,60,0,0
38795,-100,4,2,1,70,0,0
52295,-100,4,2,1,80,0,1
64201,-100,4,2,1,90,0,0
64295,-100,4,2,1,90,0,1
76107,-100,4,2,1,70,0,0
85295,-100,4,2,1,50,0,0
85857,-100,4,2,1,35,0,0
86232,-100,4,2,1,20,0,0
86607,-100,4,2,1,5,0,0

[Colours]
Combo1 : 236,236,0
Combo2 : 255,128,192
Combo3 : 237,156,48
Combo4 : 113,255,113

[HitObjects]
256,192,732,12,4,2795,0:0:0:0:
156,136,3545,5,2,0:0:0:0:
224,304,4295,2,0,P|321:268|338:178,1,200,0|2,0:0|0:0,0:0:0:0:
204,68,5795,2,0,P|106:103|89:193,1,200,4|2,0:0|0:0,0:0:0:0:
140,360,7295,1,0,0:0:0:0:
244,212,8045,1,2,0:0:0:0:
404,132,8795,6,0,P|456:216|444:316,1,200,4|8,0:0|0:0,0:0:0:0:
268,316,10295,2,0,P|216:232|228:132,1,200,0|8,0:0|0:0,0:0:0:0:
372,32,11795,5,4,0:0:0:0:
284,304,13295,2,0,P|136:276|132:144,1,300.000011444092,2|0,0:0|0:0,0:0:0:0:
256,192,14795,12,4,17795,0:0:0:0:
332,240,18545,6,0,P|328:300|304:332,1,100,2|8,0:0|0:0,0:0:0:0:
216,344,19295,2,0,P|164:344|120:316,1,100,0|8,0:0|0:0,0:0:0:0:
148,232,20045,2,0,P|200:232|244:260,1,100,0|8,0:0|0:0,0:0:0:0:
308,316,20795,6,0,P|384:260|396:160,1,200,0|2,0:0|0:0,0:0:0:0:
248,60,22295,2,0,P|172:116|160:216,1,200,2|0,0:0|0:0,0:0:0:0:
172,304,23420,1,8,0:0:0:0:
244,252,23795,6,0,P|320:236|384:268,1,150,4|4,0:0|0:0,0:0:0:0:
442,49,25295,2,0,P|406:77|354:81,1,100,2|4,0:0|0:0,0:0:0:0:
264,72,26045,2,0,P|168:52|108:128,1,200,0|4,0:0|0:0,0:0:0:0:
96,304,27545,5,2,0:0:0:0:
276,312,28295,2,0,P|368:288|404:192,1,200,2|0,0:0|0:0,0:0:0:0:
276,68,29795,6,0,P|184:92|148:188,1,200,2|0,0:0|0:0,0:0:0:0:
164,272,30920,1,0,0:0:0:0:
236,324,31295,2,0,P|332:356|424:316,2,200,2|0|2,0:0|0:0|0:0,0:0:0:0:
108,196,33545,5,0,0:0:0:0:
244,76,34295,2,0,P|296:156|276:256,1,200,2|0,0:0|0:0,0:0:0:0:
220,324,35420,6,0,P|172:348|124:344,1,100,2|0,0:0|0:0,0:0:0:0:
52,296,36170,2,0,P|28:248|32:200,1,100,2|0,0:0|0:0,0:0:0:0:
36,112,36920,2,0,L|36:60,1,50,2|0,0:0|0:0,0:0:0:0:
124,40,37482,6,0,P|204:36|256:80,1,150,2|0,0:0|0:0,0:0:0:0:
280,164,38420,1,2,0:0:0:0:
268,252,38795,6,0,P|180:296|92:252,2,200,4|0|0,0:0|0:0|0:0,0:0:0:0:
292,72,41045,2,0,P|380:28|468:72,2,200,8|0|8,0:0|0:0|0:0,0:0:0:0:
180,212,43295,1,0,0:0:0:0:
356,240,44045,1,8,0:0:0:0:
292,72,44795,6,0,P|192:40|120:92,1,200,0|8,0:0|0:0,0:0:0:0:
148,268,46295,2,0,P|248:300|320:248,1,200,0|8,0:0|0:0,0:0:0:0:
344,164,47420,1,8,0:0:0:0:
272,108,47795,6,0,P|196:104|176:120,1,100,0|8,0:0|0:0,0:0:0:0:
116,179,48545,2,0,P|72:203|24:199,1,100,0|8,0:0|0:0,0:0:0:0:
256,192,49295,12,0,51545,0:0:0:0:
423,195,52295,5,4,0:0:0:0:
264,112,53045,1,8,0:0:0:0:
164,260,53795,2,0,P|256:296|349:260,1,200,8|0,0:0|0:0,0:0:0:0:
264,112,55295,6,0,P|172:76|76:104,1,200,8|0,0:0|0:0,0:0:0:0:
28,276,56795,1,8,0:0:0:0:
208,260,57545,1,8,0:0:0:0:
312,112,58295,6,0,P|360:136|384:180,1,100,4|8,0:0|0:0,0:0:0:0:
312,232,59045,2,0,P|264:208|240:164,1,100,0|8,0:0|0:0,0:0:0:0:
220,80,59795,2,0,P|120:64|68:148,1,200,0|8,0:0|0:0,0:0:0:0:
64,316,61295,5,4,0:0:0:0:
136,260,61670,1,8,0:0:0:0:
224,260,62045,1,0,0:0:0:0:
296,316,62420,2,0,P|428:268|416:128,1,300,8|0,0:0|0:0,0:0:0:0:
236,136,64295,5,4,0:0:0:0:
116,272,65045,1,8,0:0:0:0:
288,324,65795,2,0,P|380:316|420:224,1,200,8|0,0:0|0:0,0:0:0:0:
312,80,67295,2,0,P|220:88|180:180,1,200,8|0,0:0|0:0,0:0:0:0:
116,344,68795,6,8,P|72:312|56:268,1,100,0|8,0:0|0:0,0:0:0:0:
44,180,69545,1,0,0:0:0:0:
84,100,69920,1,8,0:0:0:0:
136,172,70295,5,8,0:0:0:0:
196,340,71045,1,8,0:0:0:0:
352,248,71795,1,8,0:0:0:0:
256,96,72545,6,0,P|160:92|100:168,1,200,8|0,0:0|0:0,0:0:0:0:
92,348,74045,2,0,P|140:364|188:356,1,100,8|0,0:0|0:0,0:0:0:0:
272,328,74795,5,8,0:0:0:0:
320,252,75170,1,8,0:0:0:0:
284,168,75545,1,8,0:0:0:0:
196,160,75920,1,8,0:0:0:0:
256,192,76107,12,4,79295,0:0:0:0:
183,80,80420,5,8,0:0:0:0:
116,140,80795,2,0,P|100:224|268:304,1,300,0|0,0:0|0:0,0:0:0:0:
348,272,82295,5,4,0:0:0:0:
380,140,82857,1,4,0:0:0:0:
276,56,83420,1,4,0:0:0:0:
172,140,83982,1,4,0:0:0:0:
256,192,84170,12,0,86607,0:0:0:0:
