osu file format v11

[General]
AudioFilename: Alteration (TV Size).mp3
AudioLeadIn: 2000
PreviewTime: 51826
Countdown: 0
SampleSet: Soft
StackLeniency: 0.7
Mode: 0
LetterboxInBreaks: 0

[Editor]
DistanceSpacing: 0.75
BeatDivisor: 4
GridSize: 4

[Metadata]
Title:Alteration (TV Size)
TitleUnicode:Alteration (TV Size)
Artist:ZAQ
ArtistUnicode:ZAQ
Creator:Pokie
Version:Pokie-san@Ganbaranai
Source:Sasami-san@Ganbaranai
Tags:hs714 Hoshi No_Gu ささみさん@がんばらない 月読 鎖々美 Tsukuyomi Sasami オープニングテーマ Opening Theme
BeatmapID:209633
BeatmapSetID:73390

[Difficulty]
HPDrainRate:7
CircleSize:4
OverallDifficulty:8
ApproachRate:9
SliderMultiplier:1.76
SliderTickRate:2

[Events]
//Background and Video events
0,0,"BG.jpg"
Video,0,"video.avi"
//Break Periods
//Storyboard Layer 0 (Background)
//Storyboard Layer 1 (Fail)
//Storyboard Layer 2 (Pass)
//Storyboard Layer 3 (Foreground)
//Storyboard Sound Samples
//Background Colour Transformations
3,100,163,162,255

[TimingPoints]
-205,375,4,2,1,35,1,0
920,-100,4,2,1,40,0,0
1295,-100,4,2,1,45,0,0
1670,-100,4,2,1,55,0,0
2045,-100,4,2,1,75,0,0
2420,-100,4,2,1,70,0,0
2795,375,4,2,1,75,1,0
2795,-133.333333333333,4,2,1,75,0,0
4107,-133.333333333333,4,1,1,75,0,0
4295,-133.333333333333,4,2,1,75,0,0
5045,-133.333333333333,4,2,1,55,0,0
5232,-133.333333333333,4,2,1,75,0,0
5607,-133.333333333333,4,1,1,75,0,0
5795,-133.333333333333,4,2,1,75,0,0
7107,-133.333333333333,4,1,1,75,0,0
7295,-133.333333333333,4,2,1,75,0,0
8045,-133.333333333333,4,2,1,60,0,0
8232,-133.333333333333,4,2,1,75,0,0
8795,-133.333333333333,4,2,1,80,0,0
9170,-133.333333333333,4,1,1,75,0,0
9357,-100,4,2,1,80,0,0
9920,-100,4,2,1,75,0,0
10107,-100,4,2,1,80,0,0
10670,-100,4,1,1,75,0,0
10857,-100,4,2,1,80,0,0
11420,-100,4,2,1,60,0,0
11607,-100,4,2,1,53,0,0
11795,-133.333333333333,4,2,1,80,0,0
11982,-133.333333333333,4,2,1,70,0,0
13482,-133.333333333333,4,3,1,65,0,0
14232,-133.333333333333,4,3,1,70,0,0
14795,-100,4,1,1,60,0,0
15170,-100,4,1,1,65,0,0
15545,-100,4,1,1,70,0,0
15920,-100,4,1,1,75,0,0
17045,-100,4,1,1,80,0,0
17420,-100,4,2,3,65,0,0
17795,375,4,2,2,85,1,0
23795,-133.333333333333,4,2,2,75,0,0
24732,-133.333333333333,4,2,2,70,0,0
25670,-133.333333333333,4,2,2,65,0,0
26045,-133.333333333333,4,2,2,55,0,0
26795,375,4,2,2,65,1,0
26795,-133.333333333333,4,2,2,65,0,0
28295,-133.333333333333,4,1,2,65,0,0
28670,-133.333333333333,4,2,2,65,0,0
31670,-133.333333333333,4,1,2,65,0,0
31857,-133.333333333333,4,2,2,65,0,0
32045,-133.333333333333,4,1,2,65,0,0
32232,-133.333333333333,4,2,2,65,0,0
33920,-133.333333333333,4,1,2,65,0,0
34107,-133.333333333333,4,2,2,65,0,0
35045,-133.333333333333,4,1,2,65,0,0
35232,-133.333333333333,4,2,2,65,0,0
35795,-133.333333333333,4,1,2,65,0,0
35982,-133.333333333333,4,2,2,65,0,0
36920,-133.333333333333,4,1,0,65,0,0
37107,-133.333333333333,4,1,0,55,0,0
37482,-133.333333333333,4,2,2,75,0,0
38795,-100,4,2,2,78,0,0
39920,-100,4,2,2,78,0,0
40295,-100,4,1,2,78,0,0
40670,-100,4,2,2,78,0,0
41982,-100,4,2,2,78,0,0
42732,-100,4,1,2,78,0,0
43107,-100,4,2,2,78,0,0
44232,-100,4,2,3,60,0,0
44607,-100,4,2,2,78,0,0
44795,-100,4,2,2,85,0,0
49295,-100,4,2,1,75,0,0
50795,-100,4,2,1,65,0,0
51920,-100,4,2,1,85,0,0
52295,375,4,2,4,100,1,1
52295,-83.3333333333333,4,2,4,100,0,1
52670,-83.3333333333333,4,1,4,90,0,1
52857,-83.3333333333333,4,2,4,100,0,1
53420,-83.3333333333333,4,1,4,90,0,1
53607,-83.3333333333333,4,2,4,100,0,1
54545,-100,4,2,2,100,0,1
54920,-83.3333333333333,4,2,4,100,0,1
55482,-100,4,2,4,100,0,1
56607,-83.3333333333333,4,1,2,100,0,1
56795,-83.3333333333333,4,2,2,100,0,1
57545,-133.333333333333,4,2,2,100,0,1
58107,-100,4,2,2,100,0,1
60545,-100,4,1,2,100,0,1
60732,-100,4,2,2,100,0,1
62232,-100,4,2,2,100,0,1
63545,-100,4,1,2,100,0,1
63920,-100,4,2,2,90,0,1
64201,-100,4,2,2,90,0,0
64295,-83.3333333333333,4,2,2,90,0,1
64482,-83.3333333333333,4,2,4,100,0,1
64951,-83.3333333333333,4,2,4,100,0,1
65701,-100,4,2,4,100,0,1
66545,-100,4,2,2,100,0,1
66920,-100,4,2,4,100,0,1
68795,-83.3333333333333,4,2,2,100,0,1
69545,-100,4,2,2,100,0,1
70295,-100,4,2,4,100,0,1
71045,-100,4,1,2,95,0,1
71326,-100,4,2,4,100,0,1
74701,-100,4,2,2,100,0,1
76107,-133.333333333333,4,2,2,70,0,0
76295,-133.333333333333,4,2,2,60,0,0
77607,-133.333333333333,4,2,2,30,0,0
77795,-133.333333333333,4,2,2,80,0,0
78170,-100,4,2,2,80,0,0
78545,-83.3333333333333,4,2,2,80,0,0
78920,-66.6666666666667,4,2,2,80,0,0
79295,-100,4,2,2,90,0,0
81920,-100,4,2,2,80,0,0
82295,-133.333333333333,4,2,2,70,0,0
82670,-133.333333333333,4,2,2,30,0,0
82857,-133.333333333333,4,2,2,70,0,0
83795,-133.333333333333,4,2,2,30,0,0
83982,-133.333333333333,4,2,2,70,0,0
84545,-133.333333333333,4,2,2,60,0,0
84920,-133.333333333333,4,2,2,50,0,0
85295,-133.333333333333,4,2,2,40,0,0
85670,-133.333333333333,4,2,2,30,0,0
86045,-133.333333333333,4,2,2,20,0,0
86420,-133.333333333333,4,2,2,10,0,0
86795,-133.333333333333,4,2,2,5,0,0

[Colours]
Combo1 : 91,172,210
Combo2 : 210,96,139
Combo3 : 238,164,64
Combo4 : 228,232,83
Combo5 : 147,217,70

[HitObjects]
256,192,545,12,2,2420,0:0:0
174,244,2795,6,0,P|214:247|249:233,1,66.0000025177003,4|0,1:2|0:0,0:0:0
287,184,3077,2,0,P|279:72,1,99.0000037765504,0|0,0:0|0:0,0:0:0
355,321,3545,6,0,P|324:324|276:302,1,66.0000025177003,2|0,0:2|0:0,0:0:0
221,253,3827,2,0,P|104:245,1,99.0000037765504,0|0,0:0|1:0,0:0:0
30,64,4295,6,0,P|70:48|112:56,1,66.0000025177003,2|0,1:2|0:0,0:0:0
113,54,4577,2,0,P|152:84|168:136,1,99.0000037765504,0|0,0:0|0:0,0:0:0
12,232,5045,2,0,P|28:168|92:136,1,132.000005035401,2|8,0:0|0:0,0:0:0
266,99,5608,1,0,1:0:0
326,246,5795,6,0,P|272:272|200:240,2,132.000005035401,4|8|0,1:2|0:0|0:0,0:0:0
416,304,6732,2,0,P|488:300,1,66.0000025177003,0|8,0:0|0:0,0:0:0
512,180,7108,1,0,1:0:0
432,88,7295,5,0,1:0:0
324,212,7577,1,0,0:0:0
453,312,7858,1,0,0:0:0
312,320,8045,2,0,P|272:316|224:312,1,66.0000025177003,2|0,0:0|0:0,0:0:0
84,348,8420,2,0,P|109:350|149:354,1,66.0000025177003,8|0,0:0|0:0,0:0:0
0,240,8795,5,12,0:2:0
75,121,8983,1,0,0:0:0
209,164,9170,1,8,0:2:0
210,298,9358,1,2,0:0:0
83,349,9545,6,0,P|72:310|94:247,1,88,0|0,1:0|0:0,0:0:0
286,114,9920,2,0,P|297:153|275:216,1,88,8|2,1:2|0:0,0:0:0
187,261,10295,5,8,1:0:0
279,336,10483,1,0,0:0:0
396,318,10670,1,8,1:2:0
504,192,10858,1,2,0:0:0
428,48,11045,2,0,P|328:44,1,88,8|0,1:0|0:0,0:0:0
152,176,11420,2,0,P|240:180,1,88,8|0,1:0|0:0,0:0:0
177,381,11795,5,4,0:0:0
16,330,11983,2,0,P|-15:278|8:200,2,132.000005035401,10|10|2,0:0|0:0|0:0,0:0:0
156,353,12920,6,0,P|192:357|236:351,1,66.0000025177003,8|2,0:0|0:0,0:0:0
323,305,13295,1,0,0:0:0
238,250,13483,1,0,3:0:0
220,246,13577,1,0,3:0:0
201,243,13670,1,2,3:0:0
316,191,13858,5,0,3:0:0
334,187,13952,1,0,3:0:0
353,184,14045,1,0,3:0:0
460,220,14233,1,2,2:3:0
509,120,14420,2,0,P|479:101|442:94,1,66.0000025177003,0|0,3:0|3:0,0:0:0
288,28,14795,5,0,0:0:0
186,28,14983,1,0,0:0:0
254,118,15170,1,0,0:0:0
161,74,15358,1,0,0:0:0
184,186,15545,1,0,0:0:0
114,103,15733,1,0,0:0:0
52,186,15920,1,0,0:0:0
48,205,16014,1,0,0:0:0
44,224,16108,1,0,0:0:0
40,243,16202,1,0,0:0:0
20,275,16295,5,0,0:0:0
34,287,16389,1,0,0:0:0
48,300,16483,1,0,0:0:0
63,313,16577,1,0,0:0:0
74,346,16670,5,0,0:0:0
91,339,16764,1,0,0:0:0
109,334,16858,1,0,0:0:0
128,327,16952,1,0,0:0:0
151,285,17045,5,0,0:0:0
183,267,17139,1,0,0:0:0
220,265,17233,1,0,0:0:0
256,274,17327,1,0,0:0:0
283,299,17420,2,0,P|336:336|400:320,1,132,8|0,1:2|0:0,0:0:0
399,287,17795,5,4,0:1:0
512,353,17983,1,2,2:0:0
396,283,18170,1,8,0:0:0
512,223,18358,1,2,2:0:0
393,279,18545,2,0,P|379:232|388:190,1,88,0|2,1:1|2:0,0:0:0
512,65,18920,2,0,P|478:100|437:113,1,88,8|0,0:0|0:0,0:0:0
276,30,19295,5,0,1:1:0
165,189,19483,1,2,0:0:0
84,121,19670,2,0,P|37:133|4:165,1,88,8|2,0:0|0:0,0:0:0
134,261,20045,1,0,1:1:0
146,270,20139,1,8,0:0:0
160,274,20233,2,0,P|173:227|161:182,1,88,0|8,0:0|0:0,0:0:0
0,267,20607,1,2,0:0:0
104,372,20795,1,0,1:0:0
267,317,20983,5,2,0:0:0
183,142,21170,1,8,0:0:0
381,161,21358,1,2,0:0:0
202,171,21545,5,0,1:1:0
363,139,21733,1,2,0:0:0
242,30,21920,2,0,P|197:18|151:28,1,88,8|2,0:0|0:0,0:0:0
47,137,22295,5,2,1:1:0
139,350,22483,1,2,0:0:0
282,179,22670,1,8,0:0:0
47,137,22857,1,2,0:0:0
122,206,23045,1,0,1:1:0
136,201,23139,1,8,0:0:0
151,197,23233,2,0,P|245:170,1,88,2|8,0:0|0:0,0:0:0
344,253,23608,1,2,0:0:0
249,350,23795,5,0,1:1:0
127,288,23982,2,0,P|82:296,2,33.0000012588501,2|0|8,0:0|0:0|0:0,0:0:0
295,130,24357,2,0,P|345:134,2,33.0000012588501,4|0|0,0:0|0:0|1:0,0:0:0
163,80,24732,2,0,P|154:125|163:173,1,66.0000025177003,10|8,0:0|1:0,0:0:0
250,350,25107,2,0,P|259:305|250:257,1,66.0000025177003,8|2,0:0|1:0,0:0:0
256,192,25388,12,4,26795,0:0:0
366,332,26982,5,2,0:0:0
366,332,27170,2,0,P|376:258,1,66.0000025177003,0|2,1:0|0:0,0:0:0
499,180,27545,2,0,P|429:208,1,66.0000025177003,0|0,1:0|0:0,3:0:0
316,154,27920,1,2,1:2:0
398,340,28107,2,0,P|336:371|261:354,1,132.000005035401,0|2,0:0|2:0,0:0:0
238,300,28576,6,0,P|197:296,1,33.0000012588501,0|0,2:0|1:0,0:0:0
80,341,28857,1,2,0:0:0
214,220,29045,1,0,1:0:0
26,193,29232,1,2,0:0:0
149,86,29420,2,0,P|185:73|239:74,2,66.0000025177003,0|0|0,1:0|0:0|1:0,0:0:0
108,227,29982,5,2,0:0:0
108,227,30170,2,0,P|120:315,1,66.0000025177003,0|2,1:0|0:0,0:0:0
228,163,30545,2,0,P|220:258,1,66.0000025177003,0|0,1:0|0:0,0:0:0
300,337,30920,2,0,P|335:350|366:352,1,66.0000025177003,2|0,1:2|0:0,0:0:0
493,251,31295,6,0,P|429:225|355:255,1,132.000005035401,0|2,1:0|1:2,0:0:0
156,136,31857,2,0,P|210:140|262:104,1,99.0000037765504,0|0,2:0|2:0,0:0:0
262,102,32232,2,0,P|331:94,1,66.0000025177003,0|0,0:0|1:0,0:0:0
431,38,32607,1,2,0:0:0
477,212,32795,6,0,P|446:227|406:218,1,66.0000025177003,0|2,1:0|0:0,0:0:0
284,140,33170,2,0,P|271:212,1,66.0000025177003,0|0,1:0|0:0,0:0:0
312,355,33545,1,0,1:0:0
312,355,33732,2,0,P|266:368|214:342,1,99.0000037765504,2|0,0:0|2:0,0:0:0
206,332,34107,2,0,P|128:324,1,66.0000025177003,2|0,0:0|1:0,0:0:0
31,248,34482,5,0,0:0:0
146,152,34670,1,2,1:0:0
264,229,34857,2,0,P|318:255|368:241,1,99.0000037765504,0|0,0:0|2:0,0:0:0
372,237,35232,2,0,P|381:163,1,66.0000025177003,0|2,0:0|1:0,0:0:0
348,39,35607,6,0,P|408:37|448:60,1,99.0000037765504,0|0,0:0|2:0,0:0:0
457,68,35982,2,0,P|480:98|478:142,1,66.0000025177003,0|2,0:0|1:0,0:0:0
428,285,36357,1,0,0:0:0
464,141,36545,1,2,1:0:0
310,206,36732,1,0,0:0:0
445,153,36920,5,0,1:0:0
214,134,37107,1,4,1:0:0
214,134,37482,6,0,P|175:145|142:147,1,66.0000025177003,0|8,0:0|1:0,0:0:0
61,84,37857,1,2,0:0:0
40,78,37951,1,0,0:0:0
19,71,38045,1,0,0:0:0
200,40,38232,1,8,0:0:0
298,156,38420,2,0,P|303:189|283:242,1,66.0000025177003,8|2,1:0|0:0,0:0:0
173,357,38795,5,4,1:0:0
124,198,38982,1,2,0:0:0
254,294,39170,1,0,1:0:0
92,295,39357,1,2,0:0:0
224,198,39545,1,0,0:0:0
407,215,39732,2,0,P|449:202|494:199,1,88,2|8,1:0|1:0,0:0:0
364,291,40107,6,0,P|323:242|333:168,1,132,2|0,0:0|2:0,0:0:0
354,145,40482,1,0,2:0:0
473,234,40670,1,10,0:0:0
505,61,40857,2,0,P|419:25|331:53,1,176,0|2,0:0|1:0,0:0:0
318,62,41326,1,0,0:0:0
292,75,41420,1,10,0:0:0
264,81,41513,1,0,0:0:0
235,81,41607,5,0,0:0:0
112,75,41795,1,0,1:0:0
112,75,41982,2,0,P|95:121|94:166,1,88,2|8,0:0|0:0,0:0:0
179,221,42357,1,0,0:0:0
48,253,42545,5,0,1:0:0
137,346,42732,1,0,0:0:0
179,221,42920,1,8,0:0:0
92,164,43107,6,0,P|42:154|2:165,1,88,2|0,0:0|1:0,0:0:0
214,130,43482,1,2,0:0:0
273,240,43670,2,0,P|305:267|353:272,1,88,0|2,1:0|0:0,0:0:0
468,130,44045,2,0,P|423:135|391:162,1,88,0|8,1:0|0:0,0:0:0
469,226,44420,1,8,1:2:0
354,45,44607,1,0,1:0:0
354,45,44701,1,0,0:0:0
354,45,44795,5,4,1:0:0
259,79,44982,1,2,0:0:0
335,145,45170,1,8,0:0:0
240,180,45357,1,2,0:0:0
307,252,45545,5,0,1:0:0
157,115,45732,1,2,0:0:0
74,174,45920,1,8,0:0:0
157,115,46107,1,2,1:0:0
74,174,46295,6,0,P|63:215|68:262,1,88,0|2,1:0|0:0,0:0:0
79,383,46670,2,0,P|120:372|158:344,1,88,8|2,0:0|0:0,0:0:0
258,279,47045,2,0,P|227:248|184:229,1,88,0|2,1:0|0:0,0:0:0
80,94,47420,2,0,P|38:104|0:132,1,88,8|2,0:0|1:0,0:0:0
103,272,47795,6,0,P|203:281,1,88,4|2,1:0|0:0,0:0:0
354,175,48170,2,0,P|254:184,1,88,8|2,0:0|0:0,0:0:0
271,361,48545,6,0,P|367:333,1,88,0|2,1:0|0:0,0:0:0
455,101,48920,2,0,P|364:145,1,88,8|2,0:0|0:0,0:0:0
216,246,49295,5,4,1:0:0
256,192,49388,12,2,50795,0:0:0
256,192,50888,12,8,51920,0:0:0
126,281,52295,6,0,P|161:320|225:323,1,105.599996777344,4|0,1:2|0:0,0:0:0
250,266,52576,2,0,P|314:260,1,52.7999983886719,0|8,0:0|1:2,0:0:0
490,159,52857,5,2,0:0:0
474,148,52951,1,0,0:0:0
458,138,53045,2,0,P|347:147,1,105.599996777344,0|2,1:0|0:0,0:0:0
302,90,53326,2,0,P|249:94,1,52.7999983886719,0|8,0:0|1:2,0:0:0
97,181,53607,1,2,0:0:0
193,327,53795,5,4,1:2:0
351,224,53982,1,0,0:0:0
351,224,54076,1,0,0:0:0
351,224,54170,1,8,1:2:0
470,339,54357,1,2,0:0:0
292,290,54545,6,0,P|266:247|290:167,1,132,2|0,1:0|0:0,0:0:0
356,143,54920,2,0,P|363:38,1,105.599996777344,8|0,1:2|1:0,0:0:0
196,30,55295,6,0,P|189:199,1,158.399995166016,2|0,1:2|0:0,0:0:0
148,252,55670,2,0,P|110:276|46:266,1,88,8|2,1:2|0:0,0:0:0
13,157,56045,1,0,1:0:0
22,144,56138,1,0,0:0:0
29,130,56232,2,0,P|67:106|131:116,1,88,2|8,0:2|1:2,0:0:0
216,177,56607,1,0,0:0:0
332,102,56795,5,4,1:0:0
503,266,57076,1,4,1:0:0
269,332,57357,1,2,1:0:0
306,228,57545,6,0,P|364:198|445:206,1,132.000005035401,2|8,1:0|1:0,0:0:0
486,105,58107,1,0,1:0:0
479,90,58201,1,0,0:0:0
473,75,58295,5,4,1:0:0
362,119,58482,1,2,0:0:0
254,60,58670,2,0,P|160:55,1,88,8|2,1:0|0:0,0:0:0
28,124,59045,5,0,1:0:0
183,194,59232,1,2,0:0:0
16,266,59420,1,8,1:0:0
171,332,59607,2,0,P|267:322,1,88,2|0,0:0|1:0,0:0:0
450,205,59982,6,0,P|354:215,1,88,2|8,0:0|1:0,0:0:0
187,246,60357,1,2,0:0:0
187,246,60451,2,0,P|159:196|184:122,1,132,0|2,0:0|0:0,0:0:0
339,52,60920,2,0,P|351:97|326:149,1,88,8|2,1:0|0:0,0:0:0
266,252,61295,5,0,1:0:0
365,338,61482,2,0,P|464:324,1,88,2|8,1:2|1:0,0:0:0
237,287,61857,5,2,0:0:0
372,177,62045,2,0,P|273:163,1,88,0|8,1:2|1:0,0:0:0
170,106,62420,2,0,P|156:215,1,88,8|2,1:0|1:0,0:0:0
126,334,62795,6,0,P|76:345|36:322,1,88,4|2,1:0|0:0,0:0:0
33,319,63076,1,0,0:0:0
22,307,63170,2,0,P|34:215,1,88,8|0,1:2|1:0,0:0:0
37,200,63451,1,0,0:0:0
40,180,63545,5,2,0:0:0
64,158,63638,1,0,0:0:0
96,154,63732,1,2,0:0:0
127,164,63826,1,0,0:0:0
149,188,63920,6,0,P|206:181,1,44,8|0,1:0|0:0,0:0:0
271,121,64107,2,0,P|328:114,1,44,0|0,1:0|0:0,0:0:0
395,54,64295,6,0,P|436:98|430:159,1,105.599996777344,4|2,1:0|0:0,0:0:0
422,214,64576,2,0,P|407:274,1,52.7999983886719,2|8,0:0|1:2,0:0:0
255,362,64857,5,0,0:0:0
240,349,64951,1,0,0:0:0
226,336,65045,2,0,P|251:228,1,105.599996777344,0|2,1:0|0:0,0:0:0
191,182,65326,2,0,P|136:194,1,52.7999983886719,0|8,0:0|1:2,0:0:0
17,228,65607,1,2,0:0:0
64,60,65795,5,0,1:2:0
220,146,65982,1,2,0:0:0
171,308,66170,1,8,1:2:0
47,36,66357,5,2,0:0:0
344,25,66545,2,0,P|414:33|467:77,1,132,0|2,1:2|0:0,0:0:0
477,98,66920,2,0,P|461:199,1,88,8|2,0:0|0:0,0:0:0
348,334,67295,6,0,P|364:233,1,88,0|2,1:0|0:0,0:0:0
353,233,67576,1,0,0:0:0
346,218,67670,2,0,P|300:200|250:208,1,88,8|2,1:2|0:0,0:0:0
172,328,68045,1,2,1:2:0
160,337,68138,1,0,0:0:0
147,346,68232,2,0,P|109:349|63:331,1,88,2|8,0:2|0:0,0:0:0
4,190,68607,1,2,0:0:0
113,81,68795,5,4,0:0:0
256,336,69076,1,2,1:0:0
399,81,69357,1,4,0:0:0
309,247,69545,6,0,P|320:155,1,88,2|2,1:0|0:0,0:0:0
227,10,69920,2,0,P|216:102,1,88,8|2,1:0|0:0,0:0:0
171,235,70295,6,0,P|136:262|65:257,1,88,4|2,1:2|0:0,0:0:0
0,168,70670,1,8,1:2:0
162,138,70857,2,0,P|209:125|248:147|267:197|267:197|265:252,1,176,2|2,0:0|0:0,0:0:0
400,356,71420,2,0,P|406:263,1,88,8|2,1:2|1:2,0:0:0
512,53,71795,6,0,P|501:202,1,132,2|2,1:2|0:0,0:0:0
445,234,72170,2,0,P|400:240|358:223,1,88,8|2,1:2|0:0,0:0:0
259,109,72545,1,0,1:0:0
244,114,72638,1,0,0:0:0
229,120,72732,2,0,P|118:129,1,88,2|8,0:0|1:2,0:0:0
44,227,73107,1,8,1:2:0
124,343,73295,6,0,P|166:367|206:362,1,88,0|2,1:0|0:0,0:0:0
381,281,73670,2,0,P|339:257|299:262,1,88,8|2,1:2|0:0,0:0:0
287,267,73951,1,0,0:0:0
273,274,74045,2,0,P|264:180,1,88,0|2,1:0|0:0,0:0:0
411,56,74420,2,0,P|419:143,1,88,8|10,1:2|1:2,0:0:0
488,304,74795,5,0,1:0:0
329,368,74982,1,10,1:2:0
231,226,75170,1,8,1:2:0
333,89,75357,1,10,1:2:0
495,144,75545,5,2,1:2:0
479,161,75638,1,0,1:2:0
462,178,75732,1,2,1:2:0
439,188,75826,1,0,1:2:0
415,193,75920,1,0,1:2:0
391,192,76013,1,0,1:2:0
368,187,76107,2,0,P|311:180,1,33.0000012588501,0|0,0:0|0:0,0:0:0
266,151,76295,6,0,P|211:195|144:152|144:152|82:206|73:284|124:357|201:377|282:327,1,462.000017623902,4|0,1:0|0:0,0:0:0
359,292,77795,6,0,P|378:262|375:222,1,66.0000025177003,0|0,1:0|0:0,0:0:0
362,110,78170,2,0,P|337:78|291:64,1,88,0|0,1:0|0:0,0:0:0
138,79,78545,2,0,P|92:97|71:155,1,105.599996777344,0|0,1:0|0:0,0:0:0
14,342,78920,2,0,P|67:364|135:336,1,132.000005035401,0|0,1:0|0:0,0:0:0
287,223,79295,5,4,1:0:0
158,207,79482,1,2,0:0:0
292,252,79670,5,8,1:2:0
210,122,79857,1,2,0:0:0
296,281,80045,5,0,0:0:0
294,39,80232,1,2,0:0:0
89,159,80420,1,8,1:0:0
211,184,80607,6,0,P|286:140|358:179,1,176,8|10,1:0|1:0,0:0:0
385,315,81170,2,0,P|429:331|472:326,1,88,8|8,1:0|1:0,0:0:0
362,101,81545,6,0,P|322:96|278:112,1,88,8|8,1:0|1:0,0:0:0
170,365,81920,2,0,P|211:369|255:353,1,88,8|8,1:0|1:0,0:0:0
197,210,82295,6,0,P|65:201,1,132.000005035401,4|0,1:0|0:0,0:0:0
15,112,82857,1,4,1:0:0
321,90,83420,6,0,P|453:99,1,132.000005035401,4|2,1:0|0:0,0:0:0
503,188,83982,1,4,1:0:0
256,192,84076,12,0,86795,0:0:0
