osu file format v11

[General]
AudioFilename: Alteration (TV Size).mp3
AudioLeadIn: 2000
PreviewTime: 51826
Countdown: 0
SampleSet: Soft
StackLeniency: 0.7
Mode: 0
LetterboxInBreaks: 0

[Editor]
Bookmarks: 68194
DistanceSpacing: 0.85
BeatDivisor: 4
GridSize: 16

[Metadata]
Title:Alteration (TV Size)
TitleUnicode:Alteration (TV Size)
Artist:ZAQ
ArtistUnicode:ZAQ
Creator:Pokie
Version:Normal@Ganbareru
Source:Sasami-san@Ganbaranai
Tags:hs714 Hoshi No_Gu ささみさん@がんばらない 月読 鎖々美 Tsukuyomi Sasami オープニングテーマ Opening Theme
BeatmapID:209094
BeatmapSetID:73390

[Difficulty]
HPDrainRate:3
CircleSize:3
OverallDifficulty:4
ApproachRate:5
SliderMultiplier:1.44
SliderTickRate:2

[Events]
//Background and Video events
0,0,"BG.jpg"
Video,0,"video.avi"
//Break Periods
//Storyboard Layer 0 (Background)
//Storyboard Layer 1 (Fail)
//Storyboard Layer 2 (Pass)
//Storyboard Layer 3 (Foreground)
//Storyboard Sound Samples
//Background Colour Transformations
3,100,163,162,255

[TimingPoints]
-205,375,4,2,1,35,1,0
920,-100,4,2,1,40,0,0
1295,-100,4,2,1,45,0,0
1670,-100,4,2,1,55,0,0
2045,-100,4,2,1,75,0,0
2420,-100,4,2,1,70,0,0
2795,375,4,2,1,75,1,0
2795,-133.333333333333,4,2,1,75,0,0
4107,-133.333333333333,4,2,2,75,0,0
4295,-133.333333333333,4,2,1,75,0,0
5045,-133.333333333333,4,2,1,55,0,0
5232,-133.333333333333,4,2,1,75,0,0
5607,-133.333333333333,4,2,2,75,0,0
5795,-133.333333333333,4,2,1,75,0,0
7107,-133.333333333333,4,2,2,75,0,0
7295,-133.333333333333,4,2,1,75,0,0
8045,-133.333333333333,4,2,1,60,0,0
8232,-133.333333333333,4,2,1,75,0,0
8795,-100,4,2,1,80,0,0
9170,-100,4,2,1,75,0,0
9357,-100,4,2,1,80,0,0
9920,-100,4,2,1,75,0,0
10107,-100,4,2,1,80,0,0
10670,-100,4,2,1,75,0,0
11045,-100,4,2,1,80,0,0
11232,-100,4,1,2,70,0,0
11420,-100,4,2,1,60,0,0
11607,-100,4,2,1,53,0,0
11795,-133.333333333333,4,2,1,80,0,0
11982,-133.333333333333,4,2,1,70,0,0
13482,-133.333333333333,4,3,1,65,0,0
14232,-133.333333333333,4,3,1,70,0,0
14795,-133.333333333333,4,2,1,60,0,0
15170,-133.333333333333,4,2,1,65,0,0
15545,-133.333333333333,4,2,1,70,0,0
15920,-133.333333333333,4,2,1,75,0,0
17045,-133.333333333333,4,2,1,80,0,0
17420,-100,4,2,3,65,0,0
17795,375,4,2,2,85,1,0
20138,-100,4,2,2,85,0,0
20232,-100,4,2,2,85,0,0
23138,-100,4,2,2,85,0,0
23232,-100,4,2,2,85,0,0
23795,-100,4,2,2,75,0,0
24732,-100,4,2,2,70,0,0
25670,-133.333333333333,4,2,2,65,0,0
26045,-133.333333333333,4,2,2,55,0,0
26795,375,4,2,2,65,1,0
26795,-133.333333333333,4,2,2,65,0,0
36920,-133.333333333333,4,2,1,65,0,0
37295,-133.333333333333,4,1,2,65,0,0
37482,-133.333333333333,4,2,2,75,0,0
38795,-100,4,2,2,78,0,0
39920,-100,4,2,2,78,0,0
40295,-100,4,1,2,78,0,0
40670,-100,4,2,2,78,0,0
41232,-100,4,1,2,78,0,0
41607,-100,4,2,2,78,0,0
41982,-100,4,2,2,78,0,0
43107,-100,4,2,2,78,0,0
44232,-100,4,2,3,60,0,0
44607,-100,4,2,2,78,0,0
44795,-100,4,2,2,85,0,0
49295,-100,4,2,1,75,0,0
50795,-100,4,2,1,65,0,0
51920,-100,4,2,1,85,0,0
52295,375,4,2,4,100,1,1
52857,-100,4,2,4,100,0,1
53607,-100,4,2,4,100,0,1
54170,-100,4,1,1,90,0,1
54545,-100,4,2,2,100,0,1
54920,-100,4,2,4,100,0,1
55482,-100,4,2,4,100,0,1
56795,-100,4,2,2,100,0,1
57545,-100,4,2,2,100,0,1
57920,-100,4,1,1,80,0,1
58295,-100,4,2,2,100,0,1
60732,-100,4,2,2,100,0,1
63920,-100,4,1,1,80,0,1
64201,-100,4,1,1,80,0,0
64295,-100,4,2,4,100,0,1
64482,-100,4,2,4,100,0,1
66170,-100,4,1,1,90,0,1
66545,-100,4,2,2,100,0,1
66920,-100,4,2,4,100,0,1
68795,-100,4,2,2,100,0,1
69545,-100,4,2,2,100,0,1
70295,-100,4,2,4,100,0,1
74420,-100,4,1,1,95,0,1
74701,-100,4,2,2,100,0,1
76107,-100,4,2,2,70,0,0
77795,-100,4,2,2,60,0,0
78920,-100,4,2,2,30,0,0
79295,-100,4,2,2,90,0,0
81920,-100,4,2,2,80,0,0
82295,-133.333333333333,4,2,2,70,0,0
82670,-133.333333333333,4,2,2,30,0,0
82857,-133.333333333333,4,2,2,70,0,0
83795,-133.333333333333,4,2,2,30,0,0
83982,-133.333333333333,4,2,2,70,0,0
84545,-133.333333333333,4,2,2,60,0,0
84920,-133.333333333333,4,2,2,50,0,0
85295,-133.333333333333,4,2,2,40,0,0
85670,-133.333333333333,4,2,2,30,0,0
86045,-133.333333333333,4,2,2,20,0,0
86420,-133.333333333333,4,2,2,10,0,0
86795,-133.333333333333,4,2,2,5,0,0

[Colours]
Combo1 : 91,172,210
Combo2 : 210,96,139
Combo3 : 238,164,64
Combo4 : 228,232,83
Combo5 : 147,217,70

[HitObjects]
256,192,545,12,2,2420,0:0:0
204,267,2795,6,0,P|256:296|315:281,1,108.000004119873,4|8,1:2|0:0,0:0:0
378,191,3545,2,0,P|326:162|267:177,1,108.000004119873,0|8,0:0|0:0,0:0:0
248,153,4107,6,0,P|239:94,1,54.0000020599366,0|0,1:0|1:2,0:0:0
119,67,4670,1,8,0:0:0
52,172,5045,2,0,P|102:198|162:185,1,108.000004119873,0|8,0:0|0:0,0:0:0
169,160,5607,6,0,P|224:156,1,54.0000020599366,0|4,1:0|1:2,0:0:0
322,231,6170,1,8,0:0:0
388,335,6545,2,0,P|338:361|278:348,1,108.000004119873,0|8,0:0|0:0,0:0:0
263,329,7107,6,0,P|200:323,1,54.0000020599366,0|0,1:0|1:0,0:0:0
99,264,7670,1,8,0:0:0
183,168,8045,2,0,P|183:136|181:110,2,54.0000020599366,0|0|8,0:0|0:0|0:0,0:0:0
259,299,8795,6,0,P|194:334|123:307,1,144,4|8,1:2|1:0,0:0:0
95,264,9357,1,0,0:0:0
118,207,9545,2,0,P|183:172|254:199,1,144,0|8,1:0|1:0,0:0:0
359,238,10295,6,0,P|397:230|447:228,1,72,0|0,1:0|0:0,0:0:0
473,183,10670,2,0,P|465:145|463:95,1,72,8|0,1:0|0:0,0:0:0
499,62,11045,2,0,P|431:56|329:71,1,144,0|8,1:0|1:0,0:0:0
336,122,11607,5,0,1:0:0
336,122,11795,2,0,P|273:132|226:114,1,108.000004119873,4|8,0:0|0:0,0:0:0
146,44,12545,2,0,P|102:50|51:88,1,108.000004119873,0|8,0:0|0:0,0:0:0
75,199,13295,6,0,P|93:314,1,108.000004119873,0|8,0:0|2:0,0:0:0
194,257,14045,2,0,P|212:372,1,108.000004119873,0|8,0:0|2:0,0:0:0
323,363,14795,6,0,P|368:338|428:346|428:346|488:306|492:234|460:192|413:168|344:181|320:220|320:271,1,432.000016479493,4|0,2:0|1:0,0:0:0
182,275,16670,2,0,P|125:281|76:259,2,108.000004119873,0|0|8,1:0|1:0|0:0,0:0:0
282,181,17795,6,0,P|347:148|428:161,1,144,4|8,0:0|0:0,0:0:0
368,268,18545,2,0,P|377:345,2,72,0|0|8,1:0|0:0|0:0,0:0:0
223,321,19295,2,0,P|154:328|89:295,1,144,2|8,1:0|0:0,0:0:0
170,203,20045,2,0,P|161:131,2,72,0|0|8,0:0|0:0|0:0,0:0:0
286,254,20795,5,2,1:0:0
407,242,21170,1,8,0:0:0
316,159,21545,1,2,1:0:0
437,144,21920,1,8,0:0:0
346,61,22295,2,0,P|277:35|195:68,1,144,2|8,1:0|0:0,0:0:0
98,100,23045,2,0,P|60:94|20:92,2,72,0|2|8,1:0|0:0|0:0,0:0:0
117,134,23607,1,0,0:0:0
136,168,23795,6,0,P|198:198|274:166,1,144,4|2,0:0|0:0,0:0:0
316,207,24357,2,0,P|468:190,2,144,4|8|8,0:0|0:0|0:0,0:0:0
287,261,25295,6,0,P|228:310|143:288,1,144,2|8,0:0|0:0,0:0:0
104,238,26045,2,0,P|112:168,1,54.0000020599366,2|0,1:0|0:0,0:0:0
135,145,26420,2,0,P|199:131,1,54.0000020599366,8|0,0:0|1:0,0:0:0
218,98,26795,6,0,P|276:86|344:108,1,108.000004119873,4|2,1:0|1:0,0:0:0
410,169,27545,2,0,P|422:227|400:295,1,108.000004119873,0|2,1:0|1:0,0:0:0
323,344,28295,2,0,P|265:356|197:334,1,108.000004119873,0|2,1:0|1:0,0:0:0
128,276,29045,2,0,P|116:218|138:150,1,108.000004119873,0|2,1:0|1:0,0:0:0
150,145,29607,1,0,0:0:0
174,119,29795,6,0,P|119:102|61:111,2,108.000004119873,0|2|0,1:0|1:0|1:0,0:0:0
247,170,30920,1,2,1:0:0
329,209,31295,2,0,P|379:214|434:197,2,108.000004119873,0|2|0,1:0|1:0|1:0,0:0:0
238,193,32420,2,0,P|204:191|161:185,1,54.0000020599366,2|0,1:0|0:0,0:0:0
142,151,32795,6,0,P|90:143|42:179,1,108.000004119873,0|2,1:0|1:0,0:0:0
30,284,33545,2,0,P|50:333|105:356,1,108.000004119873,0|2,1:0|1:0,0:0:0
205,321,34295,2,0,P|238:279|231:220,1,108.000004119873,0|2,1:0|1:0,0:0:0
143,160,35045,2,0,P|140:107|173:66,1,108.000004119873,0|2,1:0|1:0,0:0:0
203,48,35607,1,0,0:0:0
237,38,35795,6,0,P|362:42,1,108.000004119873,0|2,1:0|1:0,0:0:0
449,136,36545,2,0,P|324:132,1,108.000004119873,0|0,1:0|1:0,0:0:0
313,152,37107,2,0,P|285:212|325:295,1,162.00000617981,0|8,1:0|1:0,0:0:0
431,255,38045,1,0,0:0:0
431,255,38232,2,0,P|448:324,1,54.0000020599366,8|8,1:0|1:0,0:0:0
333,362,38795,6,0,P|256:374|191:343,1,144,4|8,1:0|1:0,0:0:0
115,257,39545,2,0,P|192:245|257:276,1,144,0|8,1:0|1:0,0:0:0
295,312,40107,2,0,P|400:336|476:260,1,216,2|8,0:0|1:0,0:0:0
476,206,40857,2,0,P|454:139|321:103,1,216,2|8,0:0|1:0,0:0:0
253,205,41795,6,0,P|185:231|112:199,2,144,2|8|2,0:0|1:0|0:0,0:0:0
291,157,42732,2,0,P|281:80,1,72,0|8,1:0|1:0,0:0:0
353,238,43295,6,0,P|421:264|494:232,2,144,2|8|2,0:0|1:0|0:0,0:0:0
302,203,44232,2,0,P|216:195,1,72,8|8,0:0|1:2,0:0:0
209,306,44795,6,0,P|142:340|72:310,1,144,2|8,1:0|1:0,0:0:0
22,185,45545,2,0,P|89:151|159:181,1,144,2|8,1:0|1:0,0:0:0
193,217,46107,1,0,1:0:0
251,196,46295,2,0,P|395:187,2,144,2|8|2,1:0|1:0|1:0,0:0:0
176,99,47420,2,0,P|138:94|99:92,2,72,8|2|4,1:0|0:0|1:0,0:0:0
298,84,48170,5,8,1:0:0
309,205,48545,1,2,1:0:0
188,220,48920,1,8,1:0:0
176,99,49295,1,4,1:0:0
256,192,49388,12,8,51920,0:0:0
193,257,52295,6,0,P|256:285|322:252,1,144,4|8,0:0|1:2,0:0:0
379,146,53045,2,0,P|316:118|250:151,1,144,2|8,1:2|1:2,0:0:0
193,257,53795,2,0,P|143:292|49:136,1,288,2|2,1:2|1:0,0:0:0
158,132,54920,6,0,P|221:104|287:137,1,144,8|2,1:2|1:2,0:0:0
357,234,55670,1,8,1:2:0
287,333,56045,2,0,P|224:361|158:328,1,144,2|8,1:2|1:2,0:0:0
123,216,56795,2,0,P|110:103,2,108,4|4|2,1:0|1:0|1:0,0:0:0
153,235,57545,2,0,P|284:285|411:195,1,288,2|4,1:0|1:0,0:0:0
273,164,58670,5,8,1:0:0
330,51,59045,2,0,P|400:36|471:77,2,144,2|8|2,1:0|1:0|1:0,0:0:0
243,137,60170,2,0,P|170:160|110:124,1,144,8|2,1:0|1:2,0:0:0
15,200,60920,5,8,1:0:0
82,302,61295,1,4,1:0:0
201,271,61670,1,8,1:0:0
209,148,62045,1,2,1:0:0
95,105,62420,1,8,1:0:0
133,216,62795,6,0,P|193:250|269:234,1,144,4|8,1:0|1:2,0:0:0
286,204,63357,1,0,0:0:0
301,167,63545,2,0,P|372:154|464:322,1,288,2|4,1:0|1:2,0:0:0
351,272,64670,5,8,1:2:0
264,358,65045,2,4,P|197:371|130:333,1,144,2|8,1:2|1:2,0:0:0
60,237,65795,2,0,P|156:76|227:89,1,288,2|2,1:2|1:2,0:0:0
182,203,66920,1,8,1:2:0
299,248,67295,6,0,P|367:264|437:225,1,144,2|8,1:2|1:2,0:0:0
488,124,68045,2,0,P|420:108|350:147,1,144,2|8,1:2|1:2,0:0:0
237,107,68795,2,0,P|102:97,2,108,4|2|4,1:0|1:0|1:0,0:0:0
274,142,69545,2,0,P|286:289,1,144,2|8,1:0|1:0,0:0:0
187,359,70295,6,0,P|115:375|58:326,1,144,4|8,1:2|1:2,0:0:0
16,221,71045,2,0,P|88:205|145:254,1,144,2|8,1:2|1:2,0:0:0
187,235,71607,1,0,0:0:0
233,224,71795,2,0,P|319:259|377:229,1,144,2|8,1:2|1:2,1:0:0
441,147,72545,2,0,P|355:112|297:142,1,144,2|8,1:2|1:2,1:0:0
272,153,73107,1,0,0:0:0
233,128,73295,6,0,P|83:121,1,144,2|8,1:2|1:2,0:0:0
19,222,74045,2,0,P|169:229,1,144,2|8,1:2|1:2,0:0:0
236,327,74795,5,4,1:0:0
351,286,75170,1,8,1:0:0
347,163,75545,1,8,1:0:0
228,134,75920,1,8,1:0:0
256,192,76295,12,0,78920,0:0:0
256,272,79295,5,4,1:0:0
350,193,79670,1,8,1:0:0
257,112,80045,1,2,1:0:0
163,191,80420,6,0,P|78:198,1,72,8|2,1:2|0:0,0:0:0
41,308,80982,2,0,P|126:301,1,72,8|8,1:0|0:0,0:0:0
225,349,81545,2,0,P|377:336,1,144,8|8,1:0|1:0,0:0:0
466,287,82295,5,4,0:0:0
485,150,82857,1,4,0:0:0
372,69,83420,1,4,0:0:0
353,205,83982,1,4,0:0:0
256,192,84076,12,0,86795,0:0:0
