osu file format v11

[General]
AudioFilename: Alteration (TV Size).mp3
AudioLeadIn: 2000
PreviewTime: 51826
Countdown: 0
SampleSet: Soft
StackLeniency: 0.3
Mode: 0
LetterboxInBreaks: 0

[Editor]
Bookmarks: 68194
DistanceSpacing: 0.45
BeatDivisor: 4
GridSize: 4

[Metadata]
Title:Alteration (TV Size)
TitleUnicode:Alteration (TV Size)
Artist:ZAQ
ArtistUnicode:ZAQ
Creator:Pokie
Version:No_Gu-san@Ganbaranai
Source:Sasami-san@Ganbaranai
Tags:hs714 Hoshi No_Gu ささみさん@がんばらない 月読 鎖々美 Tsukuyomi Sasami オープニングテーマ Opening Theme
BeatmapID:209632
BeatmapSetID:73390

[Difficulty]
HPDrainRate:6
CircleSize:4
OverallDifficulty:7
ApproachRate:8
SliderMultiplier:1.6
SliderTickRate:1

[Events]
//Background and Video events
0,0,"BG.jpg"
Video,0,"video.avi"
//Break Periods
//Storyboard Layer 0 (Background)
//Storyboard Layer 1 (Fail)
//Storyboard Layer 2 (Pass)
//Storyboard Layer 3 (Foreground)
//Storyboard Sound Samples
//Background Colour Transformations
3,100,163,162,255

[TimingPoints]
-205,375,4,2,1,35,1,0
920,-200,4,2,1,40,0,0
1295,-200,4,2,1,45,0,0
1670,-200,4,2,1,55,0,0
2045,-200,4,2,1,75,0,0
2420,-200,4,2,1,70,0,0
2795,375,4,2,1,75,1,0
2795,-200,4,2,1,75,0,0
4107,-200,4,1,1,75,0,0
4295,-200,4,2,1,75,0,0
5045,-200,4,2,1,55,0,0
5232,-200,4,2,1,75,0,0
5607,-200,4,1,1,75,0,0
5795,-200,4,2,1,75,0,0
7107,-200,4,1,1,75,0,0
7295,-200,4,2,1,75,0,0
8045,-200,4,2,1,60,0,0
8232,-200,4,2,1,75,0,0
8795,-100,4,2,2,80,0,0
9170,-100,4,1,1,75,0,0
9357,-100,4,2,2,90,0,0
11795,-133.333333333333,4,2,1,65,0,0
11982,-133.333333333333,4,2,2,65,0,0
14795,-100,4,2,2,65,0,0
16295,-100,4,1,3,65,0,0
17420,-133.333333333333,4,2,3,65,0,0
17795,375,4,2,2,95,1,0
22295,-100,4,2,2,65,0,0
24732,-100,4,2,2,70,0,0
26045,-133.333333333333,4,2,2,55,0,0
26795,375,4,1,2,65,1,0
26795,-133.333333333333,4,1,2,65,0,0
26888,-133.333333333333,4,1,3,65,0,0
29045,-133.333333333333,4,1,2,85,0,0
29232,-133.333333333333,4,1,3,65,0,0
30545,-133.333333333333,4,1,2,85,0,0
30732,-133.333333333333,4,1,3,65,0,0
31295,-133.333333333333,4,1,2,85,0,0
31482,-133.333333333333,4,1,3,65,0,0
32795,-133.333333333333,4,1,2,85,0,0
32982,-133.333333333333,4,1,2,20,0,0
33170,-133.333333333333,4,1,3,65,0,0
33545,-133.333333333333,4,1,2,85,0,0
33732,-133.333333333333,4,1,3,65,0,0
34295,-133.333333333333,4,1,2,85,0,0
34482,-133.333333333333,4,1,3,65,0,0
36920,-133.333333333333,4,1,3,45,0,0
37295,-133.333333333333,4,1,2,35,0,0
37388,-133.333333333333,4,1,2,65,0,0
38232,-133.333333333333,4,2,2,65,0,0
38795,-133.333333333333,4,2,2,80,0,0
47795,-133.333333333333,4,1,2,80,0,0
49295,-133.333333333333,4,2,1,75,0,0
50795,-133.333333333333,4,2,1,65,0,0
51170,-133.333333333333,4,2,1,100,0,0
51920,-133.333333333333,4,2,1,85,0,0
52295,375,4,2,2,100,1,1
55670,-100,4,1,2,100,0,1
55857,-100,4,2,2,100,0,1
56420,-100,4,1,2,100,0,1
56607,-100,4,2,2,100,0,1
57357,-66.6666666666667,4,2,2,100,0,1
57920,-100,4,2,2,100,0,1
63170,-66.6666666666667,4,2,2,100,0,1
63920,-100,4,2,2,100,0,1
64201,-100,4,2,2,100,0,0
64295,-100,4,2,2,100,0,1
74701,-100,4,2,2,100,0,1
76107,-100,4,2,2,85,0,0
80982,-133.333333333333,4,2,2,85,0,0
84076,-133.333333333333,4,2,2,5,0,0

[Colours]
Combo1 : 91,172,210
Combo2 : 210,96,139
Combo3 : 238,164,64
Combo4 : 228,232,83
Combo5 : 147,217,70

[HitObjects]
256,192,545,12,2,2420,0:0:0
28,88,2795,6,2,P|68:92|108:76,1,80,4|8,1:0|0:0,0:0:0
172,128,3545,2,2,P|212:124|252:140,1,80,0|8,0:0|0:0,0:0:0
328,104,4107,1,0,0:0:0
328,104,4295,6,0,P|408:100,1,80,0|8,1:0|0:0,0:0:0
452,180,5045,2,0,P|372:184,1,80,0|8,0:0|0:0,0:0:0
320,252,5607,1,0,0:0:0
320,252,5795,6,0,P|296:220|288:180,1,80,0|8,1:0|0:0,0:0:0
296,96,6545,2,0,P|311:59|342:32,1,80,0|8,0:0|0:0,0:0:0
384,108,7107,1,0,0:0:0
384,108,7295,6,0,P|464:104,1,80,0|8,1:0|0:0,0:0:0
504,184,8045,2,0,P|424:188,1,80,0|8,0:0|0:0,0:0:0
360,244,8607,1,0,0:0:0
360,244,8795,6,0,P|352:284|364:324,1,80,4|0,1:0|0:0,0:0:0
400,344,9076,2,0,P|344:328|280:336,1,120
208,284,9545,1,0,1:0:0
208,284,9920,2,0,P|192:244|196:200,1,80,8|0,1:0|0:0,0:0:0
328,96,10295,6,0,P|344:136|340:180,1,80,0|0,1:0|0:0,0:0:0
284,232,10670,1,8,1:0:0
368,256,10857,1,0,0:0:0
428,192,11045,2,0,P|432:116|400:40,1,160,0|8,1:0|1:0,0:0:0
316,16,11607,1,0,1:0:0
248,72,11795,6,0,P|188:68,1,60.0000022888184,10|0,0:0|0:0,0:0:0
196,148,12170,2,0,P|136:144,1,60.0000022888184,2|0,0:0|0:0,0:0:0
272,184,12545,2,0,P|332:180,1,60.0000022888184,2|0,0:0|0:0,0:0:0
316,260,12920,2,0,P|376:256,1,60.0000022888184,2|0,0:0|0:0,0:0:0
408,72,13295,6,0,P|404:108,7,30.0000011444092,0|0|0|0|0|0|0|0,1:0|0:0|1:0|0:0|1:0|0:0|1:0|0:0,0:0:0
424,128,14045,2,0,P|428:164,7,30.0000011444092,0|0|0|0|0|0|0|0,1:0|0:0|1:0|0:0|1:0|0:0|1:0|0:0,0:0:0
456,192,14795,6,8,P|468:224|464:272,1,80,0|0,1:0|1:0,0:0:0
352,348,15170,2,8,P|340:316|344:268,1,80,8|8,1:0|1:0,0:0:0
276,224,15545,2,8,P|196:236,1,80,8|8,1:0|1:0,0:0:0
108,164,15920,2,8,P|188:152,1,80,8|8,1:0|1:0,0:0:0
240,80,16295,6,0,P|252:40,3,40
284,16,16670,2,0,P|324:16,3,40
364,41,17045,2,0,P|376:80,3,40
308,108,17420,6,0,P|308:228,1,120.000004577637,8|4,0:0|1:0,0:0:0
220,268,17982,1,2,0:0:0
152,200,18170,2,0,P|112:192|72:208,1,80,8|0,1:0|0:0,0:0:0
58,207,18451,2,0,P|66:163,1,40,2|0,0:0|1:0,0:0:0
88,32,18732,1,2,0:0:0
148,104,18920,1,8,1:0:0
236,80,19107,1,2,0:0:0
312,204,19295,6,0,P|324:168|320:120,1,80,2|0,1:0|0:0,0:0:0
232,160,19670,2,0,P|220:196|224:244,1,80,8|2,1:0|0:0,0:0:0
296,296,20045,2,0,P|336:292,1,40,0|8,1:0|0:0,0:0:0
208,356,20420,2,0,P|168:360|128:352,1,80,8|0,0:0|1:0,0:0:0
80,280,20795,6,0,P|96:120,1,160,0|8,1:0|1:0,0:0:0
156,60,21357,1,2,0:0:0
240,40,21545,2,0,P|280:36|320:48,1,80,0|2,1:0|0:0,0:0:0
356,128,21920,2,0,P|316:132|276:120,1,80,8|2,1:0|0:0,0:0:0
136,224,22295,5,0,1:0:0
220,236,22482,1,0,0:0:0
228,152,22670,1,8,1:0:0
148,140,22857,1,2,0:0:0
52,184,23045,2,0,P|36:220,4,40,0|8|8|0|8,1:0|1:0|1:0|1:0|1:0,0:0:0
96,56,23607,1,0,1:0:0
220,80,23795,6,0,P|256:168|288:80,1,240,4|4,2:0|2:0,0:0:0
424,40,24732,5,4,1:0:0
480,104,24920,1,0,1:0:0
396,120,25107,1,0,0:0:0
360,220,25295,6,0,P|440:232,2,80,0|0|4,1:0|1:0|1:0,0:0:0
360,220,26045,2,0,P|332:232|304:204|304:204|324:260|312:308|312:308|296:268|260:256,1,240.000009155274,2|4,0:0|1:0,0:0:0
60,56,27170,5,2,0:0:0
128,100,27357,2,0,P|188:92,1,60.0000022888184,0|0,2:0|0:0,0:0:0
196,172,27732,1,0,2:0:0
264,128,27920,2,0,P|324:136,1,60.0000022888184,2|2,0:0|2:0,0:0:0
384,192,28295,6,0,P|404:248|372:300,1,120.000004577637,2|0,0:0|0:0,0:0:0
300,344,28857,2,0,P|280:288|312:236,1,120.000004577637,0|0,2:0|2:0,0:0:0
248,188,29420,2,0,P|224:212|212:240,1,60.0000022888184,2|2,0:0|2:0,0:0:0
208,328,29795,6,0,P|216:360|235:385,1,60.0000022888184,2|0,0:0|2:0,0:0:0
128,276,30170,1,0,0:0:0
128,276,30357,2,0,P|72:304|16:292,1,120.000004577637,2|2,2:0|2:0,0:0:0
0,160,30920,1,0,0:0:0
0,160,31107,6,0,P|56:132|112:144,1,120.000004577637,2|2,2:0|2:0,0:0:0
188,120,31670,2,0,P|216:68|208:8,1,120.000004577637
256,76,32232,2,0,P|316:68,1,60.0000022888184,2|2,2:0|0:0,0:0:0
376,8,32607,6,0,P|436:0|436:0|480:44|460:112,1,180.000006866455,2|0,2:0|0:0,0:0:0
396,168,33357,2,0,P|452:192|516:176,1,120.000004577637,0|2,2:0|2:0,0:0:0
340,240,33920,1,0,0:0:0
340,240,34107,6,0,P|284:264|220:248,1,120.000004577637,2|2,2:0|2:0,0:0:0
172,184,34670,1,2,0:0:0
172,184,34857,2,0,P|176:124,1,60.0000022888184,2|0,2:0|0:0,0:0:0
148,264,35232,1,0,2:0:0
148,264,35420,2,0,P|152:324,2,60.0000022888184,0|2|0,0:0|2:0|0:0,0:0:0
84,168,35982,5,0,2:0:0
68,248,36170,2,0,P|52:328|52:328|44:284,1,120.000004577637,2|2,0:0|0:0,0:0:0
144,212,36732,1,0,2:0:0
240,296,36920,2,0,P|284:296,2,30.0000011444092,2|0|2,0:0|0:0|0:0,0:0:0
340,328,37295,6,0,P|300:284|308:228,1,120.000004577637,0|8,0:0|0:0,0:0:0
404,260,37857,2,0,P|364:264,1,30.0000011444092,0|8,0:0|0:0,0:0:0
236,152,38232,2,0,P|296:148,1,60.0000022888184,8|8,1:0|1:0,0:0:0
120,68,38795,6,0,P|176:44|240:52,2,120.000004577637,4|8|0,1:0|0:0|1:0,0:0:0
72,140,39732,1,0,1:0:0
72,140,39920,2,0,P|76:204,1,60.0000022888184,8|0,0:0|0:0,0:0:0
152,296,40295,6,0,P|160:168,1,120.000004577637,2|8,1:0|0:0,0:0:0
224,120,40857,2,0,P|280:104|336:128,1,120.000004577637,2|0,1:0|1:0,0:0:0
380,200,41420,1,8,0:0:0
380,200,41795,6,0,P|392:244|376:312,1,90.0000034332277,2|0,1:0|0:0,0:0:0
352,312,42170,2,0,P|228:304,1,120.000004577637,8|0,0:0|1:0,0:0:0
168,248,42732,1,0,1:0:0
168,248,42920,2,0,P|106:252,1,60.0000022888184,8|0,0:0|0:0,0:0:0
40,204,43295,6,0,P|36:180|40:144,1,60.0000022888184,0|0,1:0|0:0,0:0:0
60,64,43670,2,0,P|82:72|111:94,1,60.0000022888184,8|0,2:0|1:0,0:0:0
176,148,44045,2,0,P|157:163|124:178,1,60.0000022888184,0|0,0:0|1:0,0:0:0
256,136,44420,2,0,P|274:120|307:106,1,60.0000022888184,0|8,1:0|0:0,0:0:0
306,106,44795,6,0,P|320:228,1,120.000004577637,0|8,1:0|0:0,0:0:0
116,332,45545,2,0,P|102:210,1,120.000004577637,0|0,1:0|1:0,0:0:0
164,144,46107,1,8,0:0:0
244,192,46295,6,0,P|304:180,1,60.0000022888184,0|0,1:0|0:0,0:0:0
312,288,46670,2,0,P|351:241,1,60.0000022888184,8|0,0:0|0:0,0:0:0
424,324,47045,2,0,P|426:262,1,60.0000022888184,0|0,1:0|0:0,0:0:0
484,144,47420,2,0,P|486:205,1,60.0000022888184,0|8,1:0|0:0,0:0:0
416,88,47795,5,0,0:0:0
340,56,47982,1,0,1:0:0
260,84,48170,1,8,0:0:0
212,236,48357,1,0,0:0:0
128,204,48545,1,0,1:0:0
136,288,48732,1,0,1:0:0
80,356,48920,2,0,P|20:364,1,60.0000022888184,8|0,0:0|0:0,0:0:0
56,276,49295,6,0,P|60:244,7,30.0000011444092,0|0|0|0|0|0|0|0,1:0|1:0|1:0|1:0|1:0|1:0|1:0|1:0,0:0:0
88,220,50045,2,0,P|92:188,7,30.0000011444092,0|0|0|0|0|0|0|0,1:0|1:0|1:0|1:0|1:0|1:0|1:0|1:0,0:0:0
88,152,50795,2,0,P|56:148|29:153,2,60.0000022888184,2|2|8,0:0|0:0|0:0,0:0:0
88,152,52295,6,0,P|124:104|108:48,1,120,4|0,1:0|0:0,0:0:0
148,64,52670,2,0,P|228:52,1,80,8|0,1:0|0:0,0:0:0
300,92,53045,2,0,P|328:148|312:208,1,120,2|0,1:0|0:0,0:0:0
276,220,53420,2,0,P|312:208|360:212,1,80,8|0,1:0|0:0,0:0:0
408,276,53795,5,2,1:0:0
468,168,54076,1,0,0:0:0
468,168,54170,1,8,1:0:0
484,252,54357,1,0,0:0:0
440,360,54545,1,2,1:0:0
384,192,54732,2,0,P|344:188|304:196,1,80,0|8,0:0|1:0,0:0:0
232,264,55107,1,0,0:0:0
144,216,55295,6,0,P|104:152|112:68,1,160,2|8,1:0|0:0,0:0:0
192,28,55857,1,0,0:0:0
252,96,56045,2,0,P|316:136|400:128,1,160,2|8,1:0|0:0,0:0:0
496,236,56607,1,0,1:0:0
496,236,56795,6,0,P|456:228|416:232,1,80,2|0,1:0|0:0,0:0:0
388,252,57076,2,0,P|392:300,1,40,0|8,1:0|1:0,0:0:0
296,368,57357,2,0,P|304:244,1,120.000004577637,2|2,1:0|1:0,0:0:0
320,36,57920,1,8,1:0:0
320,36,58295,6,0,P|284:52|240:48,1,80,4|0,1:0|0:0,0:0:0
188,112,58670,2,0,P|152:96|108:100,1,80,8|0,1:0|0:0,0:0:0
52,236,59045,1,0,1:0:0
48,152,59232,1,0,0:0:0
128,272,59420,2,0,P|208:268,1,80,8|0,1:0|0:0,0:0:0
304,160,59795,6,0,P|224:164,2,80,0|0|8,1:0|0:0|1:0,0:0:0
384,220,60357,1,0,0:0:0
384,220,60451,2,0,P|424:218,1,40,0|2,0:0|1:0,0:0:0
496,160,60732,1,0,0:0:0
440,84,60920,1,8,1:0:0
440,84,61107,1,0,1:0:0
368,140,61295,6,0,P|284:136,1,80,2|0,1:0|0:0,0:0:0
212,192,61670,2,0,P|260:136|248:44,2,160,8|0|8,1:0|1:0|1:0,0:0:0
80,260,62607,1,0,1:0:0
80,260,62795,6,0,P|120:248|160:252,1,80,0|8,1:0|0:0,0:0:0
216,304,63170,2,0,P|332:228|220:240,1,360.000013732911,2|0,0:0|1:0,0:0:0
160,172,63920,2,0,P|148:132|152:84,1,80,8|0,1:0|0:0,0:0:0
288,4,64295,6,0,P|300:44|296:92,1,80,4|0,1:0|0:0,0:0:0
280,112,64576,1,0,0:0:0
280,112,64670,2,0,P|360:100,1,80,8|0,1:0|0:0,0:0:0
444,172,65045,2,0,P|364:184,2,80,2|0|8,1:0|0:0|1:0,0:0:0
500,288,65607,1,0,0:0:0
380,256,65795,6,0,P|340:200|352:112,1,160,2|8,1:0|1:0,0:0:0
416,48,66357,1,0,0:0:0
328,20,66545,2,0,P|248:12|168:32,1,160,2|8,1:0|0:0,0:0:0
112,96,67107,1,0,0:0:0
96,184,67295,6,0,P|108:264,1,80,2|0,1:0|0:0,0:0:0
192,344,67670,2,0,P|204:264,1,80,8|0,1:0|0:0,0:0:0
308,264,68045,2,0,P|320:344,1,80,2|0,1:0|0:0,0:0:0
404,264,68420,2,0,P|416:184,1,80,8|0,1:0|0:0,0:0:0
360,108,68795,6,0,P|300:88|240:104,1,120,2|2,1:0|0:0,0:0:0
224,128,69170,2,0,P|220:212,1,80,8|2,1:0|0:0,0:0:0
160,272,69545,2,0,P|108:300|56:272|56:272|44:220,1,160,2|8,1:0|1:0,0:0:0
64,104,70107,1,0,0:0:0
64,104,70295,6,0,P|28:120|0:152,1,80,4|0,1:0|0:0,0:0:0
80,24,70670,2,0,P|120:36|144:72|144:72|176:44|216:40,1,160,8|0,1:0|1:0,0:0:0
216,132,71232,1,0,0:0:0
288,180,71420,2,0,P|368:168,1,80,10|8,1:0|0:0,0:0:0
484,300,71795,6,0,P|412:252|328:268,1,160,2|8,1:0|1:0,0:0:0
272,328,72357,1,0,0:0:0
180,292,72545,2,0,P|172:256|176:212,1,80,2|0,1:0|0:0,0:0:0
332,92,72920,2,0,P|340:128|336:172,1,80,8|8,1:0|0:0,0:0:0
264,228,73295,5,2,1:0:0
180,192,73482,1,0,0:0:0
160,116,73670,2,0,P|100:136|100:204|100:204|64:164,1,160,8|0,1:0|1:0,0:0:0
76,280,74232,2,0,P|116:284|152:264,1,80,0|8,0:0|1:0,0:0:0
280,180,74607,2,0,P|240:176|204:196,1,80,0|0,0:0|1:0,0:0:0
256,260,74982,5,0,1:0:0
344,240,75170,1,0,1:0:0
364,156,75357,1,0,1:0:0
300,96,75545,2,0,P|280:92|256:92,3,40,2|0|2|0,1:0|0:0|1:0|0:0,0:0:0
224,112,75920,2,0,P|180:120,2,40,2|0|2,1:0|0:0|1:0,0:0:0
256,192,76201,12,4,79295,0:0:0
238,271,79670,5,8,0:0:0
174,209,79857,1,8,0:0:0
195,124,80045,1,0,1:0:0
280,100,80232,1,0,0:0:0
343,161,80420,1,8,0:0:0
322,246,80607,1,8,0:0:0
322,246,80982,6,0,P|384:252,1,60.0000022888184,8|8,0:0|0:0,0:0:0
248,196,81357,2,0,P|299:160,1,60.0000022888184,0|8,1:0|0:0,0:0:0
164,200,81732,2,0,P|180:139,2,60.0000022888184,0|8|0,1:0|0:0|1:0,0:0:0
136,280,82295,5,4,1:0:0
172,91,82857,1,4,0:0:0
361,128,83420,1,4,1:0:0
324,316,83982,1,12,0:0:0
256,192,84076,12,0,87545,0:0:0
