osu file format v11

[General]
AudioFilename: Alteration (TV Size).mp3
AudioLeadIn: 2000
PreviewTime: 51826
Countdown: 0
SampleSet: Normal
StackLeniency: 0.7
Mode: 0
LetterboxInBreaks: 0

[Editor]
Bookmarks: 68194
DistanceSpacing: 0.95
BeatDivisor: 1
GridSize: 16

[Metadata]
Title:Alteration (TV Size)
TitleUnicode:Alteration (TV Size)
Artist:ZAQ
ArtistUnicode:ZAQ
Creator:Pokie
Version:Easy@Ganbaru
Source:Sasami-san@Ganbaranai
Tags:hs714 Hoshi No_Gu ささみさん@がんばらない 月読 鎖々美 Tsukuyomi Sasami オープニングテーマ Opening Theme
BeatmapID:209631
BeatmapSetID:73390

[Difficulty]
HPDrainRate:1
CircleSize:3
OverallDifficulty:2
ApproachRate:3
SliderMultiplier:1
SliderTickRate:1

[Events]
//Background and Video events
0,0,"BG.jpg"
Video,0,"video.avi"
//Break Periods
//Storyboard Layer 0 (Background)
//Storyboard Layer 1 (Fail)
//Storyboard Layer 2 (Pass)
//Storyboard Layer 3 (Foreground)
//Storyboard Sound Samples
//Background Colour Transformations
3,100,163,162,255

[TimingPoints]
-205,375,4,2,1,35,1,0
2795,375,4,2,1,75,1,0
2795,-133.333333333333,4,2,1,75,0,0
4107,-133.333333333333,4,2,2,75,0,0
4295,-133.333333333333,4,2,1,75,0,0
5045,-133.333333333333,4,2,1,55,0,0
5232,-133.333333333333,4,2,1,75,0,0
5607,-133.333333333333,4,2,2,75,0,0
5795,-133.333333333333,4,2,1,75,0,0
7107,-133.333333333333,4,2,2,75,0,0
7295,-133.333333333333,4,2,1,75,0,0
8045,-133.333333333333,4,2,1,60,0,0
8232,-133.333333333333,4,2,1,75,0,0
8795,-100,4,2,1,80,0,0
9170,-100,4,2,1,75,0,0
9357,-100,4,2,1,80,0,0
9920,-100,4,2,1,75,0,0
10107,-100,4,2,1,80,0,0
10670,-100,4,1,2,75,0,0
11045,-100,4,2,1,80,0,0
11232,-100,4,1,2,70,0,0
11420,-100,4,2,1,60,0,0
11607,-100,4,2,1,53,0,0
11795,-100,4,2,1,80,0,0
11982,-100,4,2,1,70,0,0
13482,-100,4,3,1,65,0,0
14232,-100,4,3,1,70,0,0
14795,-100,4,2,1,60,0,0
15170,-100,4,2,1,65,0,0
15545,-100,4,2,1,70,0,0
15920,-100,4,2,1,75,0,0
17045,-100,4,2,1,80,0,0
17420,-100,4,2,3,65,0,0
17795,375,4,2,2,85,1,0
18545,-100,4,1,2,85,0,0
18920,-100,4,2,2,85,0,0
20045,-100,4,1,2,85,0,0
20420,-100,4,2,2,85,0,0
21545,-100,4,1,2,85,0,0
21920,-100,4,2,2,85,0,0
23045,-100,4,1,2,85,0,0
23420,-100,4,2,2,85,0,0
23795,-100,4,2,2,75,0,0
24732,-100,4,2,2,70,0,0
25670,-100,4,2,2,65,0,0
26045,-100,4,2,2,55,0,0
26795,375,4,2,2,65,1,0
29045,-100,4,1,2,65,0,0
30170,-100,4,2,2,65,0,0
30545,-100,4,1,2,65,0,0
31295,-100,4,2,2,65,0,0
33545,-100,4,1,2,65,0,0
34670,-100,4,2,2,65,0,0
35045,-100,4,1,2,65,0,0
36170,-100,4,2,2,65,0,0
36920,-100,4,1,0,65,0,0
37107,-100,4,1,0,55,0,0
37482,-100,4,2,2,75,0,0
38795,-100,4,2,2,78,0,0
39545,-100,4,1,2,78,0,0
39920,-100,4,2,2,78,0,0
41232,-100,4,1,2,78,0,0
41607,-100,4,2,2,78,0,0
41982,-100,4,2,2,78,0,0
42732,-100,4,1,2,78,0,0
43107,-100,4,2,2,78,0,0
44232,-100,4,2,2,60,0,0
44607,-100,4,2,2,78,0,0
44795,-100,4,2,2,85,0,0
45170,-100,4,1,1,61,0,0
45545,-100,4,2,2,85,0,0
46107,-100,4,1,2,85,0,0
46670,-100,4,2,2,85,0,0
49295,-100,4,2,1,75,0,0
50795,-100,4,2,1,65,0,0
51920,-100,4,2,1,85,0,0
52295,375,4,2,4,100,1,1
52857,-100,4,2,4,100,0,1
53045,-100,4,1,2,100,0,1
53420,-100,4,1,4,100,0,1
53607,-100,4,2,4,100,0,1
54545,-100,4,1,2,100,0,1
54920,-100,4,2,4,100,0,1
55482,-100,4,2,4,100,0,1
56045,-100,4,1,2,100,0,1
56420,-100,4,1,4,100,0,1
56795,-100,4,2,2,100,0,1
57170,-100,4,1,2,100,0,1
57545,-100,4,2,2,100,0,1
57920,-100,4,1,1,80,0,1
58295,-100,4,2,2,100,0,1
59045,-100,4,1,2,100,0,1
59420,-100,4,2,2,100,0,1
60545,-100,4,1,2,100,0,1
60920,-100,4,2,2,100,0,1
63920,-100,4,1,1,80,0,1
64201,-100,4,1,1,80,0,0
64295,-100,4,2,4,100,0,1
65045,-100,4,1,2,100,0,1
65420,-100,4,2,4,100,0,1
66545,-100,4,1,2,100,0,1
66920,-100,4,2,4,100,0,1
68795,-100,4,2,2,100,0,1
69545,-100,4,2,2,100,0,1
70295,-100,4,2,4,100,0,1
71045,-100,4,1,2,100,0,1
71420,-100,4,2,4,100,0,1
74045,-100,4,1,2,100,0,1
74420,-100,4,2,4,100,0,1
74701,-100,4,2,2,100,0,1
76107,-100,4,2,2,70,0,0
77795,-100,4,2,2,60,0,0
79295,-100,4,2,2,90,0,0
81545,-100,4,1,1,60,0,0
81920,-100,4,2,2,80,0,0
82295,-133.333333333333,4,2,2,70,0,0
82670,-133.333333333333,4,2,2,30,0,0
82857,-133.333333333333,4,2,2,70,0,0
83795,-133.333333333333,4,2,2,30,0,0
83982,-133.333333333333,4,2,2,70,0,0
84545,-133.333333333333,4,2,2,60,0,0
84920,-133.333333333333,4,2,2,50,0,0
85295,-133.333333333333,4,2,2,40,0,0
85670,-133.333333333333,4,2,2,30,0,0
86045,-133.333333333333,4,2,2,20,0,0
86420,-133.333333333333,4,2,2,10,0,0
86795,-133.333333333333,4,2,2,5,0,0

[Colours]
Combo1 : 91,172,210
Combo2 : 210,96,139
Combo3 : 238,164,64
Combo4 : 228,232,83
Combo5 : 147,217,70

[HitObjects]
254,108,2795,2,0,P|324:93|391:136,1,150.000005722046,4|8,1:2|0:0,0:0:0
363,257,4295,2,0,P|293:272|226:229,1,150.000005722046,0|8,1:0|0:0,0:0:0
132,149,5795,6,0,P|195:106|275:125,1,150.000005722046,4|8,1:2|0:0,0:0:0
296,241,7295,2,0,P|233:284|153:265,1,150.000005722046,0|8,1:2|0:0,0:0:0
104,219,8420,1,8,0:0:0
52,151,8795,6,0,P|101:133|162:153,2,100,4|8|0,1:2|0:0|1:0,0:0:0
24,231,9920,1,8,1:0:0
62,306,10295,2,0,P|158:330|245:275,1,200,0|8,1:0|0:0,0:0:0
266,200,11420,1,8,0:0:0
212,134,11795,6,0,P|280:85|389:120,2,200,4|2|0,1:2|0:0|1:0,0:0:0
194,217,13670,1,0,0:0:0
125,267,14045,1,0,0:0:0
41,249,14420,1,0,0:0:0
13,168,14795,6,0,P|31:127|25:63|25:63|53:111|107:136|171:137|219:117|248:85|268:31,1,400,4|0,1:2|1:2,0:0:0
343,71,16670,2,0,P|400:48|449:62,2,100,0|0|8,1:0|1:0|0:2,0:0:0
298,143,17795,5,4,1:0:0
248,212,18170,2,0,P|163:267|74:227,1,200,8|8,0:0|0:0,0:0:0
32,161,19295,1,2,1:0:0
55,79,19670,2,0,P|140:24|229:64,1,200,8|8,0:0|0:0,0:0:0
272,129,20795,5,2,1:0:0
213,190,21170,2,0,P|176:285|241:360,1,200,8|8,0:0|0:0,0:0:0
315,365,22295,1,2,1:0:0
395,337,22670,2,0,P|432:242|367:167,1,200,8|8,0:0|0:0,0:0:0
256,192,23795,12,4,26795,0:0:0
209,273,27545,6,0,P|256:290|306:271,1,100,0|2,1:0|1:0,0:0:0
365,218,28295,1,0,1:0:0
355,133,28670,2,0,P|301:68|193:77,1,200,2|2,1:0|0:0,0:0:0
128,130,29795,1,0,0:0:0
150,213,30170,2,0,P|204:278|312:269,1,200,2|2,1:0|0:0,0:0:0
377,216,31295,6,0,P|430:204|483:208,1,100,0|2,1:0|1:0,0:0:0
508,284,32045,2,0,P|455:296|402:292,1,100,0|2,1:0|1:0,0:0:0
341,345,32795,1,0,1:0:0
259,321,33170,6,0,P|211:242|264:150,1,200,2|2,1:0|0:0,0:0:0
336,124,34295,1,0,0:0:0
416,150,34670,2,0,P|464:229|411:321,1,200,2|2,1:0|0:0,0:0:0
341,345,35795,5,0,0:0:0
268,300,36170,2,0,P|222:286|162:289,1,100,2|0,1:0|1:0,0:0:0
90,257,36920,6,0,P|40:276,1,50,0|0,1:0|0:0,0:0:0
37,147,37670,2,0,P|85:133|139:142,2,100,8|2|8,1:0|1:0|1:0,0:0:0
0,226,38795,5,4,1:0:0
28,306,39170,2,0,P|103:349|208:310,1,200,8|8,0:0|1:0,0:0:0
237,235,40295,2,0,P|233:131,1,100,2|8,0:0|0:0,0:0:0
255,98,40857,2,0,P|334:66|400:99,1,150,0|8,0:0|1:0,0:0:0
445,154,41795,5,2,0:0:0
429,237,42170,1,8,0:0:0
357,283,42545,2,0,P|216:274,1,100,2|8,0:0|0:0,0:0:0
201,212,43295,6,0,P|146:204|98:234,2,100,2|8|0,0:0|0:0|0:0,0:0:0
278,177,44420,1,8,0:0:0
285,92,44795,6,0,P|378:61|464:118,1,200,4|2,1:0|1:0,0:0:0
466,195,45920,2,0,P|451:300,1,100,8|2,0:0|0:0,0:0:0
368,311,46670,1,8,0:0:0
299,263,47045,2,0,P|314:158,1,100,2|8,0:0|1:2,0:0:0
243,114,47795,6,0,P|190:105|142:123,1,100,4|8,0:0|1:0,0:0:0
104,193,48545,2,0,P|157:202|205:184,1,100,2|8,0:0|1:0,0:0:0
256,192,49295,12,4,50795,0:0:0
304,253,51920,6,0,P|205:261,1,100,8|4,0:0|1:2,0:0:0
125,231,52670,2,0,P|88:145|159:71,1,200,8|8,1:2|1:2,0:0:0
236,64,53795,1,2,1:2:0
312,102,54170,2,0,P|349:188|278:262,1,200,8|8,1:2|1:2,0:0:0
202,279,55295,5,2,1:2:0
254,345,55670,2,0,P|346:325|417:238,1,200,8|8,1:2|1:2,0:0:0
486,204,56795,6,0,P|431:166|347:192,1,150,4|2,1:0|0:2,0:0:0
324,215,57545,2,0,P|263:234|214:119,1,200,2|4,1:0|1:0,0:0:0
268,74,58670,6,0,P|184:32|80:87,1,200,8|8,1:2|1:2,0:0:0
62,150,59795,1,2,1:0:0
97,227,60170,2,0,P|181:269|285:214,1,200,8|8,1:2|1:2,0:0:0
312,154,61295,6,0,P|416:162,1,100,2|8,1:0|1:0,0:0:0
466,226,62045,2,0,P|458:330,1,100,0|8,1:0|1:0,0:0:0
388,374,62795,2,0,P|284:366,1,100,2|8,1:0|1:0,0:0:0
210,331,63545,2,0,P|166:258|238:166,1,200,2|4,1:0|1:2,0:0:0
317,160,64670,6,0,P|268:89|153:111,1,200,8|8,1:2|1:2,0:0:0
89,158,65795,1,2,1:2:0
117,248,66170,2,0,P|166:319|281:297,1,200,8|8,1:2|1:2,0:0:0
348,254,67295,5,2,1:2:0
437,221,67670,1,8,1:2:0
358,167,68045,1,2,1:2:0
447,134,68420,1,8,1:2:0
370,77,68795,6,0,P|294:54|231:88,1,150,4|4,1:0|1:0,0:0:0
211,126,69545,2,0,P|168:150|116:127,1,100,2|8,1:0|1:0,0:0:0
41,84,70295,5,4,1:2:0
3,171,70670,2,0,P|-9:263|77:314,1,200,8|8,1:2|1:2,0:0:0
167,307,71795,2,0,P|274:311,1,100,2|8,1:2|1:2,0:0:0
298,221,72545,2,0,P|191:217,1,100,2|8,1:2|1:2,0:0:0
148,136,73295,5,2,1:2:0
222,74,73670,2,0,P|303:28|410:69,1,200,8|8,1:2|1:2,0:0:0
481,107,74795,5,8,1:0:0
465,195,75170,1,8,1:0:0
376,208,75545,1,8,1:0:0
336,127,75920,1,8,1:0:0
256,192,76107,12,4,79295,0:0:0
256,192,80045,6,0,P|256:304,2,100,2|8|0,1:0|1:0|1:0,0:0:0
204,112,81170,2,0,P|110:116|70:214,1,200,8|8,1:0|1:0,0:0:0
114,286,82295,6,0,P|235:280,1,112.500004291535,4|4,0:0|0:0,0:0:0
290,172,83420,2,0,P|402:177,1,112.500004291535,4|4,0:0|0:0,0:0:0
256,192,84170,12,0,86795,0:0:0
