osu file format v5

[General]
AudioFilename: 06-KokiriForest.mp3
AudioLeadIn: 2000
PreviewTime: -1
Countdown: 1
SampleSet: Soft
StackLeniency: 0.7
Mode: 0
LetterboxInBreaks: 1

[Metadata]
Title:Kokiri Forest
Artist:Z.R.E.O Team
Creator:James2250
Version:Normal
Source:
Tags:

[Difficulty]
HPDrainRate:4
CircleSize:4
OverallDifficulty:3
SliderMultiplier:1.4
SliderTickRate:1

[Events]
//Background and Video events
0,0,"THELEGENDOFZELDA-2.jpg"
//Break Periods
2,46109,51951
2,56878,58341
//Storyboard Layer 0 (Background)
//Storyboard Layer 1 (Failing)
//Storyboard Layer 2 (Passing)
//Storyboard Layer 3 (Foreground)
//Storyboard Sound Samples
//Background Colour Transformations
3,100,0,0,0

[TimingPoints]
6834,413.793103448276,4,2,0,100,1

[HitObjects]
256,320,7040,5,0
128,64,7868,1,0
384,128,8696,1,0
160,288,9523,1,0
320,128,10144,6,0,B|224:128,1,70
192,128,10558,1,0
128,128,10765,1,0
128,192,10971,2,0,B|0:192,1,105
32,288,11592,1,0
96,288,11799,2,2,B|96:224,2,35
192,192,12420,6,2,B|256:192,2,35
320,192,13040,1,0
384,192,13247,1,0
384,256,13454,2,2,B|384:352,1,70,2|2
256,192,14075,12,0,16351
384,320,16765,5,0
384,256,16971,1,0
384,192,17178,2,0,B|384:96,1,70
384,64,17592,1,0
288,64,17902,1,0
192,64,18213,1,0
128,64,18420,2,2,B|64:64,2,35
128,192,19040,6,2,B|64:192,2,35
128,320,19661,1,0
192,320,19868,1,0
256,320,20075,1,0
320,320,20282,1,0
256,192,20696,12,0,22765
128,128,23385,5,0
128,192,23592,2,0,B|224:192|224:192|224:192,1,70
256,192,24006,1,0
320,192,24213,2,0,B|416:192,1,70
224,32,25040,5,0
224,96,25247,1,0
224,160,25454,1,0
224,288,25868,2,0,B|64:288,1,140
256,160,26902,5,0
256,96,27109,1,0
256,32,27316,1,0
192,32,27523,2,0,B|96:32,1,70
192,288,28558,5,0
256,288,28765,1,0
320,288,28971,1,0
320,224,29178,2,0,B|160:224,1,140
384,128,30213,6,0,B|384:224,2,70
320,96,30833,2,0,B|224:96,1,70
160,352,31868,5,0
160,288,32075,1,0
160,160,32489,2,0,B|160:32|64:64,1,140
64,256,33523,6,0,B|160:256,1,70
192,256,33937,1,0
256,256,34144,2,0,B|352:256,1,70
96,96,35178,5,0
160,96,35385,1,0
224,96,35592,1,0
288,96,35799,2,0,B|448:96,1,140
288,32,36627,6,2,B|352:96,1,70
128,96,37454,2,2,B|192:160,1,70
384,192,38282,2,2,B|448:256,1,70
224,288,39109,2,2,B|288:352,1,70
448,224,39937,6,0,B|512:224,2,35
352,128,40558,6,0,B|352:64,2,35
64,96,41592,2,2,B|128:160,1,70
288,256,42420,2,2,B|224:320,1,70
32,256,43247,2,2,B|96:320,1,70
224,160,44075,2,2,B|288:128,1,70
448,256,44902,2,2,B|416:320,1,70
224,224,45730,2,2,B|128:224,1,70
448,96,53178,6,0,B|352:96,1,70
320,96,53592,1,0
256,96,53799,1,0
192,96,54006,2,0,B|192:224,1,105
192,320,54627,1,0
128,320,54834,2,2,L|128:256,2,35
224,224,55454,6,0,L|128:224,1,70
160,96,56075,1,0
224,96,56282,1,0
288,96,56489,1,0
352,96,56696,1,0
64,160,59799,6,0,B|160:160,1,70
192,160,60213,1,0
256,160,60420,1,0
320,160,60627,2,0,B|448:160,1,105
416,256,61247,1,0
352,256,61454,2,2,B|288:256,2,35
224,256,62075,2,2,B|288:256,2,35
128,160,62696,5,0
128,224,62902,1,0
128,288,63109,1,0
128,352,63316,2,0,L|480:352|480:64|64:64|64:64,1,1050
96,128,66627,6,0,B|96:224,1,70
96,256,67040,1,0
160,256,67247,2,0,B|256:256,1,70
512,288,68282,6,0,L|416:288,1,70
448,224,68696,1,0
384,224,68902,1,0
384,96,69316,1,0
224,256,69937,2,0,B|128:256,1,70
160,192,70351,1,0
160,128,70558,2,0,B|64:128,1,70
352,256,71592,5,0
352,192,71799,1,0
352,128,72006,1,0
352,64,72213,2,0,B|416:64,2,35
416,64,72627,1,0
256,192,73247,5,0
192,192,73454,1,0
128,192,73661,2,0,B|32:192,1,70
64,128,74075,1,0
352,128,74902,2,0,B|448:128,1,70
480,128,75316,1,0
480,192,75523,2,0,B|320:192,1,140
448,288,76558,6,0,L|352:288,1,70
320,288,76971,1,0
256,288,77178,1,0
192,288,77385,1,0
448,192,78213,2,0,B|352:192,1,70
320,192,78627,1,0
256,192,78834,2,0,B|256:256,2,35
192,192,79247,1,0
320,96,79661,5,0
256,96,79868,1,2
32,96,80489,1,0
32,160,80696,1,2
256,160,81316,1,0
320,160,81523,1,2
160,320,82144,1,0
224,320,82351,1,2
224,96,82971,5,0
224,160,83178,1,2
256,192,83385,12,0,89592
