osu file format v5

[General]
AudioFilename: Yves Larock - Rise Up (Extended Mix).mp3
AudioLeadIn: 0
PreviewTime: -1
Countdown: 1
SampleSet: Normal
StackLeniency: 0.7
Mode: 0
LetterboxInBreaks: 1
EditorBookmarks: 52515

[Metadata]
Title:Rise Up (Extended Mix)
Artist:Yves Larock
Creator:osuplayer111
Version:Normal
Source:Yves Larock
Tags:

[Difficulty]
HPDrainRate:8
CircleSize:5
OverallDifficulty:7
SliderMultiplier:1.5
SliderTickRate:2

[Events]
//Background and Video events
0,0,"Yves Larock - Rise Up _GeoMusika.jpg"
//Break Periods
2,120441,141605
//Storyboard Layer 0 (Background)
//Storyboard Layer 1 (Failing)
//Storyboard Layer 2 (Passing)
//Storyboard Layer 3 (Foreground)
//Storyboard Sound Samples
//Background Colour Transformations
3,100,163,162,255

[TimingPoints]
7750,468.75,4,1,0,100,1

[Colours]
Combo1 : 0,255,128
Combo2 : 255,0,0
Combo3 : 0,128,255
Combo4 : 255,128,0

[HitObjects]
49,37,52515,1,0
48,96,52750,1,0
343,96,53921,1,0
224,96,54390,2,2,L|224:208,1,75
123,95,55796,5,2
123,154,56031,1,2
124,213,56265,1,2
125,272,56500,1,2
243,272,56968,1,0
336,288,57906,2,2,L|432:256|480:304,1,150
81,137,60015,5,0
140,135,60250,1,0
435,132,61421,1,0
435,250,61890,1,2
375,250,62125,1,2
121,98,63296,5,2
120,157,63531,1,2
179,157,63765,1,2
238,159,64000,1,2
355,163,64468,1,0
137,255,65406,2,2,L|169:335|217:287,1,150
482,41,67515,6,2,L|482:121,1,75
480,200,68101,1,0
480,288,68453,1,0
480,344,68687,1,0
270,134,69859,5,0
268,193,70093,1,0
327,195,70328,1,0
327,254,70562,1,0
238,253,70914,1,0
160,208,71265,2,0,L|160:360,1,150
123,79,73375,5,8
212,79,73726,1,8
300,79,74078,1,8
300,138,74312,1,8
418,140,74781,1,8
416,199,75015,5,0
416,258,75250,1,0
327,259,75601,1,0
238,260,75953,2,0,L|238:372,1,75
96,72,77359,5,0
152,72,77593,1,0
152,128,77828,1,0
152,184,78062,1,0
240,184,78414,1,0
304,248,78765,2,0,L|304:328,1,75
256,192,80875,12,0,82281
72,42,83687,5,2
70,71,83804,1,2
71,130,84039,1,2
71,159,84156,1,2
70,218,84390,1,0
442,39,85562,5,2
442,67,85679,1,2
440,132,85914,1,2
441,160,86031,1,2
442,218,86265,1,0
217,54,87437,5,2
217,83,87554,1,2
219,143,87789,1,2
219,172,87906,1,2
217,231,88140,1,0
453,238,89078,5,2
452,178,89312,1,2
363,175,89664,2,2,L|331:239|395:271,1,112.5
174,68,91187,5,2
174,97,91304,1,2
203,148,91539,1,2
223,169,91656,1,2
269,206,91890,1,0
100,297,93062,5,2
129,298,93179,1,2
188,299,93414,1,2
217,298,93531,1,2
276,297,93765,1,0
136,36,94937,5,2
137,65,95054,1,2
137,124,95289,1,2
138,153,95406,1,2
139,212,95640,1,0
346,97,96578,5,2
346,156,96812,1,2
312,238,97164,2,2,L|280:302|344:302,1,112.5
139,68,98687,5,2
168,68,98804,1,2
227,68,99039,1,2
256,68,99156,1,2
315,68,99390,1,0
211,322,100562,5,2
211,292,100679,1,2
211,231,100914,1,2
211,201,101031,1,2
212,141,101265,1,0
480,24,102437,5,2
480,56,102554,1,2
480,112,102789,1,2
480,144,102906,1,2
480,200,103140,1,0
240,200,104078,5,2
176,200,104312,1,2
216,280,104664,2,2,L|296:312|296:280,1,112.5
56,72,106187,5,2
88,72,106304,1,2
144,72,106539,1,2
176,72,106656,1,2
232,72,106890,1,0
64,128,107593,6,0,L|192:160|112:272|304:224|304:208,1,450
488,352,109937,1,0
256,192,110875,12,0,112281
111,62,112750,5,0
112,180,113218,1,0
187,270,113687,1,0
216,269,113804,1,0
265,236,114039,1,0
294,236,114156,1,0
337,195,114390,1,0
221,60,115093,5,0
222,178,115562,1,0
222,207,115679,1,0
220,266,115914,1,0
219,295,116031,1,0
218,354,116265,1,0
391,318,116968,5,0
272,317,117437,1,0
242,317,117554,1,0
182,318,117789,1,0
152,318,117906,1,0
92,316,118140,1,0
256,192,118843,12,0,120250
89,95,142515,5,0
88,154,142750,1,0
383,148,143921,1,0
290,221,144390,2,2,L|258:269|184:208,1,150
37,46,145796,5,2
37,105,146031,1,8
96,106,146265,1,8
96,165,146500,1,8
208,199,146968,1,0
440,242,147906,2,2,L|440:306|376:306|376:354,1,150
367,79,150015,5,0
367,138,150250,1,0
71,146,151421,1,0
74,264,151890,1,2
133,265,152125,1,2
368,86,153296,5,0
370,145,153531,1,0
369,204,153765,1,0
309,204,154000,2,2,L|293:44,1,150,2|2
156,247,155406,2,0,L|172:327|268:327,1,150
350,64,157515,5,0
349,123,157750,1,0
351,211,158101,1,0
351,299,158453,2,2,L|447:299,1,75
176,139,159859,5,0
178,197,160093,1,0
237,198,160328,1,0
238,138,160562,1,0
326,140,160914,1,0
342,227,161265,2,2,L|374:259|464:200,1,150
166,312,162437,5,2
165,282,162554,1,2
166,222,162789,1,2
167,192,162906,1,2
167,132,163140,1,2
382,230,164078,2,2,L|382:342|462:294|462:198,1,300
460,140,165250,5,0
371,141,165601,1,0
330,61,165953,2,0,L|410:61,1,75
109,57,167359,5,0
109,116,167593,1,0
109,175,167828,1,0
167,179,168062,1,0
241,227,168414,1,0
315,178,168765,2,0,L|347:130|315:98,1,75
256,192,170875,12,0,171578
144,83,172750,5,0
225,168,173218,1,0
256,192,173687,12,0,175093
339,63,175562,5,8
220,63,176031,1,8
231,180,176500,2,0,L|343:260|295:308|407:324,1,300
256,192,178375,12,0,179781
135,182,180250,5,8
253,183,180718,1,8
256,192,181187,12,0,182593
43,45,183062,5,8
131,45,183414,1,8
209,85,183765,2,0,L|225:181|337:149|449:181|449:293|369:325,1,525
119,73,186812,5,8
121,161,187164,1,8
182,224,187515,2,8,L|278:272,1,75
389,149,188453,5,0
388,208,188687,1,0
217,256,189390,6,0,L|217:304|153:304,1,75
78,95,190562,1,8
166,96,190914,1,8
167,184,191265,1,8
255,187,191617,1,8
256,192,192203,12,0,193843
441,303,194312,5,8
352,302,194664,1,8
359,213,195015,2,8,L|407:229|407:181,1,75
242,137,195953,1,0
182,137,196187,1,0
358,120,196890,2,8,L|342:72|390:56,1,75
129,48,198062,5,0
127,136,198414,1,0
215,143,198765,2,0,L|279:79|311:159,1,150
256,192,200171,12,0,202046
184,97,202515,5,0
185,156,202750,1,0
480,169,203921,1,0
380,232,204390,2,0,L|444:296,1,75
456,55,205796,5,0
396,55,206031,1,0
396,114,206265,1,0
336,112,206500,1,0
336,230,206968,1,0
99,232,207906,2,0,L|179:248|163:328,1,150
256,192,208843,12,0,209546
138,56,210015,5,0
197,57,210250,1,0
492,55,211421,1,0
373,56,211890,2,0,L|373:152,1,75
82,77,213296,5,0
82,136,213531,1,0
82,195,213765,1,0
82,254,214000,1,0
200,258,214468,1,0
365,88,215406,2,0,L|429:136|365:184,1,150
256,192,216343,12,0,217046
72,64,217515,6,0,L|152:128,1,75
198,168,218101,1,0
283,191,218453,2,0,L|331:287,1,75
80,80,219859,6,0,L|128:176,1,75
144,200,220328,1,0
200,176,220562,1,0
280,208,220914,2,0,L|472:304,1,187.5
208,320,222437,5,2
216,200,222906,2,2,L|296:232|344:184,1,150
193,88,224078,2,2,L|273:88,1,75
356,88,224664,1,2
357,176,225015,5,8
357,235,225250,1,8
268,234,225601,1,8
281,324,225953,2,8,L|345:340|329:372,1,75
344,48,227359,6,8,L|344:128,1,75
343,182,227828,1,8
402,183,228062,1,8
399,271,228414,1,8
310,272,228765,2,8,L|326:368,1,75
256,192,229468,12,4,230875
