osu file format v14

[General]
AudioFilename: MAYUPV.mp3
AudioLeadIn: 0
PreviewTime: -1
Countdown: 1
SampleSet: Normal
StackLeniency: 0.7
Mode: 1
LetterboxInBreaks: 1
WidescreenStoryboard: 0

[Editor]
Bookmarks: 877,14591,28305,42019,55734,69448,83162,96876,110376,124305,131162,141448,149591,158591,165448,179162,192876
DistanceSpacing: 1.5
BeatDivisor: 4
GridSize: 32
TimelineZoom: 4.599998

[Metadata]
Title:Hurting for a Very Hurtful Pain
TitleUnicode:Hurting for a Very Hurtful Pain
Artist:Yuzuki Yukari MAYU
ArtistUnicode:結月ゆかり.MAYU
Creator:cagalin
Version:Collab pain
Source:
Tags:seiichiz
BeatmapID:689693
BeatmapSetID:308407

[Difficulty]
HPDrainRate:7
CircleSize:5
OverallDifficulty:5
ApproachRate:5
SliderMultiplier:1.40000000596046
SliderTickRate:1

[Events]
//Background and Video events
0,0,"171743.jpg",0,0
//Break Periods
//Storyboard Layer 0 (Background)
//Storyboard Layer 1 (Fail)
//Storyboard Layer 2 (Pass)
//Storyboard Layer 3 (Foreground)
//Storyboard Sound Samples

[TimingPoints]
879,214.285714285714,4,1,0,100,1,0
879,-133.333333333333,4,1,0,100,0,0
13628,-100,4,1,0,100,0,0
42021,-100,4,1,0,100,0,1
55736,-100,4,1,0,100,0,0
69450,-153.846153846154,4,1,0,100,0,0
76307,-111.111111111111,4,1,0,100,0,0
83111,-100,4,1,0,100,0,0
83164,-100,4,1,0,100,0,1
96878,-100,4,1,0,100,0,0
110164,-100,4,1,0,100,0,0
124307,-200,4,1,0,100,0,0
131164,-100,4,1,0,100,0,1
149164,-100,4,1,0,100,0,0
151736,-100,4,1,0,100,0,1
151789,-100,4,1,0,100,0,0
158593,-100,4,1,0,100,0,1
158646,-100,4,1,0,100,0,0
179162,-100,4,1,0,100,0,1
179216,-100,4,1,0,100,0,0

[HitObjects]
224,192,879,5,8,0:0:0:0:
224,192,1093,1,0,0:0:0:0:
224,192,1200,1,0,0:0:0:0:
224,192,1307,1,8,0:0:0:0:
224,192,1521,1,0,0:0:0:0:
224,192,1736,1,8,0:0:0:0:
224,192,1843,1,8,0:0:0:0:
224,192,1950,1,0,0:0:0:0:
224,192,2057,1,0,0:0:0:0:
224,192,2164,1,8,0:0:0:0:
224,192,2271,1,0,0:0:0:0:
224,192,2378,1,0,0:0:0:0:
224,192,2593,1,0,0:0:0:0:
224,192,2807,1,0,0:0:0:0:
224,192,2914,1,0,0:0:0:0:
224,192,3021,1,8,0:0:0:0:
224,192,3236,1,0,0:0:0:0:
224,192,3450,1,0,0:0:0:0:
224,192,3557,1,0,0:0:0:0:
224,192,3664,1,8,0:0:0:0:
224,192,3771,1,0,0:0:0:0:
224,192,3878,1,8,0:0:0:0:
224,192,4307,1,0,0:0:0:0:
224,192,4521,1,8,0:0:0:0:
224,192,4628,1,0,0:0:0:0:
224,192,4736,1,0,0:0:0:0:
224,192,4950,1,0,0:0:0:0:
224,192,5164,1,8,0:0:0:0:
224,192,5271,1,0,0:0:0:0:
224,192,5378,1,0,0:0:0:0:
224,192,5486,1,0,0:0:0:0:
224,192,5593,1,8,0:0:0:0:
224,192,5700,1,0,0:0:0:0:
224,192,5807,1,0,0:0:0:0:
224,192,6021,1,0,0:0:0:0:
224,192,6128,1,0,0:0:0:0:
224,192,6236,1,0,0:0:0:0:
224,192,6343,1,0,0:0:0:0:
224,192,6450,1,8,0:0:0:0:
224,192,6664,1,0,0:0:0:0:
224,192,6878,1,8,0:0:0:0:
224,192,6986,1,0,0:0:0:0:
224,192,7093,1,0,0:0:0:0:
224,192,7200,1,0,0:0:0:0:
224,192,7307,1,0,0:0:0:0:
224,192,7521,1,0,0:0:0:0:
224,192,7736,1,0,0:0:0:0:
224,192,7950,1,0,0:0:0:0:
224,192,8057,1,0,0:0:0:0:
224,192,8164,1,8,0:0:0:0:
224,192,8271,1,0,0:0:0:0:
224,192,8378,1,0,0:0:0:0:
224,192,8593,1,8,0:0:0:0:
224,192,8700,1,8,0:0:0:0:
224,192,8807,1,0,0:0:0:0:
224,192,8914,1,0,0:0:0:0:
224,192,9021,1,8,0:0:0:0:
224,192,9128,1,0,0:0:0:0:
224,192,9236,1,0,0:0:0:0:
224,192,9450,1,0,0:0:0:0:
224,192,9557,1,0,0:0:0:0:
224,192,9664,1,0,0:0:0:0:
224,192,9878,1,8,0:0:0:0:
224,192,10093,1,0,0:0:0:0:
224,192,10307,1,8,0:0:0:0:
224,192,10414,1,8,0:0:0:0:
224,192,10521,1,0,0:0:0:0:
224,192,10628,1,0,0:0:0:0:
224,192,10736,1,8,0:0:0:0:
224,192,10950,1,0,0:0:0:0:
224,192,11164,1,8,0:0:0:0:
224,192,11271,1,8,0:0:0:0:
224,192,11378,1,0,0:0:0:0:
224,192,11593,1,8,0:0:0:0:
224,192,11807,1,0,0:0:0:0:
224,192,12021,1,0,0:0:0:0:
224,192,12128,1,0,0:0:0:0:
224,192,12236,1,8,0:0:0:0:
224,192,12450,1,0,0:0:0:0:
224,192,12664,1,8,0:0:0:0:
224,192,12878,1,0,0:0:0:0:
224,192,12986,1,0,0:0:0:0:
224,192,13093,1,8,0:0:0:0:
224,192,13200,1,8,0:0:0:0:
224,192,13307,1,0,0:0:0:0:
224,192,13414,1,0,0:0:0:0:
224,192,13521,1,8,0:0:0:0:
224,192,13736,1,0,0:0:0:0:
224,192,13843,1,0,0:0:0:0:
224,192,13896,1,0,0:0:0:0:
224,192,13950,1,8,0:0:0:0:
224,192,14057,1,8,0:0:0:0:
224,192,14164,1,0,0:0:0:0:
224,192,14271,1,0,0:0:0:0:
224,192,14378,1,0,0:0:0:0:
96,256,14593,5,0,0:0:0:0:
96,256,14700,1,0,0:0:0:0:
96,256,14807,1,2,0:0:0:0:
160,160,14914,1,0,0:0:0:0:
96,256,14968,1,0,0:0:0:0:
128,192,15021,1,2,0:0:0:0:
222,236,15128,1,0,0:0:0:0:
130,182,15236,1,2,0:0:0:0:
223,230,15343,1,0,0:0:0:0:
192,288,15450,1,0,0:0:0:0:
96,256,15557,1,2,0:0:0:0:
160,192,15664,1,0,0:0:0:0:
224,288,15771,1,0,0:0:0:0:
224,288,15825,1,0,0:0:0:0:
224,288,15878,1,2,0:0:0:0:
288,256,16307,1,0,0:0:0:0:
288,256,16414,1,2,0:0:0:0:
288,256,16521,1,0,0:0:0:0:
288,256,16575,1,0,0:0:0:0:
256,224,16628,1,2,0:0:0:0:
256,128,16736,1,0,0:0:0:0:
288,256,16843,1,0,0:0:0:0:
320,288,16950,1,2,0:0:0:0:
256,224,17057,1,0,0:0:0:0:
192,160,17164,1,0,0:0:0:0:
288,192,17271,1,2,0:0:0:0:
192,192,17378,1,0,0:0:0:0:
256,224,17432,1,0,0:0:0:0:
256,224,17486,1,0,0:0:0:0:
256,224,17539,1,0,0:0:0:0:
256,224,17593,1,2,0:0:0:0:
288,256,18021,1,0,0:0:0:0:
288,256,18128,1,2,0:0:0:0:
288,256,18236,1,0,0:0:0:0:
352,288,18289,1,0,0:0:0:0:
320,288,18343,1,2,0:0:0:0:
320,288,18450,1,0,0:0:0:0:
224,320,18557,1,0,0:0:0:0:
352,288,18664,1,2,0:0:0:0:
288,288,18771,1,0,0:0:0:0:
209,220,18878,1,0,0:0:0:0:
288,288,18932,1,0,0:0:0:0:
242,261,18986,1,0,0:0:0:0:
145,218,19093,1,2,0:0:0:0:
48,177,19200,1,0,0:0:0:0:
48,177,19253,1,0,0:0:0:0:
48,177,19307,1,2,0:0:0:0:
98,197,19736,1,2,0:0:0:0:
149,194,19789,1,2,0:0:0:0:
201,196,19843,1,0,0:0:0:0:
96,192,19950,1,2,0:0:0:0:
200,199,20057,1,0,0:0:0:0:
234,297,20164,1,0,0:0:0:0:
234,297,20218,1,0,0:0:0:0:
234,297,20271,1,0,0:0:0:0:
234,297,20325,1,0,0:0:0:0:
234,297,20378,1,2,0:0:0:0:
234,297,20486,1,2,0:0:0:0:
234,297,20593,1,0,0:0:0:0:
145,218,20646,1,0,0:0:0:0:
145,218,20700,1,0,0:0:0:0:
145,218,20807,1,2,0:0:0:0:
145,218,20914,1,0,0:0:0:0:
145,218,20968,1,0,0:0:0:0:
168,171,21021,1,2,0:0:0:0:
297,296,21450,1,2,0:0:0:0:
297,296,21503,1,2,0:0:0:0:
297,296,21557,1,0,0:0:0:0:
256,256,21611,1,0,0:0:0:0:
297,296,21664,1,2,0:0:0:0:
297,296,21771,1,0,0:0:0:0:
320,352,21825,1,0,0:0:0:0:
288,320,21878,1,2,0:0:0:0:
192,288,21986,1,0,0:0:0:0:
168,171,22039,1,0,0:0:0:0:
256,224,22093,1,2,0:0:0:0:
160,224,22200,1,0,0:0:0:0:
224,256,22307,1,2,0:0:0:0:
224,192,22361,1,0,0:0:0:0:
256,224,22414,1,0,0:0:0:0:
192,192,22468,1,0,0:0:0:0:
224,224,22521,1,2,0:0:0:0:
320,192,22628,1,0,0:0:0:0:
256,192,22682,1,0,0:0:0:0:
320,192,22736,1,2,0:0:0:0:
352,288,22843,1,0,0:0:0:0:
224,192,22950,1,2,0:0:0:0:
224,224,23057,1,0,0:0:0:0:
320,288,23164,1,2,0:0:0:0:
384,288,23218,1,2,0:0:0:0:
320,288,23271,1,0,0:0:0:0:
416,320,23378,1,0,0:0:0:0:
352,256,23432,1,0,0:0:0:0:
320,288,23486,1,2,0:0:0:0:
352,256,23593,1,0,0:0:0:0:
320,224,23646,1,0,0:0:0:0:
160,160,23699,1,0,0:0:0:0:
224,160,23753,1,0,0:0:0:0:
192,128,23806,1,2,0:0:0:0:
256,192,23860,1,2,0:0:0:0:
288,224,23914,1,2,0:0:0:0:
320,288,23968,1,2,0:0:0:0:
320,288,24021,1,0,0:0:0:0:
288,256,24075,1,0,0:0:0:0:
224,224,24128,1,2,0:0:0:0:
160,224,24182,1,2,0:0:0:0:
128,160,24236,1,0,0:0:0:0:
160,192,24289,1,0,0:0:0:0:
160,192,24343,1,2,0:0:0:0:
160,192,24396,1,2,0:0:0:0:
160,192,24450,1,0,0:0:0:0:
256,256,24557,1,0,0:0:0:0:
288,288,24611,1,0,0:0:0:0:
320,320,24664,1,2,0:0:0:0:
320,320,24771,1,0,0:0:0:0:
224,224,24878,1,2,0:0:0:0:
224,224,24932,1,2,0:0:0:0:
224,224,24986,1,0,0:0:0:0:
224,224,25039,1,0,0:0:0:0:
224,224,25093,1,2,0:0:0:0:
224,224,25200,1,0,0:0:0:0:
192,128,25307,1,0,0:0:0:0:
160,64,25361,1,0,0:0:0:0:
192,128,25414,1,0,0:0:0:0:
320,288,25468,1,0,0:0:0:0:
320,288,25521,1,2,0:0:0:0:
320,288,25628,1,0,0:0:0:0:
320,288,25736,1,0,0:0:0:0:
160,224,25789,1,0,0:0:0:0:
224,256,25843,1,0,0:0:0:0:
160,320,25950,1,2,0:0:0:0:
64,256,26057,1,0,0:0:0:0:
160,192,26164,1,0,0:0:0:0:
256,256,26271,1,0,0:0:0:0:
224,160,26378,1,2,0:0:0:0:
288,256,26486,1,0,0:0:0:0:
288,256,26593,1,0,0:0:0:0:
192,224,26700,1,0,0:0:0:0:
192,160,26753,1,0,0:0:0:0:
96,192,26807,1,2,0:0:0:0:
96,192,26914,1,0,0:0:0:0:
96,192,27021,1,0,0:0:0:0:
160,224,27075,1,0,0:0:0:0:
96,192,27128,5,0,0:0:0:0:
96,192,27236,1,2,0:0:0:0:
64,224,27289,1,0,0:0:0:0:
96,192,27343,1,0,0:0:0:0:
96,192,27450,1,2,0:0:0:0:
160,224,27503,1,2,0:0:0:0:
96,192,27557,1,0,0:0:0:0:
160,224,27611,1,0,0:0:0:0:
96,192,27664,1,2,0:0:0:0:
160,224,27718,1,0,0:0:0:0:
96,192,27771,1,0,0:0:0:0:
160,224,27825,1,0,0:0:0:0:
96,192,27878,1,2,0:0:0:0:
256,192,28307,5,0,0:0:0:0:
256,192,28521,1,8,0:0:0:0:
256,192,28628,1,8,0:0:0:0:
256,192,28736,1,0,0:0:0:0:
256,192,28843,1,0,0:0:0:0:
256,192,28950,1,0,0:0:0:0:
256,192,29164,1,0,0:0:0:0:
256,192,29271,1,0,0:0:0:0:
256,192,29325,1,0,0:0:0:0:
256,192,29378,1,8,0:0:0:0:
256,192,29486,1,8,0:0:0:0:
256,192,29593,1,0,0:0:0:0:
256,192,29646,1,0,0:0:0:0:
256,192,29700,1,0,0:0:0:0:
256,192,29807,1,8,0:0:0:0:
256,192,30021,1,0,0:0:0:0:
256,192,30075,1,0,0:0:0:0:
256,192,30128,1,0,0:0:0:0:
256,192,30236,1,8,0:0:0:0:
256,192,30343,1,8,0:0:0:0:
256,192,30450,1,0,0:0:0:0:
256,192,30503,1,0,0:0:0:0:
256,192,30557,1,0,0:0:0:0:
256,192,30664,1,8,0:0:0:0:
256,192,30771,1,0,0:0:0:0:
256,192,30878,1,0,0:0:0:0:
256,192,30932,1,0,0:0:0:0:
256,192,30986,1,8,0:0:0:0:
256,192,31039,1,8,0:0:0:0:
256,192,31093,1,0,0:0:0:0:
256,192,31200,1,8,0:0:0:0:
256,192,31307,1,8,0:0:0:0:
256,192,31361,1,8,0:0:0:0:
256,192,31414,1,0,0:0:0:0:
256,192,31736,1,8,0:0:0:0:
256,192,31789,1,0,0:0:0:0:
256,192,31843,1,0,0:0:0:0:
256,192,31950,1,8,0:0:0:0:
256,192,32057,1,8,0:0:0:0:
256,192,32164,1,0,0:0:0:0:
256,192,32218,1,0,0:0:0:0:
256,192,32271,1,8,0:0:0:0:
256,192,32325,1,8,0:0:0:0:
256,192,32378,1,0,0:0:0:0:
256,192,32486,1,0,0:0:0:0:
256,192,32593,1,8,0:0:0:0:
256,192,32700,1,0,0:0:0:0:
256,192,32753,1,0,0:0:0:0:
256,192,32807,1,0,0:0:0:0:
256,192,32861,1,0,0:0:0:0:
256,192,32914,1,8,0:0:0:0:
256,192,33021,1,0,0:0:0:0:
256,192,33128,1,0,0:0:0:0:
256,192,33182,1,0,0:0:0:0:
256,192,33236,1,8,0:0:0:0:
256,192,33343,1,8,0:0:0:0:
256,192,33396,1,8,0:0:0:0:
256,192,33450,1,0,0:0:0:0:
224,160,33503,1,0,0:0:0:0:
256,192,33557,1,8,0:0:0:0:
256,192,33664,1,0,0:0:0:0:
256,192,33718,1,0,0:0:0:0:
256,192,33771,1,8,0:0:0:0:
256,192,33878,1,0,0:0:0:0:
256,192,33986,1,8,0:0:0:0:
256,192,34039,1,8,0:0:0:0:
256,192,34093,1,8,0:0:0:0:
256,192,34146,1,8,0:0:0:0:
256,192,34200,1,0,0:0:0:0:
256,192,34307,1,0,0:0:0:0:
256,192,34361,1,0,0:0:0:0:
256,192,34414,1,0,0:0:0:0:
256,192,34521,1,8,0:0:0:0:
256,192,34628,1,0,0:0:0:0:
256,192,34736,1,0,0:0:0:0:
256,192,34789,1,0,0:0:0:0:
256,192,34843,1,8,0:0:0:0:
256,192,34950,1,8,0:0:0:0:
256,192,35057,1,8,0:0:0:0:
256,192,35164,1,0,0:0:0:0:
256,192,35271,1,0,0:0:0:0:
256,192,35325,1,0,0:0:0:0:
256,192,35378,1,0,0:0:0:0:
256,192,35486,1,8,0:0:0:0:
256,192,35593,1,0,0:0:0:0:
256,192,35700,1,0,0:0:0:0:
256,192,35753,1,0,0:0:0:0:
256,192,35807,1,8,0:0:0:0:
256,192,35914,1,8,0:0:0:0:
256,192,36021,1,0,0:0:0:0:
256,192,36128,1,0,0:0:0:0:
256,192,36236,1,8,0:0:0:0:
256,192,36289,1,0,0:0:0:0:
256,192,36343,1,0,0:0:0:0:
256,192,36450,1,8,0:0:0:0:
256,192,36503,1,0,0:0:0:0:
256,192,36557,1,0,0:0:0:0:
256,192,36878,1,8,0:0:0:0:
256,192,36986,1,8,0:0:0:0:
256,192,37093,1,0,0:0:0:0:
256,192,37200,1,8,0:0:0:0:
256,192,37307,1,0,0:0:0:0:
256,192,37361,1,0,0:0:0:0:
256,192,37414,1,8,0:0:0:0:
256,192,37521,1,8,0:0:0:0:
256,192,37628,1,0,0:0:0:0:
256,192,37736,1,0,0:0:0:0:
256,192,37789,1,0,0:0:0:0:
256,192,37843,1,8,0:0:0:0:
256,192,37950,1,8,0:0:0:0:
256,192,38164,1,0,0:0:0:0:
256,192,38593,1,0,0:0:0:0:
256,192,38646,1,0,0:0:0:0:
256,192,38700,1,8,0:0:0:0:
256,192,38807,1,8,0:0:0:0:
256,192,38914,1,0,0:0:0:0:
256,192,38968,1,0,0:0:0:0:
256,192,39021,1,8,0:0:0:0:
256,192,39075,1,8,0:0:0:0:
256,192,39128,1,0,0:0:0:0:
256,192,39236,1,0,0:0:0:0:
256,192,39343,1,0,0:0:0:0:
256,192,39396,1,0,0:0:0:0:
256,192,39450,1,8,0:0:0:0:
256,192,39557,1,0,0:0:0:0:
256,192,39664,1,8,0:0:0:0:
256,192,39771,1,0,0:0:0:0:
256,192,39878,1,8,0:0:0:0:
256,192,39932,1,8,0:0:0:0:
256,192,39986,1,8,0:0:0:0:
256,192,40093,1,0,0:0:0:0:
256,192,40307,1,0,0:0:0:0:
256,192,40361,1,0,0:0:0:0:
256,192,40414,1,8,0:0:0:0:
256,192,40521,1,8,0:0:0:0:
256,192,40628,1,0,0:0:0:0:
256,192,40682,1,0,0:0:0:0:
256,192,40736,1,8,0:0:0:0:
256,192,40843,1,0,0:0:0:0:
256,192,40950,1,8,0:0:0:0:
256,192,41057,1,0,0:0:0:0:
256,192,41111,1,0,0:0:0:0:
256,192,41164,1,8,0:0:0:0:
256,192,41218,1,8,0:0:0:0:
256,192,41271,1,0,0:0:0:0:
256,192,41325,1,0,0:0:0:0:
256,192,41378,1,0,0:0:0:0:
256,192,41432,1,0,0:0:0:0:
256,192,41486,1,8,0:0:0:0:
256,192,41539,1,8,0:0:0:0:
256,192,41593,1,0,0:0:0:0:
256,192,41700,1,0,0:0:0:0:
256,192,41807,1,8,0:0:0:0:
256,192,41861,1,8,0:0:0:0:
256,192,41914,1,0,0:0:0:0:
160,256,42021,5,0,0:0:0:0:
256,320,42128,1,0,0:0:0:0:
224,288,42182,1,0,0:0:0:0:
224,288,42236,1,2,0:0:0:0:
224,288,42343,1,2,0:0:0:0:
192,192,42450,1,0,0:0:0:0:
160,160,42503,1,0,0:0:0:0:
96,160,42557,1,0,0:0:0:0:
160,160,42611,1,0,0:0:0:0:
96,160,42664,1,2,0:0:0:0:
192,128,42771,1,2,0:0:0:0:
192,128,42878,1,0,0:0:0:0:
96,128,42986,1,0,0:0:0:0:
96,128,43039,1,0,0:0:0:0:
96,128,43093,1,2,0:0:0:0:
96,128,43200,1,2,0:0:0:0:
96,128,43307,1,0,0:0:0:0:
160,160,43361,1,0,0:0:0:0:
160,160,43414,1,0,0:0:0:0:
160,160,43468,1,0,0:0:0:0:
160,160,43521,1,2,0:0:0:0:
160,160,43628,1,2,0:0:0:0:
256,224,43736,1,2,0:0:0:0:
256,224,43789,1,2,0:0:0:0:
256,224,43843,1,0,0:0:0:0:
256,224,43950,1,2,0:0:0:0:
256,160,44057,1,0,0:0:0:0:
256,160,44164,1,0,0:0:0:0:
256,224,44218,1,2,0:0:0:0:
256,288,44271,1,0,0:0:0:0:
256,224,44325,1,0,0:0:0:0:
256,288,44378,1,2,0:0:0:0:
160,320,44486,1,0,0:0:0:0:
256,256,44593,1,2,0:0:0:0:
320,256,44646,1,2,0:0:0:0:
256,256,44700,1,0,0:0:0:0:
320,256,44753,1,0,0:0:0:0:
256,256,44807,1,2,0:0:0:0:
320,256,44861,1,2,0:0:0:0:
256,256,44914,1,0,0:0:0:0:
256,256,45021,1,2,0:0:0:0:
256,256,45075,1,2,0:0:0:0:
256,256,45128,1,0,0:0:0:0:
256,256,45236,1,2,0:0:0:0:
256,224,45343,1,0,0:0:0:0:
128,224,45450,1,0,0:0:0:0:
192,256,45557,1,0,0:0:0:0:
192,256,45611,1,0,0:0:0:0:
192,256,45664,1,2,0:0:0:0:
192,160,45771,1,0,0:0:0:0:
192,256,45878,1,2,0:0:0:0:
192,192,45932,1,2,0:0:0:0:
192,256,45986,1,2,0:0:0:0:
192,192,46039,1,2,0:0:0:0:
192,256,46093,1,0,0:0:0:0:
192,160,46200,1,0,0:0:0:0:
256,256,46307,1,0,0:0:0:0:
256,224,46414,1,0,0:0:0:0:
224,192,46468,1,0,0:0:0:0:
192,160,46521,1,2,0:0:0:0:
96,160,46628,1,0,0:0:0:0:
192,160,46736,1,2,0:0:0:0:
128,160,46789,1,2,0:0:0:0:
96,160,46843,1,2,0:0:0:0:
160,160,46896,1,2,0:0:0:0:
160,160,46950,1,0,0:0:0:0:
160,160,47057,1,0,0:0:0:0:
256,256,47164,1,2,0:0:0:0:
256,256,47218,1,2,0:0:0:0:
256,256,47271,1,0,0:0:0:0:
256,256,47378,1,2,0:0:0:0:
256,256,47432,1,2,0:0:0:0:
96,160,47486,1,0,0:0:0:0:
256,256,47593,1,2,0:0:0:0:
256,256,47646,1,2,0:0:0:0:
288,352,47700,1,0,0:0:0:0:
192,224,47753,1,0,0:0:0:0:
224,256,47807,1,2,0:0:0:0:
256,256,47914,1,2,0:0:0:0:
192,160,48021,1,0,0:0:0:0:
224,192,48075,1,0,0:0:0:0:
192,160,48128,1,2,0:0:0:0:
288,224,48236,1,0,0:0:0:0:
256,192,48289,1,0,0:0:0:0:
192,160,48343,1,0,0:0:0:0:
224,192,48396,1,0,0:0:0:0:
192,160,48450,1,2,0:0:0:0:
288,224,48557,1,2,0:0:0:0:
192,192,48664,1,0,0:0:0:0:
192,192,48771,1,2,0:0:0:0:
192,224,48878,1,2,0:0:0:0:
224,256,48932,1,2,0:0:0:0:
256,288,48986,1,0,0:0:0:0:
192,224,49093,1,2,0:0:0:0:
224,256,49200,1,0,0:0:0:0:
128,192,49307,1,2,0:0:0:0:
96,160,49361,1,2,0:0:0:0:
32,128,49414,1,2,0:0:0:0:
64,160,49468,1,2,0:0:0:0:
64,160,49521,1,0,0:0:0:0:
32,224,49628,1,0,0:0:0:0:
128,224,49736,1,2,0:0:0:0:
192,224,49789,1,2,0:0:0:0:
256,224,49843,1,0,0:0:0:0:
352,288,49950,1,2,0:0:0:0:
256,224,50057,1,0,0:0:0:0:
224,128,50164,1,2,0:0:0:0:
256,192,50218,1,2,0:0:0:0:
256,192,50271,1,2,0:0:0:0:
256,192,50325,1,2,0:0:0:0:
256,192,50378,1,0,0:0:0:0:
288,288,50486,1,2,0:0:0:0:
288,288,50593,1,0,0:0:0:0:
288,288,50646,1,0,0:0:0:0:
288,288,50700,1,2,0:0:0:0:
288,288,50807,1,2,0:0:0:0:
224,224,50914,1,0,0:0:0:0:
288,320,51021,1,0,0:0:0:0:
256,288,51075,1,0,0:0:0:0:
224,224,51128,1,0,0:0:0:0:
288,288,51236,1,2,0:0:0:0:
352,352,51343,1,0,0:0:0:0:
288,288,51450,1,0,0:0:0:0:
256,224,51557,1,0,0:0:0:0:
288,256,51611,1,0,0:0:0:0:
352,256,51664,1,2,0:0:0:0:
352,352,51771,1,2,0:0:0:0:
352,256,51878,1,0,0:0:0:0:
352,320,51932,1,0,0:0:0:0:
352,256,51986,1,0,0:0:0:0:
288,224,52039,1,0,0:0:0:0:
352,352,52093,1,2,0:0:0:0:
352,256,52200,1,0,0:0:0:0:
256,192,52307,1,2,0:0:0:0:
416,384,52361,1,0,0:0:0:0:
384,352,52414,1,0,0:0:0:0:
352,288,52521,1,2,0:0:0:0:
256,256,52628,1,0,0:0:0:0:
160,224,52736,1,2,0:0:0:0:
128,192,52789,1,2,0:0:0:0:
96,128,52843,1,0,0:0:0:0:
224,224,52950,1,0,0:0:0:0:
448,320,53057,1,2,0:0:0:0:
384,288,53164,1,0,0:0:0:0:
352,256,53218,1,0,0:0:0:0:
288,224,53271,1,0,0:0:0:0:
224,224,53325,1,0,0:0:0:0:
256,192,53378,1,2,0:0:0:0:
224,224,53432,1,2,0:0:0:0:
192,256,53486,1,2,0:0:0:0:
256,192,53593,12,0,55307,0:0:0:0:
256,192,55736,5,4,0:0:0:0:
256,192,55950,1,0,0:0:0:0:
256,192,56057,1,0,0:0:0:0:
256,192,56164,1,8,0:0:0:0:
256,192,56271,1,0,0:0:0:0:
256,192,56486,1,8,0:0:0:0:
256,192,56593,1,8,0:0:0:0:
256,192,56646,1,8,0:0:0:0:
256,192,56700,1,0,0:0:0:0:
256,192,56753,1,0,0:0:0:0:
256,192,56807,1,8,0:0:0:0:
256,192,56914,1,0,0:0:0:0:
256,192,57021,1,0,0:0:0:0:
256,192,57128,1,0,0:0:0:0:
256,192,57182,1,0,0:0:0:0:
256,192,57236,1,8,0:0:0:0:
256,192,57343,1,0,0:0:0:0:
256,192,57450,1,8,0:0:0:0:
256,192,57503,1,0,0:0:0:0:
256,192,57557,1,0,0:0:0:0:
256,192,57664,1,8,0:0:0:0:
256,192,57771,1,8,0:0:0:0:
256,192,57878,1,0,0:0:0:0:
256,192,57986,1,0,0:0:0:0:
256,192,58093,1,0,0:0:0:0:
256,192,58146,1,0,0:0:0:0:
256,192,58200,1,8,0:0:0:0:
256,192,58307,1,8,0:0:0:0:
256,192,58414,1,0,0:0:0:0:
256,192,58521,1,0,0:0:0:0:
256,192,58575,1,0,0:0:0:0:
256,192,58628,1,0,0:0:0:0:
256,192,58682,1,0,0:0:0:0:
256,192,58736,1,8,0:0:0:0:
256,192,58843,1,8,0:0:0:0:
256,192,58950,1,0,0:0:0:0:
256,192,59164,1,8,0:0:0:0:
256,192,59218,1,8,0:0:0:0:
256,192,59271,1,0,0:0:0:0:
256,192,59378,1,0,0:0:0:0:
256,192,59486,1,0,0:0:0:0:
256,192,59593,1,8,0:0:0:0:
256,192,59646,1,0,0:0:0:0:
256,192,59700,1,8,0:0:0:0:
256,192,59753,1,0,0:0:0:0:
256,192,59807,1,0,0:0:0:0:
256,192,59914,1,8,0:0:0:0:
256,192,60021,1,0,0:0:0:0:
256,192,60075,1,0,0:0:0:0:
256,192,60128,1,8,0:0:0:0:
256,192,60236,1,0,0:0:0:0:
256,192,60343,1,8,0:0:0:0:
256,192,60396,1,8,0:0:0:0:
256,192,60450,1,0,0:0:0:0:
256,192,60664,1,8,0:0:0:0:
256,192,60771,1,8,0:0:0:0:
256,192,60825,1,8,0:0:0:0:
256,192,60878,1,0,0:0:0:0:
256,192,60986,1,8,0:0:0:0:
256,192,61093,1,0,0:0:0:0:
256,192,61146,1,0,0:0:0:0:
256,192,61200,1,8,0:0:0:0:
256,192,61253,1,8,0:0:0:0:
256,192,61307,1,0,0:0:0:0:
256,192,61414,1,8,0:0:0:0:
256,192,61521,1,0,0:0:0:0:
256,192,61575,1,0,0:0:0:0:
256,192,61628,1,0,0:0:0:0:
256,192,61682,1,0,0:0:0:0:
256,192,61736,1,8,0:0:0:0:
256,192,61843,1,8,0:0:0:0:
256,192,61950,1,0,0:0:0:0:
256,192,62003,1,0,0:0:0:0:
256,192,62057,1,0,0:0:0:0:
256,192,62164,1,8,0:0:0:0:
256,192,62218,1,8,0:0:0:0:
256,192,62271,1,0,0:0:0:0:
256,192,62325,1,0,0:0:0:0:
256,192,62378,1,0,0:0:0:0:
256,192,62486,1,0,0:0:0:0:
256,192,62539,1,0,0:0:0:0:
256,192,62593,1,8,0:0:0:0:
256,192,62807,1,0,0:0:0:0:
256,192,62861,1,0,0:0:0:0:
256,192,62914,1,0,0:0:0:0:
256,192,63021,1,8,0:0:0:0:
256,192,63128,1,0,0:0:0:0:
256,192,63236,1,8,0:0:0:0:
256,192,63289,1,8,0:0:0:0:
256,192,63343,1,0,0:0:0:0:
256,192,63450,1,8,0:0:0:0:
256,192,63557,1,0,0:0:0:0:
256,192,63611,1,0,0:0:0:0:
256,192,63664,1,8,0:0:0:0:
256,192,63771,1,0,0:0:0:0:
256,192,63878,1,8,0:0:0:0:
256,192,63932,1,8,0:0:0:0:
256,192,63986,1,0,0:0:0:0:
256,192,64039,1,0,0:0:0:0:
256,192,64093,1,8,0:0:0:0:
256,192,64200,1,8,0:0:0:0:
256,192,64307,1,0,0:0:0:0:
256,192,64361,1,0,0:0:0:0:
256,192,64414,1,0,0:0:0:0:
256,192,64521,1,8,0:0:0:0:
256,192,64628,1,8,0:0:0:0:
256,192,64736,1,0,0:0:0:0:
256,192,64789,1,0,0:0:0:0:
256,192,64843,1,0,0:0:0:0:
256,192,64896,1,0,0:0:0:0:
256,192,64950,1,8,0:0:0:0:
256,192,65057,1,0,0:0:0:0:
256,192,65164,1,8,0:0:0:0:
256,192,65218,1,8,0:0:0:0:
256,192,65271,1,0,0:0:0:0:
256,192,65378,1,8,0:0:0:0:
256,192,65486,1,0,0:0:0:0:
256,192,65539,1,0,0:0:0:0:
256,192,65593,1,8,0:0:0:0:
256,192,65646,1,8,0:0:0:0:
256,192,65700,1,0,0:0:0:0:
256,192,65807,1,8,0:0:0:0:
256,192,65861,1,0,0:0:0:0:
256,192,65914,1,0,0:0:0:0:
256,192,66021,1,8,0:0:0:0:
256,192,66236,1,0,0:0:0:0:
256,192,66289,1,0,0:0:0:0:
256,192,66343,1,8,0:0:0:0:
256,192,66450,1,8,0:0:0:0:
256,192,66557,1,0,0:0:0:0:
256,192,66611,1,0,0:0:0:0:
256,192,66664,1,0,0:0:0:0:
256,192,66771,1,8,0:0:0:0:
256,192,66878,1,0,0:0:0:0:
256,192,66932,1,0,0:0:0:0:
256,192,66986,1,8,0:0:0:0:
256,192,67093,1,8,0:0:0:0:
256,192,67200,1,0,0:0:0:0:
256,192,67253,1,0,0:0:0:0:
256,192,67307,1,8,0:0:0:0:
256,192,67361,1,0,0:0:0:0:
256,192,67414,1,8,0:0:0:0:
256,192,67521,1,8,0:0:0:0:
256,192,67628,1,0,0:0:0:0:
256,192,67682,1,0,0:0:0:0:
256,192,67736,1,8,0:0:0:0:
256,192,67843,1,0,0:0:0:0:
256,192,67950,1,8,0:0:0:0:
256,192,68003,1,8,0:0:0:0:
256,192,68057,1,0,0:0:0:0:
256,192,68111,1,0,0:0:0:0:
256,192,68164,1,0,0:0:0:0:
256,192,68271,1,8,0:0:0:0:
256,192,68486,1,0,0:0:0:0:
256,192,68593,1,8,0:0:0:0:
256,192,68700,1,8,0:0:0:0:
256,192,68753,1,8,0:0:0:0:
256,192,68807,1,0,0:0:0:0:
256,192,68861,1,0,0:0:0:0:
256,192,68914,1,8,0:0:0:0:
256,192,69021,1,8,0:0:0:0:
256,192,69128,1,0,0:0:0:0:
256,192,69236,1,8,0:0:0:0:
160,256,69450,5,0,0:0:0:0:
160,256,69664,1,2,0:0:0:0:
224,160,69771,1,2,0:0:0:0:
192,160,69878,1,0,0:0:0:0:
160,256,70093,1,2,0:0:0:0:
160,256,70200,1,2,0:0:0:0:
160,256,70307,1,0,0:0:0:0:
128,192,70414,1,2,0:0:0:0:
160,256,70521,1,2,0:0:0:0:
160,256,70628,1,2,0:0:0:0:
64,192,70736,1,0,0:0:0:0:
0,160,71164,1,0,0:0:0:0:
96,192,71271,1,0,0:0:0:0:
192,256,71378,1,2,0:0:0:0:
96,192,71486,1,0,0:0:0:0:
32,128,71593,1,0,0:0:0:0:
64,160,71646,1,0,0:0:0:0:
96,192,71700,1,0,0:0:0:0:
32,128,71807,1,2,0:0:0:0:
96,192,71914,1,0,0:0:0:0:
32,128,72021,1,0,0:0:0:0:
64,160,72075,1,0,0:0:0:0:
64,192,72128,1,0,0:0:0:0:
64,160,72236,1,2,0:0:0:0:
64,160,72343,1,0,0:0:0:0:
128,160,72396,1,0,0:0:0:0:
96,224,72450,1,2,0:0:0:0:
320,320,72878,1,0,0:0:0:0:
288,288,72932,1,0,0:0:0:0:
256,288,72986,1,0,0:0:0:0:
256,288,73093,1,2,0:0:0:0:
256,256,73146,1,2,0:0:0:0:
256,288,73200,1,2,0:0:0:0:
256,288,73307,1,0,0:0:0:0:
256,288,73414,1,0,0:0:0:0:
224,256,73468,1,0,0:0:0:0:
256,288,73521,1,2,0:0:0:0:
256,288,73628,1,0,0:0:0:0:
288,288,73682,1,0,0:0:0:0:
256,288,73736,1,2,0:0:0:0:
320,256,73843,1,0,0:0:0:0:
352,288,73896,1,0,0:0:0:0:
352,288,73950,1,2,0:0:0:0:
256,288,74057,1,0,0:0:0:0:
288,288,74111,1,0,0:0:0:0:
256,288,74164,1,2,0:0:0:0:
128,96,74593,1,0,0:0:0:0:
160,128,74700,1,0,0:0:0:0:
192,128,74753,1,0,0:0:0:0:
192,192,74807,1,2,0:0:0:0:
224,256,74914,1,0,0:0:0:0:
224,256,75021,1,0,0:0:0:0:
224,224,75075,1,0,0:0:0:0:
224,256,75128,1,0,0:0:0:0:
224,224,75182,1,0,0:0:0:0:
224,256,75236,1,2,0:0:0:0:
224,256,75343,1,2,0:0:0:0:
224,256,75450,1,0,0:0:0:0:
192,256,75503,1,0,0:0:0:0:
224,256,75557,1,0,0:0:0:0:
224,256,75664,1,2,0:0:0:0:
224,256,75771,1,0,0:0:0:0:
224,256,75878,1,0,0:0:0:0:
224,256,75986,1,2,0:0:0:0:
224,256,76093,1,0,0:0:0:0:
224,256,76200,1,2,0:0:0:0:
288,256,76307,1,0,0:0:0:0:
352,256,76414,1,0,0:0:0:0:
352,256,76521,1,2,0:0:0:0:
352,352,76628,1,2,0:0:0:0:
320,288,76736,1,0,0:0:0:0:
288,224,76843,1,2,0:0:0:0:
288,224,76950,1,0,0:0:0:0:
288,224,77057,1,2,0:0:0:0:
288,224,77164,1,0,0:0:0:0:
288,224,77271,1,0,0:0:0:0:
288,224,77325,1,0,0:0:0:0:
288,224,77378,1,2,0:0:0:0:
288,224,77486,1,0,0:0:0:0:
256,160,77593,1,2,0:0:0:0:
256,192,78021,1,0,0:0:0:0:
256,192,78128,1,0,0:0:0:0:
224,224,78182,1,0,0:0:0:0:
256,192,78236,1,2,0:0:0:0:
256,192,78343,1,2,0:0:0:0:
256,192,78450,1,0,0:0:0:0:
224,224,78503,1,0,0:0:0:0:
256,192,78557,1,0,0:0:0:0:
224,224,78611,1,0,0:0:0:0:
256,192,78664,1,2,0:0:0:0:
256,192,78771,1,0,0:0:0:0:
256,192,78878,1,2,0:0:0:0:
224,160,78932,1,2,0:0:0:0:
256,192,78986,1,0,0:0:0:0:
256,192,79093,1,2,0:0:0:0:
256,192,79200,1,0,0:0:0:0:
256,192,79307,1,2,0:0:0:0:
128,192,79736,1,0,0:0:0:0:
96,256,79789,1,0,0:0:0:0:
96,256,79843,1,0,0:0:0:0:
160,192,79896,1,0,0:0:0:0:
96,256,79950,1,2,0:0:0:0:
160,128,80057,1,0,0:0:0:0:
128,160,80111,1,0,0:0:0:0:
96,256,80164,1,2,0:0:0:0:
128,160,80271,1,0,0:0:0:0:
192,224,80378,1,2,0:0:0:0:
128,160,80486,1,2,0:0:0:0:
192,224,80539,1,2,0:0:0:0:
96,256,80593,1,0,0:0:0:0:
160,192,80700,1,0,0:0:0:0:
96,256,80807,1,2,0:0:0:0:
160,192,80914,1,0,0:0:0:0:
128,224,80968,1,0,0:0:0:0:
96,256,81021,1,2,0:0:0:0:
160,192,81128,1,0,0:0:0:0:
96,256,81236,1,0,0:0:0:0:
160,192,81343,1,0,0:0:0:0:
96,256,81450,1,2,0:0:0:0:
160,224,81503,1,2,0:0:0:0:
160,192,81557,1,0,0:0:0:0:
96,256,81664,1,0,0:0:0:0:
160,192,81771,1,2,0:0:0:0:
192,192,81825,1,2,0:0:0:0:
96,256,81878,1,0,0:0:0:0:
192,224,81986,5,0,0:0:0:0:
192,224,82093,1,2,0:0:0:0:
192,224,82146,1,2,0:0:0:0:
160,192,82200,1,0,0:0:0:0:
192,224,82307,1,2,0:0:0:0:
160,192,82361,1,2,0:0:0:0:
128,192,82414,1,0,0:0:0:0:
128,192,82468,1,0,0:0:0:0:
128,192,82521,1,0,0:0:0:0:
96,160,82575,1,0,0:0:0:0:
128,192,82628,1,2,0:0:0:0:
128,192,82682,1,2,0:0:0:0:
128,192,82736,1,0,0:0:0:0:
128,192,82789,1,0,0:0:0:0:
128,192,82843,1,0,0:0:0:0:
128,192,82896,1,0,0:0:0:0:
128,192,82950,1,2,0:0:0:0:
256,192,83164,5,0,0:0:0:0:
256,192,83271,1,0,0:0:0:0:
256,192,83325,1,0,0:0:0:0:
256,192,83378,1,8,0:0:0:0:
256,192,83486,1,0,0:0:0:0:
256,192,83593,1,8,0:0:0:0:
256,192,83646,1,8,0:0:0:0:
256,192,83700,1,0,0:0:0:0:
256,192,83753,1,0,0:0:0:0:
256,192,83807,1,8,0:0:0:0:
256,192,83914,1,0,0:0:0:0:
256,192,84021,1,8,0:0:0:0:
256,192,84075,1,8,0:0:0:0:
256,192,84128,1,0,0:0:0:0:
256,192,84236,1,8,0:0:0:0:
256,192,84343,1,0,0:0:0:0:
256,192,84396,1,0,0:0:0:0:
256,192,84450,1,0,0:0:0:0:
256,192,84557,1,0,0:0:0:0:
256,192,84664,1,8,0:0:0:0:
256,192,84771,1,8,0:0:0:0:
256,192,84825,1,8,0:0:0:0:
256,192,84878,1,0,0:0:0:0:
256,192,84932,1,0,0:0:0:0:
256,192,84986,1,0,0:0:0:0:
256,192,85039,1,0,0:0:0:0:
256,192,85093,1,8,0:0:0:0:
256,192,85146,1,8,0:0:0:0:
256,192,85200,1,0,0:0:0:0:
256,192,85253,1,0,0:0:0:0:
256,192,85307,1,8,0:0:0:0:
256,192,85414,1,0,0:0:0:0:
256,192,85521,1,8,0:0:0:0:
256,192,85575,1,8,0:0:0:0:
256,192,85628,1,8,0:0:0:0:
256,192,85736,1,0,0:0:0:0:
256,192,85789,1,0,0:0:0:0:
256,192,85843,1,0,0:0:0:0:
256,192,85896,1,0,0:0:0:0:
256,192,85950,1,8,0:0:0:0:
256,192,86057,1,0,0:0:0:0:
256,192,86164,1,8,0:0:0:0:
256,192,86218,1,0,0:0:0:0:
256,192,86271,1,0,0:0:0:0:
256,192,86378,1,8,0:0:0:0:
256,192,86486,1,0,0:0:0:0:
256,192,86539,1,0,0:0:0:0:
256,192,86593,1,8,0:0:0:0:
256,192,86700,1,0,0:0:0:0:
256,192,86807,1,8,0:0:0:0:
256,192,86861,1,0,0:0:0:0:
256,192,86914,1,8,0:0:0:0:
256,192,86968,1,0,0:0:0:0:
256,192,87021,1,0,0:0:0:0:
256,192,87128,1,0,0:0:0:0:
256,192,87236,1,0,0:0:0:0:
256,192,87289,1,0,0:0:0:0:
256,192,87343,1,8,0:0:0:0:
256,192,87450,1,8,0:0:0:0:
256,192,87503,1,8,0:0:0:0:
256,192,87557,1,0,0:0:0:0:
256,192,87611,1,0,0:0:0:0:
256,192,87664,1,8,0:0:0:0:
256,192,87771,1,0,0:0:0:0:
256,192,87878,1,8,0:0:0:0:
256,192,87932,1,8,0:0:0:0:
256,192,87986,1,0,0:0:0:0:
256,192,88093,1,8,0:0:0:0:
256,192,88200,1,0,0:0:0:0:
256,192,88253,1,0,0:0:0:0:
256,192,88307,1,8,0:0:0:0:
256,192,88361,1,0,0:0:0:0:
256,192,88414,1,8,0:0:0:0:
256,192,88468,1,0,0:0:0:0:
256,192,88521,1,0,0:0:0:0:
256,192,88575,1,0,0:0:0:0:
256,192,88628,1,0,0:0:0:0:
256,192,88682,1,0,0:0:0:0:
256,192,88736,1,8,0:0:0:0:
256,192,88789,1,8,0:0:0:0:
256,192,88843,1,0,0:0:0:0:
256,192,88896,1,0,0:0:0:0:
256,192,88950,1,8,0:0:0:0:
256,192,89057,1,0,0:0:0:0:
256,192,89164,1,8,0:0:0:0:
256,192,89378,1,0,0:0:0:0:
256,192,89486,1,0,0:0:0:0:
256,192,89539,1,0,0:0:0:0:
256,192,89593,1,8,0:0:0:0:
256,192,89646,1,8,0:0:0:0:
256,192,89700,1,0,0:0:0:0:
256,192,89807,1,8,0:0:0:0:
256,192,89914,1,0,0:0:0:0:
256,192,90021,1,8,0:0:0:0:
256,192,90075,1,8,0:0:0:0:
256,192,90128,1,0,0:0:0:0:
256,192,90236,1,8,0:0:0:0:
256,192,90343,1,8,0:0:0:0:
256,192,90396,1,8,0:0:0:0:
256,192,90450,1,0,0:0:0:0:
256,192,90557,1,0,0:0:0:0:
256,192,90664,1,0,0:0:0:0:
256,192,90718,1,0,0:0:0:0:
256,192,90771,1,0,0:0:0:0:
256,192,90825,1,0,0:0:0:0:
256,192,90878,1,8,0:0:0:0:
256,192,90932,1,8,0:0:0:0:
256,192,90986,1,0,0:0:0:0:
256,192,91093,1,0,0:0:0:0:
256,192,91200,1,8,0:0:0:0:
256,192,91253,1,0,0:0:0:0:
256,192,91307,1,0,0:0:0:0:
256,192,91414,1,8,0:0:0:0:
256,192,91521,1,8,0:0:0:0:
256,192,91628,1,0,0:0:0:0:
256,192,91682,1,0,0:0:0:0:
256,192,91736,1,8,0:0:0:0:
256,192,91789,1,8,0:0:0:0:
256,192,91843,1,0,0:0:0:0:
256,192,91950,1,0,0:0:0:0:
256,192,92057,1,0,0:0:0:0:
256,192,92111,1,0,0:0:0:0:
256,192,92164,1,8,0:0:0:0:
256,192,92271,1,0,0:0:0:0:
256,192,92378,1,8,0:0:0:0:
256,192,92432,1,8,0:0:0:0:
256,192,92486,1,0,0:0:0:0:
256,192,92539,1,0,0:0:0:0:
256,192,92593,1,8,0:0:0:0:
256,192,92700,1,0,0:0:0:0:
256,192,92807,1,8,0:0:0:0:
256,192,92861,1,8,0:0:0:0:
256,192,92914,1,0,0:0:0:0:
256,192,93021,1,8,0:0:0:0:
256,192,93128,1,8,0:0:0:0:
256,192,93236,1,0,0:0:0:0:
256,192,93289,1,0,0:0:0:0:
256,192,93343,1,0,0:0:0:0:
256,192,93396,1,0,0:0:0:0:
256,192,93450,1,8,0:0:0:0:
256,192,93503,1,8,0:0:0:0:
256,192,93557,1,0,0:0:0:0:
256,192,93611,1,8,0:0:0:0:
256,192,93664,1,0,0:0:0:0:
256,192,93718,1,0,0:0:0:0:
256,192,93771,1,0,0:0:0:0:
256,192,93825,1,0,0:0:0:0:
256,192,93878,1,8,0:0:0:0:
256,192,93932,1,0,0:0:0:0:
256,192,93986,1,0,0:0:0:0:
256,192,94093,1,8,0:0:0:0:
256,192,94200,1,0,0:0:0:0:
256,192,94253,1,0,0:0:0:0:
256,192,94307,1,8,0:0:0:0:
256,192,94414,1,0,0:0:0:0:
256,192,94468,1,0,0:0:0:0:
256,192,94521,1,8,0:0:0:0:
256,192,94628,1,0,0:0:0:0:
192,96,94736,2,0,L|352:96,8,140.000000596046
96,224,96878,5,0,0:0:0:0:
96,224,97521,1,0,0:0:0:0:
96,224,97736,1,2,0:0:0:0:
160,192,98593,5,0,0:0:0:0:
512,320,98914,1,0,0:0:0:0:
160,192,99236,1,0,0:0:0:0:
160,192,99450,1,2,0:0:0:0:
192,256,100093,1,2,0:0:0:0:
192,256,100307,1,0,0:0:0:0:
224,288,100628,1,0,0:0:0:0:
224,288,100950,1,0,0:0:0:0:
224,288,101164,1,2,0:0:0:0:
352,192,101807,1,2,0:0:0:0:
352,192,102021,1,0,0:0:0:0:
352,192,102343,1,0,0:0:0:0:
320,128,102664,1,0,0:0:0:0:
352,96,102771,1,0,0:0:0:0:
320,128,102878,1,2,0:0:0:0:
224,192,103521,1,2,0:0:0:0:
224,192,103628,1,2,0:0:0:0:
224,192,103736,1,0,0:0:0:0:
32,384,104057,1,0,0:0:0:0:
288,128,104378,1,0,0:0:0:0:
192,224,104486,1,0,0:0:0:0:
256,160,104593,1,2,0:0:0:0:
256,256,105236,1,2,0:0:0:0:
192,224,105343,1,2,0:0:0:0:
192,224,105450,1,0,0:0:0:0:
224,32,105664,1,0,0:0:0:0:
224,128,105771,1,0,0:0:0:0:
192,288,105986,1,0,0:0:0:0:
224,192,106093,1,0,0:0:0:0:
224,160,106307,1,2,0:0:0:0:
480,192,106950,1,2,0:0:0:0:
384,224,107057,1,2,0:0:0:0:
288,256,107164,1,0,0:0:0:0:
320,64,107378,1,0,0:0:0:0:
320,128,107486,1,0,0:0:0:0:
288,288,107700,1,0,0:0:0:0:
288,192,107807,1,0,0:0:0:0:
288,288,107914,1,0,0:0:0:0:
288,192,108021,1,2,0:0:0:0:
192,160,108664,1,2,0:0:0:0:
224,160,108771,1,2,0:0:0:0:
224,160,108878,1,0,0:0:0:0:
32,256,109093,1,0,0:0:0:0:
128,192,109200,5,0,0:0:0:0:
128,192,109414,1,0,0:0:0:0:
128,192,109521,1,0,0:0:0:0:
128,192,109628,1,0,0:0:0:0:
128,192,109736,1,2,0:0:0:0:
224,256,109843,1,2,0:0:0:0:
320,320,109950,1,0,0:0:0:0:
256,192,110378,5,0,0:0:0:0:
256,192,110593,1,8,0:0:0:0:
256,192,110807,1,0,0:0:0:0:
256,192,110914,1,0,0:0:0:0:
256,192,111021,1,8,0:0:0:0:
256,192,111128,1,8,0:0:0:0:
256,192,111236,1,0,0:0:0:0:
256,192,111450,1,8,0:0:0:0:
256,192,111557,1,0,0:0:0:0:
256,192,111664,1,0,0:0:0:0:
256,192,111878,1,0,0:0:0:0:
256,192,111986,1,0,0:0:0:0:
256,192,112093,1,8,0:0:0:0:
256,192,112200,1,0,0:0:0:0:
256,192,112414,1,0,0:0:0:0:
256,192,112521,1,8,0:0:0:0:
256,192,112628,1,0,0:0:0:0:
256,192,112736,1,8,0:0:0:0:
256,192,112950,1,0,0:0:0:0:
256,192,113003,1,0,0:0:0:0:
256,192,113057,1,0,0:0:0:0:
256,192,113164,1,8,0:0:0:0:
256,192,113271,1,0,0:0:0:0:
256,192,113325,1,0,0:0:0:0:
256,192,113378,1,0,0:0:0:0:
256,192,113486,1,8,0:0:0:0:
256,192,113593,1,0,0:0:0:0:
256,192,113807,1,8,0:0:0:0:
256,192,113914,1,0,0:0:0:0:
256,192,114021,1,0,0:0:0:0:
256,192,114236,1,0,0:0:0:0:
256,192,114450,1,0,0:0:0:0:
256,192,114557,1,0,0:0:0:0:
256,192,114771,1,8,0:0:0:0:
256,192,114878,1,0,0:0:0:0:
256,192,115093,1,8,0:0:0:0:
256,192,115307,1,0,0:0:0:0:
256,192,115361,1,0,0:0:0:0:
256,192,115414,1,0,0:0:0:0:
256,192,115521,1,8,0:0:0:0:
256,192,115628,1,0,0:0:0:0:
256,192,115736,1,8,0:0:0:0:
256,192,115950,1,8,0:0:0:0:
256,192,116003,1,0,0:0:0:0:
256,192,116057,1,0,0:0:0:0:
256,192,116164,1,8,0:0:0:0:
256,192,116271,1,0,0:0:0:0:
256,192,116486,1,0,0:0:0:0:
256,192,116593,1,8,0:0:0:0:
256,192,116700,1,8,0:0:0:0:
256,192,116753,1,8,0:0:0:0:
256,192,116807,1,0,0:0:0:0:
256,192,116861,1,0,0:0:0:0:
256,192,116914,1,0,0:0:0:0:
256,192,116968,1,0,0:0:0:0:
256,192,117021,1,0,0:0:0:0:
256,192,117450,1,0,0:0:0:0:
256,192,117557,1,0,0:0:0:0:
256,192,117611,1,0,0:0:0:0:
256,192,117664,1,8,0:0:0:0:
256,192,117771,1,8,0:0:0:0:
256,192,117878,1,0,0:0:0:0:
256,192,117932,1,0,0:0:0:0:
256,192,117986,1,0,0:0:0:0:
256,192,118093,1,8,0:0:0:0:
256,192,118200,1,0,0:0:0:0:
256,192,118307,1,0,0:0:0:0:
256,192,118361,1,0,0:0:0:0:
256,192,118414,1,0,0:0:0:0:
256,192,118468,1,0,0:0:0:0:
256,192,118521,1,8,0:0:0:0:
256,192,118628,1,8,0:0:0:0:
256,192,118736,1,0,0:0:0:0:
256,192,118843,1,0,0:0:0:0:
256,192,118950,1,8,0:0:0:0:
256,192,119164,1,0,0:0:0:0:
256,192,119271,1,8,0:0:0:0:
256,192,119378,1,0,0:0:0:0:
256,192,119486,1,0,0:0:0:0:
256,192,119593,1,8,0:0:0:0:
256,192,119646,1,8,0:0:0:0:
256,192,119700,1,0,0:0:0:0:
256,192,119807,1,8,0:0:0:0:
256,192,119914,1,0,0:0:0:0:
256,192,119968,1,0,0:0:0:0:
256,192,120021,1,8,0:0:0:0:
256,192,120128,1,0,0:0:0:0:
256,192,120236,1,8,0:0:0:0:
256,192,120450,1,8,0:0:0:0:
256,192,120557,1,8,0:0:0:0:
256,192,120664,1,0,0:0:0:0:
256,192,120771,1,0,0:0:0:0:
256,192,120825,1,0,0:0:0:0:
256,192,120878,1,8,0:0:0:0:
256,192,121093,1,8,0:0:0:0:
256,192,121200,1,8,0:0:0:0:
256,192,121307,1,0,0:0:0:0:
256,192,121521,1,0,0:0:0:0:
256,192,121628,1,0,0:0:0:0:
256,192,121736,1,8,0:0:0:0:
256,192,121789,1,8,0:0:0:0:
256,192,121843,1,0,0:0:0:0:
256,192,121950,1,8,0:0:0:0:
256,192,122057,1,8,0:0:0:0:
256,192,122164,1,0,0:0:0:0:
256,192,122218,1,0,0:0:0:0:
256,192,122271,1,8,0:0:0:0:
256,192,122378,1,0,0:0:0:0:
256,192,122432,1,0,0:0:0:0:
256,192,122486,1,0,0:0:0:0:
256,192,122539,1,0,0:0:0:0:
256,192,122593,1,8,0:0:0:0:
256,192,122700,1,8,0:0:0:0:
256,192,122807,1,0,0:0:0:0:
256,192,123021,1,0,0:0:0:0:
256,192,123128,1,8,0:0:0:0:
256,192,123236,1,8,0:0:0:0:
256,192,123343,1,0,0:0:0:0:
256,192,123396,1,0,0:0:0:0:
256,192,123450,1,8,0:0:0:0:
256,192,123503,1,0,0:0:0:0:
256,192,123557,1,0,0:0:0:0:
256,192,123611,1,0,0:0:0:0:
256,192,123664,1,8,0:0:0:0:
256,192,123718,1,0,0:0:0:0:
256,192,123771,1,0,0:0:0:0:
256,192,123825,1,0,0:0:0:0:
256,192,123878,1,0,0:0:0:0:
256,224,124307,5,0,0:0:0:0:
320,288,124414,1,2,0:0:0:0:
256,224,124521,1,0,0:0:0:0:
256,224,124628,1,0,0:0:0:0:
256,224,124736,1,2,0:0:0:0:
160,192,125164,1,0,0:0:0:0:
256,256,125271,1,2,0:0:0:0:
160,192,125378,1,0,0:0:0:0:
256,256,125486,1,0,0:0:0:0:
128,160,125593,1,2,0:0:0:0:
512,352,126021,1,0,0:0:0:0:
480,320,126128,1,2,0:0:0:0:
384,288,126236,1,0,0:0:0:0:
288,256,126343,1,0,0:0:0:0:
192,192,126450,1,2,0:0:0:0:
192,192,126557,1,0,0:0:0:0:
192,192,126664,1,0,0:0:0:0:
256,288,126771,1,2,0:0:0:0:
192,192,126878,1,0,0:0:0:0:
96,192,126986,1,0,0:0:0:0:
192,192,127093,1,2,0:0:0:0:
256,288,127200,1,0,0:0:0:0:
192,192,127307,1,2,0:0:0:0:
288,256,127736,1,0,0:0:0:0:
288,256,127843,1,0,0:0:0:0:
224,352,127950,1,2,0:0:0:0:
288,256,128057,1,0,0:0:0:0:
224,352,128164,1,2,0:0:0:0:
222,245,128593,1,0,0:0:0:0:
222,245,128700,1,0,0:0:0:0:
222,245,128807,1,2,0:0:0:0:
222,245,128914,1,0,0:0:0:0:
288,256,129021,1,2,0:0:0:0:
229,308,129450,1,0,0:0:0:0:
229,308,129557,1,0,0:0:0:0:
229,308,129664,1,2,0:0:0:0:
229,308,129771,1,0,0:0:0:0:
322,261,129878,1,0,0:0:0:0:
229,308,129986,5,2,0:0:0:0:
270,211,130093,1,2,0:0:0:0:
229,307,130200,1,0,0:0:0:0:
272,211,130307,1,2,0:0:0:0:
229,306,130414,1,0,0:0:0:0:
275,212,130521,1,0,0:0:0:0:
343,291,130628,1,0,0:0:0:0:
411,372,130736,1,2,0:0:0:0:
256,192,131164,5,4,0:0:0:0:
256,192,131271,1,0,0:0:0:0:
256,192,131325,1,0,0:0:0:0:
256,192,131378,1,8,0:0:0:0:
256,192,131486,1,8,0:0:0:0:
256,192,131593,1,0,0:0:0:0:
256,192,131646,1,0,0:0:0:0:
256,192,131700,1,8,0:0:0:0:
256,192,131753,1,8,0:0:0:0:
256,192,131807,1,0,0:0:0:0:
256,192,131914,1,0,0:0:0:0:
256,192,131968,1,0,0:0:0:0:
256,192,132021,1,8,0:0:0:0:
256,192,132128,1,0,0:0:0:0:
256,192,132236,1,8,0:0:0:0:
256,192,132343,1,8,0:0:0:0:
256,192,132396,1,8,0:0:0:0:
256,192,132450,1,0,0:0:0:0:
256,192,132503,1,0,0:0:0:0:
256,192,132557,1,8,0:0:0:0:
256,192,132664,1,8,0:0:0:0:
256,192,132771,1,0,0:0:0:0:
256,192,132825,1,8,0:0:0:0:
256,192,132878,1,0,0:0:0:0:
256,192,132932,1,0,0:0:0:0:
256,192,132986,1,8,0:0:0:0:
256,192,133039,1,0,0:0:0:0:
256,192,133093,1,0,0:0:0:0:
256,192,133146,1,0,0:0:0:0:
256,192,133200,1,0,0:0:0:0:
256,192,133253,1,0,0:0:0:0:
256,192,133307,1,8,0:0:0:0:
256,192,133361,1,8,0:0:0:0:
256,192,133414,1,0,0:0:0:0:
256,192,133468,1,0,0:0:0:0:
256,192,133521,1,8,0:0:0:0:
256,192,133575,1,0,0:0:0:0:
256,192,133628,1,0,0:0:0:0:
256,192,133682,1,0,0:0:0:0:
256,192,133736,1,8,0:0:0:0:
256,192,133843,1,0,0:0:0:0:
256,192,133896,1,0,0:0:0:0:
256,192,133950,1,8,0:0:0:0:
256,192,134057,1,8,0:0:0:0:
256,192,134111,1,8,0:0:0:0:
256,192,134164,1,8,0:0:0:0:
256,192,134271,1,0,0:0:0:0:
256,192,134325,1,0,0:0:0:0:
256,192,134378,1,8,0:0:0:0:
256,192,134432,1,8,0:0:0:0:
256,192,134486,1,0,0:0:0:0:
256,192,134593,1,8,0:0:0:0:
256,192,134807,1,0,0:0:0:0:
256,192,134861,1,0,0:0:0:0:
256,192,134914,1,0,0:0:0:0:
256,192,134968,1,0,0:0:0:0:
256,192,135021,1,8,0:0:0:0:
256,192,135128,1,0,0:0:0:0:
256,192,135236,1,8,0:0:0:0:
256,192,135289,1,8,0:0:0:0:
256,192,135343,1,0,0:0:0:0:
256,192,135450,1,8,0:0:0:0:
256,192,135557,1,0,0:0:0:0:
256,192,135664,1,0,0:0:0:0:
256,192,135718,1,0,0:0:0:0:
256,192,135771,1,0,0:0:0:0:
256,192,135825,1,0,0:0:0:0:
256,192,135878,1,8,0:0:0:0:
256,192,135986,1,0,0:0:0:0:
256,192,136093,1,0,0:0:0:0:
256,192,136146,1,0,0:0:0:0:
256,192,136200,1,0,0:0:0:0:
256,192,136253,1,0,0:0:0:0:
256,192,136307,1,8,0:0:0:0:
256,192,136361,1,8,0:0:0:0:
256,192,136414,1,8,0:0:0:0:
256,192,136468,1,8,0:0:0:0:
256,192,136521,1,0,0:0:0:0:
256,192,136575,1,0,0:0:0:0:
256,192,136628,1,0,0:0:0:0:
256,192,136682,1,0,0:0:0:0:
256,192,136736,1,8,0:0:0:0:
256,192,136843,1,0,0:0:0:0:
256,192,136950,1,8,0:0:0:0:
256,192,137057,1,0,0:0:0:0:
256,192,137164,1,0,0:0:0:0:
256,192,137218,1,0,0:0:0:0:
256,192,137271,1,8,0:0:0:0:
256,192,137325,1,8,0:0:0:0:
256,192,137378,1,0,0:0:0:0:
256,192,137432,1,0,0:0:0:0:
256,192,137486,1,8,0:0:0:0:
256,192,137539,1,8,0:0:0:0:
256,192,137593,1,0,0:0:0:0:
256,192,137700,1,0,0:0:0:0:
256,192,137807,1,8,0:0:0:0:
256,192,137861,1,8,0:0:0:0:
256,192,137914,1,0,0:0:0:0:
256,192,138021,1,4,0:0:0:0:
256,192,138128,1,0,0:0:0:0:
256,192,138236,1,8,0:0:0:0:
256,192,138343,1,0,0:0:0:0:
256,192,138396,1,0,0:0:0:0:
256,192,138450,1,8,0:0:0:0:
256,192,138664,1,0,0:0:0:0:
256,192,138771,1,8,0:0:0:0:
256,192,138878,1,0,0:0:0:0:
256,192,138932,1,0,0:0:0:0:
256,192,138986,1,0,0:0:0:0:
256,192,139039,1,0,0:0:0:0:
256,192,139093,1,8,0:0:0:0:
256,192,139200,1,8,0:0:0:0:
256,192,139307,1,0,0:0:0:0:
256,192,139414,1,0,0:0:0:0:
256,192,139468,1,0,0:0:0:0:
256,192,139521,1,8,0:0:0:0:
256,192,139628,1,8,0:0:0:0:
256,192,139736,1,0,0:0:0:0:
256,192,139843,1,8,0:0:0:0:
256,192,139896,1,8,0:0:0:0:
256,192,139950,1,8,0:0:0:0:
256,192,140057,1,0,0:0:0:0:
256,192,140164,1,8,0:0:0:0:
256,192,140218,1,8,0:0:0:0:
256,192,140271,1,0,0:0:0:0:
256,192,140325,1,0,0:0:0:0:
256,192,140378,1,8,0:0:0:0:
256,192,140432,1,0,0:0:0:0:
256,192,140486,1,0,0:0:0:0:
256,192,140539,1,0,0:0:0:0:
256,192,140593,1,8,0:0:0:0:
256,192,140700,1,0,0:0:0:0:
256,192,140807,1,8,0:0:0:0:
256,192,140861,1,8,0:0:0:0:
256,192,140914,1,0,0:0:0:0:
256,192,140968,1,0,0:0:0:0:
256,192,141021,1,8,0:0:0:0:
256,192,141128,1,0,0:0:0:0:
256,192,141182,1,0,0:0:0:0:
256,192,141236,1,8,0:0:0:0:
256,192,141343,1,0,0:0:0:0:
128,160,141450,5,0,0:0:0:0:
128,160,141503,1,2,0:0:0:0:
128,160,141557,1,0,0:0:0:0:
128,160,141611,1,0,0:0:0:0:
128,160,141664,1,2,0:0:0:0:
224,224,141771,1,2,0:0:0:0:
256,192,141825,1,2,0:0:0:0:
256,224,141878,1,0,0:0:0:0:
128,160,141932,1,2,0:0:0:0:
128,160,141986,1,0,0:0:0:0:
128,160,142039,1,0,0:0:0:0:
160,192,142093,1,2,0:0:0:0:
256,256,142200,1,0,0:0:0:0:
224,256,142253,1,0,0:0:0:0:
352,288,142307,1,2,0:0:0:0:
416,288,142361,1,2,0:0:0:0:
352,288,142414,1,0,0:0:0:0:
320,256,142468,1,0,0:0:0:0:
320,256,142521,1,2,0:0:0:0:
320,256,142575,1,2,0:0:0:0:
320,256,142628,1,0,0:0:0:0:
320,256,142682,1,0,0:0:0:0:
320,256,142736,1,2,0:0:0:0:
320,256,142789,1,2,0:0:0:0:
384,224,142843,1,2,0:0:0:0:
384,224,142896,1,2,0:0:0:0:
384,224,142950,1,0,0:0:0:0:
320,224,143003,1,0,0:0:0:0:
256,224,143057,1,2,0:0:0:0:
192,224,143111,1,2,0:0:0:0:
160,192,143164,1,0,0:0:0:0:
224,192,143218,1,0,0:0:0:0:
224,192,143271,1,2,0:0:0:0:
224,192,143325,1,0,0:0:0:0:
224,192,143378,1,2,0:0:0:0:
224,192,143486,1,0,0:0:0:0:
256,224,143539,1,2,0:0:0:0:
288,256,143593,1,0,0:0:0:0:
288,256,143646,1,0,0:0:0:0:
288,256,143700,1,2,0:0:0:0:
288,256,143753,1,0,0:0:0:0:
320,288,143807,1,2,0:0:0:0:
352,288,143914,1,0,0:0:0:0:
448,320,143968,1,0,0:0:0:0:
160,192,144021,1,2,0:0:0:0:
160,192,144075,1,2,0:0:0:0:
160,192,144128,1,0,0:0:0:0:
160,128,144182,1,0,0:0:0:0:
160,192,144236,1,2,0:0:0:0:
160,128,144289,1,2,0:0:0:0:
160,192,144343,1,0,0:0:0:0:
128,128,144396,1,0,0:0:0:0:
160,160,144450,1,2,0:0:0:0:
160,160,144503,1,2,0:0:0:0:
160,160,144557,1,2,0:0:0:0:
160,160,144611,1,2,0:0:0:0:
160,160,144664,1,0,0:0:0:0:
160,160,144718,1,0,0:0:0:0:
160,160,144771,1,2,0:0:0:0:
160,160,144825,1,2,0:0:0:0:
160,160,144878,1,0,0:0:0:0:
160,160,144932,1,0,0:0:0:0:
160,160,144986,1,0,0:0:0:0:
160,160,145039,1,2,0:0:0:0:
160,160,145093,1,0,0:0:0:0:
160,160,145146,1,0,0:0:0:0:
160,160,145200,1,2,0:0:0:0:
160,160,145253,1,0,0:0:0:0:
160,160,145307,1,0,0:0:0:0:
352,288,145361,1,2,0:0:0:0:
320,256,145414,1,2,0:0:0:0:
288,224,145468,1,0,0:0:0:0:
256,192,145521,1,2,0:0:0:0:
256,192,145575,1,2,0:0:0:0:
256,192,145628,1,2,0:0:0:0:
256,192,145682,1,2,0:0:0:0:
320,288,145736,1,0,0:0:0:0:
256,192,145789,1,0,0:0:0:0:
320,288,145843,1,0,0:0:0:0:
256,192,145896,1,0,0:0:0:0:
320,288,145950,1,2,0:0:0:0:
256,192,146003,1,0,0:0:0:0:
320,288,146057,1,0,0:0:0:0:
256,192,146111,1,0,0:0:0:0:
320,288,146164,1,2,0:0:0:0:
320,288,146218,1,2,0:0:0:0:
256,192,146271,1,2,0:0:0:0:
320,288,146325,1,2,0:0:0:0:
320,288,146378,1,2,0:0:0:0:
256,192,146432,1,2,0:0:0:0:
256,192,146486,1,2,0:0:0:0:
256,192,146539,1,2,0:0:0:0:
256,192,146593,1,2,0:0:0:0:
256,192,146646,1,2,0:0:0:0:
256,192,146700,1,2,0:0:0:0:
256,192,146753,1,2,0:0:0:0:
256,192,146807,1,2,0:0:0:0:
256,192,146861,1,2,0:0:0:0:
256,192,146914,1,2,0:0:0:0:
256,192,146968,1,2,0:0:0:0:
256,192,147021,1,2,0:0:0:0:
256,192,147075,1,2,0:0:0:0:
256,192,147128,1,2,0:0:0:0:
256,192,147182,1,2,0:0:0:0:
256,192,147236,1,2,0:0:0:0:
256,192,147289,1,2,0:0:0:0:
256,192,147343,1,2,0:0:0:0:
256,192,147396,1,2,0:0:0:0:
256,192,147450,1,2,0:0:0:0:
256,256,147503,1,2,0:0:0:0:
320,256,147557,1,2,0:0:0:0:
256,256,147611,1,2,0:0:0:0:
256,256,147664,1,2,0:0:0:0:
224,224,147718,1,2,0:0:0:0:
256,256,147771,1,2,0:0:0:0:
224,224,147825,1,2,0:0:0:0:
224,224,147878,1,2,0:0:0:0:
224,224,147932,1,2,0:0:0:0:
224,224,147986,1,2,0:0:0:0:
224,224,148039,1,2,0:0:0:0:
224,224,148093,1,2,0:0:0:0:
224,224,148146,1,2,0:0:0:0:
224,224,148200,1,2,0:0:0:0:
224,224,148253,1,2,0:0:0:0:
224,224,148307,1,2,0:0:0:0:
224,224,148361,1,2,0:0:0:0:
224,224,148414,5,2,0:0:0:0:
224,224,148468,1,2,0:0:0:0:
224,224,148521,1,2,0:0:0:0:
224,224,148575,1,2,0:0:0:0:
224,224,148628,1,2,0:0:0:0:
224,224,148682,1,2,0:0:0:0:
224,224,148736,1,2,0:0:0:0:
224,224,148789,1,2,0:0:0:0:
224,224,148843,1,2,0:0:0:0:
224,224,148896,1,2,0:0:0:0:
224,224,148950,1,2,0:0:0:0:
224,224,149003,1,2,0:0:0:0:
224,224,149057,1,2,0:0:0:0:
224,224,149111,1,2,0:0:0:0:
288,320,149164,1,0,0:0:0:0:
256,192,149593,5,8,0:0:0:0:
192,96,150021,2,0,L|352:96,6,140.000000596046
256,192,151736,1,4,0:0:0:0:
256,192,152164,1,8,0:0:0:0:
256,192,152593,1,0,0:0:0:0:
256,192,152646,1,0,0:0:0:0:
256,192,152700,1,8,0:0:0:0:
256,192,152753,1,8,0:0:0:0:
256,192,152807,1,0,0:0:0:0:
256,192,152914,1,8,0:0:0:0:
256,192,153021,1,0,0:0:0:0:
256,192,153075,1,0,0:0:0:0:
256,192,153128,1,8,0:0:0:0:
256,192,153182,1,0,0:0:0:0:
256,192,153236,1,0,0:0:0:0:
256,192,153343,1,0,0:0:0:0:
256,192,153396,1,0,0:0:0:0:
256,192,153450,1,8,0:0:0:0:
256,192,153557,1,0,0:0:0:0:
256,192,153664,1,8,0:0:0:0:
256,192,153718,1,8,0:0:0:0:
256,192,153771,1,0,0:0:0:0:
256,192,153878,1,0,0:0:0:0:
256,192,153932,1,0,0:0:0:0:
256,192,153986,1,8,0:0:0:0:
256,192,154093,1,8,0:0:0:0:
256,192,154200,1,0,0:0:0:0:
256,192,154307,1,8,0:0:0:0:
256,192,154361,1,0,0:0:0:0:
256,192,154414,1,8,0:0:0:0:
256,192,154468,1,8,0:0:0:0:
256,192,154521,1,0,0:0:0:0:
256,192,154575,1,0,0:0:0:0:
256,192,154628,1,8,0:0:0:0:
256,192,154736,1,0,0:0:0:0:
256,192,154843,1,8,0:0:0:0:
256,192,154950,1,0,0:0:0:0:
256,192,155164,1,8,0:0:0:0:
256,192,155218,1,0,0:0:0:0:
256,192,155271,1,0,0:0:0:0:
256,192,155325,1,0,0:0:0:0:
256,192,155378,1,8,0:0:0:0:
256,192,155486,1,0,0:0:0:0:
256,192,155593,1,8,0:0:0:0:
256,192,155646,1,8,0:0:0:0:
256,192,155700,1,0,0:0:0:0:
256,192,155807,1,0,0:0:0:0:
256,192,155861,1,0,0:0:0:0:
256,192,155914,1,8,0:0:0:0:
256,192,156021,1,8,0:0:0:0:
256,192,156128,1,8,0:0:0:0:
256,192,156236,1,0,0:0:0:0:
256,192,156289,1,0,0:0:0:0:
256,192,156343,1,0,0:0:0:0:
256,192,156396,1,0,0:0:0:0:
256,192,156450,1,8,0:0:0:0:
256,192,156557,1,8,0:0:0:0:
256,192,156664,1,0,0:0:0:0:
256,192,156878,1,0,0:0:0:0:
256,192,156932,1,0,0:0:0:0:
256,192,156986,1,0,0:0:0:0:
256,192,157093,1,8,0:0:0:0:
256,192,157200,1,0,0:0:0:0:
256,192,157307,1,0,0:0:0:0:
256,192,157361,1,0,0:0:0:0:
256,192,157414,1,0,0:0:0:0:
256,192,157521,1,8,0:0:0:0:
256,192,157628,1,0,0:0:0:0:
256,192,157736,1,8,0:0:0:0:
256,192,157789,1,8,0:0:0:0:
256,192,157843,1,0,0:0:0:0:
256,192,157896,1,0,0:0:0:0:
256,192,157950,1,8,0:0:0:0:
256,192,158057,1,0,0:0:0:0:
256,192,158164,1,8,0:0:0:0:
256,192,158218,1,8,0:0:0:0:
256,192,158271,1,0,0:0:0:0:
256,192,158325,1,8,0:0:0:0:
256,192,158378,1,0,0:0:0:0:
320,256,158593,5,0,0:0:0:0:
288,224,158646,5,0,0:0:0:0:
288,224,158700,1,0,0:0:0:0:
288,224,158753,1,0,0:0:0:0:
288,224,158807,1,2,0:0:0:0:
192,192,158914,1,0,0:0:0:0:
192,192,158968,1,0,0:0:0:0:
224,224,159021,1,2,0:0:0:0:
320,160,159128,1,2,0:0:0:0:
288,192,159182,1,2,0:0:0:0:
224,192,159236,1,0,0:0:0:0:
320,224,159343,1,2,0:0:0:0:
288,320,159450,1,0,0:0:0:0:
288,256,159503,1,0,0:0:0:0:
320,320,159557,1,0,0:0:0:0:
288,288,159611,1,0,0:0:0:0:
288,288,159664,1,2,0:0:0:0:
288,288,159718,1,0,0:0:0:0:
288,288,159771,1,0,0:0:0:0:
288,256,159825,1,0,0:0:0:0:
288,256,159878,1,2,0:0:0:0:
288,224,159986,1,2,0:0:0:0:
288,224,160039,1,2,0:0:0:0:
288,224,160093,1,0,0:0:0:0:
192,192,160200,1,0,0:0:0:0:
288,224,160307,1,0,0:0:0:0:
256,192,160361,1,0,0:0:0:0:
224,160,160414,1,0,0:0:0:0:
288,192,160468,1,0,0:0:0:0:
256,160,160521,1,2,0:0:0:0:
256,160,160628,1,2,0:0:0:0:
160,128,160736,1,0,0:0:0:0:
224,192,160789,1,0,0:0:0:0:
224,192,160843,1,2,0:0:0:0:
192,192,160896,1,2,0:0:0:0:
192,192,160950,1,0,0:0:0:0:
192,192,161057,1,0,0:0:0:0:
288,224,161164,1,0,0:0:0:0:
288,224,161218,1,0,0:0:0:0:
288,224,161271,1,2,0:0:0:0:
288,224,161325,1,2,0:0:0:0:
288,224,161378,1,0,0:0:0:0:
288,224,161432,1,0,0:0:0:0:
256,192,161486,1,2,0:0:0:0:
288,224,161539,1,2,0:0:0:0:
256,192,161593,1,0,0:0:0:0:
160,192,161700,1,0,0:0:0:0:
96,192,161753,1,0,0:0:0:0:
96,192,161807,1,2,0:0:0:0:
192,256,161914,1,0,0:0:0:0:
96,192,162021,1,0,0:0:0:0:
128,224,162075,1,0,0:0:0:0:
192,256,162128,1,0,0:0:0:0:
224,256,162182,1,0,0:0:0:0:
160,224,162236,1,2,0:0:0:0:
160,224,162289,1,2,0:0:0:0:
192,192,162343,1,2,0:0:0:0:
160,128,162396,1,2,0:0:0:0:
192,96,162450,1,0,0:0:0:0:
256,192,162557,1,0,0:0:0:0:
288,256,162611,1,0,0:0:0:0:
288,224,162664,1,2,0:0:0:0:
288,224,162771,1,2,0:0:0:0:
288,224,162878,1,0,0:0:0:0:
288,224,162932,1,0,0:0:0:0:
288,224,162986,1,0,0:0:0:0:
288,224,163039,1,0,0:0:0:0:
288,224,163093,1,2,0:0:0:0:
256,256,163146,1,2,0:0:0:0:
224,288,163200,1,0,0:0:0:0:
224,288,163253,1,0,0:0:0:0:
224,288,163307,1,2,0:0:0:0:
224,288,163361,1,2,0:0:0:0:
128,224,163414,1,2,0:0:0:0:
128,224,163468,1,2,0:0:0:0:
192,192,163521,1,0,0:0:0:0:
288,224,163628,1,2,0:0:0:0:
192,224,163736,1,0,0:0:0:0:
256,224,163789,1,0,0:0:0:0:
288,224,163843,1,2,0:0:0:0:
288,224,163896,1,2,0:0:0:0:
288,224,163950,1,0,0:0:0:0:
288,224,164003,1,0,0:0:0:0:
288,224,164057,1,2,0:0:0:0:
288,224,164111,1,2,0:0:0:0:
288,224,164164,1,0,0:0:0:0:
224,224,164218,1,0,0:0:0:0:
160,224,164271,5,0,0:0:0:0:
128,192,164325,1,0,0:0:0:0:
64,192,164378,1,2,0:0:0:0:
128,192,164432,1,2,0:0:0:0:
64,192,164486,1,2,0:0:0:0:
128,192,164539,1,2,0:0:0:0:
256,256,164593,1,0,0:0:0:0:
256,256,164646,1,0,0:0:0:0:
256,256,164700,1,0,0:0:0:0:
256,256,164753,1,2,0:0:0:0:
256,256,164807,1,2,0:0:0:0:
256,256,164861,1,2,0:0:0:0:
256,256,164914,1,0,0:0:0:0:
256,256,164968,1,0,0:0:0:0:
256,256,165021,1,2,0:0:0:0:
320,256,165075,1,2,0:0:0:0:
352,288,165128,1,2,0:0:0:0:
416,288,165182,1,0,0:0:0:0:
448,320,165236,1,2,0:0:0:0:
256,192,165450,5,8,0:0:0:0:
256,192,165664,1,0,0:0:0:0:
256,192,165771,1,0,0:0:0:0:
256,192,165878,1,8,0:0:0:0:
256,192,165986,1,8,0:0:0:0:
256,192,166093,1,0,0:0:0:0:
256,192,166307,1,0,0:0:0:0:
256,192,166521,1,8,0:0:0:0:
256,192,166628,1,0,0:0:0:0:
256,192,166736,1,0,0:0:0:0:
256,192,166843,1,8,0:0:0:0:
256,192,166950,1,0,0:0:0:0:
256,192,167164,1,0,0:0:0:0:
256,192,167378,1,0,0:0:0:0:
256,192,167486,1,0,0:0:0:0:
256,192,167593,1,8,0:0:0:0:
256,192,167700,1,8,0:0:0:0:
256,192,167807,1,0,0:0:0:0:
256,192,168021,1,0,0:0:0:0:
256,192,168236,1,0,0:0:0:0:
256,192,168343,1,0,0:0:0:0:
256,192,168450,1,8,0:0:0:0:
256,192,168557,1,0,0:0:0:0:
256,192,168664,1,0,0:0:0:0:
256,192,168878,1,0,0:0:0:0:
256,192,169093,1,0,0:0:0:0:
256,192,169200,1,0,0:0:0:0:
256,192,169307,1,8,0:0:0:0:
256,192,169521,1,0,0:0:0:0:
256,192,169736,1,0,0:0:0:0:
256,192,169843,1,0,0:0:0:0:
256,192,169950,1,8,0:0:0:0:
256,192,170057,1,0,0:0:0:0:
256,192,170164,1,0,0:0:0:0:
256,192,170271,1,0,0:0:0:0:
256,192,170378,1,8,0:0:0:0:
256,192,170486,1,8,0:0:0:0:
192,96,170593,2,8,L|352:96,7,140.000000596046
256,192,172307,12,8,173914,0:0:0:0:
256,192,174021,12,8,175628,0:0:0:0:
192,96,175736,6,8,L|352:96,7,140.000000596046
256,192,177343,1,0,0:0:0:0:
256,192,177450,1,8,0:0:0:0:
256,192,177557,1,0,0:0:0:0:
256,192,177664,1,0,0:0:0:0:
256,192,177771,1,8,0:0:0:0:
256,192,177878,1,0,0:0:0:0:
256,192,177932,1,0,0:0:0:0:
256,192,177986,1,8,0:0:0:0:
256,192,178093,1,0,0:0:0:0:
256,192,178200,1,8,0:0:0:0:
256,192,178307,1,8,0:0:0:0:
256,192,178361,1,8,0:0:0:0:
256,192,178414,1,8,0:0:0:0:
256,192,178468,1,8,0:0:0:0:
256,192,178521,1,0,0:0:0:0:
256,192,178575,1,0,0:0:0:0:
256,192,178628,1,0,0:0:0:0:
256,192,178682,1,0,0:0:0:0:
256,192,178736,1,8,0:0:0:0:
256,192,178843,1,0,0:0:0:0:
256,192,178950,1,8,0:0:0:0:
352,288,179164,5,0,0:0:0:0:
256,224,179271,1,0,0:0:0:0:
224,224,179378,1,2,0:0:0:0:
160,224,179432,1,2,0:0:0:0:
320,288,179486,1,0,0:0:0:0:
288,256,179593,1,2,0:0:0:0:
256,288,180021,1,0,0:0:0:0:
288,256,180075,1,0,0:0:0:0:
224,224,180128,1,0,0:0:0:0:
128,192,180236,1,2,0:0:0:0:
224,192,180343,1,0,0:0:0:0:
288,192,180396,1,0,0:0:0:0:
320,224,180450,1,2,0:0:0:0:
128,288,180878,1,0,0:0:0:0:
160,224,180986,1,0,0:0:0:0:
128,288,181039,1,0,0:0:0:0:
160,224,181093,1,2,0:0:0:0:
192,128,181200,1,0,0:0:0:0:
192,128,181307,1,0,0:0:0:0:
128,288,181361,1,0,0:0:0:0:
160,160,181414,1,0,0:0:0:0:
192,128,181468,1,0,0:0:0:0:
224,160,181521,1,2,0:0:0:0:
256,192,181575,1,2,0:0:0:0:
288,224,181628,1,2,0:0:0:0:
288,224,181736,1,0,0:0:0:0:
288,224,181789,1,0,0:0:0:0:
288,224,181843,1,0,0:0:0:0:
288,224,181950,1,2,0:0:0:0:
288,224,182057,1,0,0:0:0:0:
288,224,182111,1,0,0:0:0:0:
288,224,182164,1,2,0:0:0:0:
160,160,182593,1,2,0:0:0:0:
160,160,182700,1,2,0:0:0:0:
160,160,182753,1,2,0:0:0:0:
160,160,182807,1,0,0:0:0:0:
96,224,182914,1,2,0:0:0:0:
128,128,183021,1,0,0:0:0:0:
224,160,183128,1,0,0:0:0:0:
288,192,183182,1,0,0:0:0:0:
320,192,183236,1,2,0:0:0:0:
416,224,183343,1,0,0:0:0:0:
288,256,183450,1,0,0:0:0:0:
224,256,183503,1,0,0:0:0:0:
192,288,183557,1,0,0:0:0:0:
256,288,183611,1,0,0:0:0:0:
288,256,183664,1,2,0:0:0:0:
192,288,183771,1,2,0:0:0:0:
288,288,183878,1,0,0:0:0:0:
288,288,183932,1,0,0:0:0:0:
288,288,183986,1,0,0:0:0:0:
288,288,184039,1,0,0:0:0:0:
288,288,184093,1,0,0:0:0:0:
288,288,184146,1,0,0:0:0:0:
288,288,184200,1,0,0:0:0:0:
288,288,184253,1,0,0:0:0:0:
288,288,184307,1,2,0:0:0:0:
224,224,184414,1,2,0:0:0:0:
256,256,184468,1,2,0:0:0:0:
256,256,184521,1,0,0:0:0:0:
192,192,184628,1,2,0:0:0:0:
96,192,184736,1,0,0:0:0:0:
160,96,184843,1,0,0:0:0:0:
128,128,184896,1,0,0:0:0:0:
96,192,184950,1,2,0:0:0:0:
192,192,185057,1,0,0:0:0:0:
288,224,185164,1,0,0:0:0:0:
224,192,185218,1,2,0:0:0:0:
256,224,185271,1,0,0:0:0:0:
160,288,185378,1,2,0:0:0:0:
224,256,185432,1,2,0:0:0:0:
256,288,185486,1,0,0:0:0:0:
288,224,185593,1,2,0:0:0:0:
224,256,185646,1,2,0:0:0:0:
288,224,185700,1,0,0:0:0:0:
224,256,185753,1,0,0:0:0:0:
288,224,185807,1,2,0:0:0:0:
288,224,185914,1,2,0:0:0:0:
288,224,186021,1,0,0:0:0:0:
288,224,186075,1,0,0:0:0:0:
288,224,186128,1,0,0:0:0:0:
288,224,186182,1,0,0:0:0:0:
288,224,186236,1,2,0:0:0:0:
288,224,186343,1,0,0:0:0:0:
288,224,186396,1,0,0:0:0:0:
288,224,186450,1,2,0:0:0:0:
192,160,186557,1,0,0:0:0:0:
96,128,186611,1,0,0:0:0:0:
192,160,186664,1,2,0:0:0:0:
256,192,186771,1,0,0:0:0:0:
160,160,186878,1,0,0:0:0:0:
96,160,186932,1,0,0:0:0:0:
32,160,186986,1,0,0:0:0:0:
64,128,187039,1,0,0:0:0:0:
64,128,187093,1,2,0:0:0:0:
64,128,187146,1,0,0:0:0:0:
64,128,187200,1,0,0:0:0:0:
64,128,187253,1,0,0:0:0:0:
64,128,187307,1,2,0:0:0:0:
288,224,187414,1,0,0:0:0:0:
288,224,187468,1,0,0:0:0:0:
288,224,187521,1,2,0:0:0:0:
288,224,187628,1,0,0:0:0:0:
256,320,187736,1,0,0:0:0:0:
288,288,187789,1,0,0:0:0:0:
320,224,187843,1,0,0:0:0:0:
256,320,187950,1,2,0:0:0:0:
288,288,188003,1,2,0:0:0:0:
320,224,188057,1,2,0:0:0:0:
224,160,188164,1,0,0:0:0:0:
320,224,188271,1,0,0:0:0:0:
288,192,188325,1,0,0:0:0:0:
320,224,188378,1,2,0:0:0:0:
224,160,188486,1,0,0:0:0:0:
320,224,188593,1,0,0:0:0:0:
288,192,188646,1,0,0:0:0:0:
320,224,188700,1,0,0:0:0:0:
288,192,188753,1,0,0:0:0:0:
320,224,188807,1,2,0:0:0:0:
224,192,188914,1,0,0:0:0:0:
256,224,188968,1,0,0:0:0:0:
288,224,189021,1,2,0:0:0:0:
288,224,189128,1,0,0:0:0:0:
288,224,189182,1,0,0:0:0:0:
224,224,189235,1,2,0:0:0:0:
288,224,189343,1,0,0:0:0:0:
192,192,189450,1,0,0:0:0:0:
256,192,189503,1,0,0:0:0:0:
256,256,189557,1,0,0:0:0:0:
224,224,189611,1,0,0:0:0:0:
192,192,189664,1,2,0:0:0:0:
256,256,189771,1,2,0:0:0:0:
288,192,189825,1,2,0:0:0:0:
288,224,189878,1,0,0:0:0:0:
224,224,189932,1,2,0:0:0:0:
192,192,189986,1,0,0:0:0:0:
224,224,190039,1,0,0:0:0:0:
224,224,190093,1,2,0:0:0:0:
256,256,190146,1,2,0:0:0:0:
256,256,190200,1,2,0:0:0:0:
224,224,190253,1,2,0:0:0:0:
224,224,190307,1,0,0:0:0:0:
288,256,190414,1,2,0:0:0:0:
352,288,190468,1,2,0:0:0:0:
288,288,190521,1,0,0:0:0:0:
224,224,190628,1,2,0:0:0:0:
224,224,190736,1,2,0:0:0:0:
224,224,190789,1,2,0:0:0:0:
288,192,190843,1,0,0:0:0:0:
224,224,190896,1,0,0:0:0:0:
288,192,190950,1,2,0:0:0:0:
224,224,191057,1,2,0:0:0:0:
160,256,191164,1,0,0:0:0:0:
224,224,191218,1,0,0:0:0:0:
224,224,191271,1,2,0:0:0:0:
224,224,191325,1,2,0:0:0:0:
288,192,191378,1,0,0:0:0:0:
224,224,191432,1,0,0:0:0:0:
288,192,191486,1,2,0:0:0:0:
224,224,191539,1,2,0:0:0:0:
288,192,191593,1,0,0:0:0:0:
224,224,191646,1,0,0:0:0:0:
288,192,191700,5,0,0:0:0:0:
224,224,191753,1,0,0:0:0:0:
288,192,191807,1,2,0:0:0:0:
224,224,191861,1,2,0:0:0:0:
288,224,191914,1,2,0:0:0:0:
224,224,191968,1,2,0:0:0:0:
288,224,192021,1,0,0:0:0:0:
224,224,192075,1,0,0:0:0:0:
288,224,192128,1,0,0:0:0:0:
320,192,192182,1,2,0:0:0:0:
224,224,192236,1,0,0:0:0:0:
224,224,192290,1,0,0:0:0:0:
224,224,192343,1,0,0:0:0:0:
224,224,192398,1,0,0:0:0:0:
224,224,192450,1,2,0:0:0:0:
256,192,192878,5,0,0:0:0:0:
256,192,192986,1,0,0:0:0:0:
256,192,193093,1,0,0:0:0:0:
256,192,193200,1,0,0:0:0:0:
256,192,193307,1,8,0:0:0:0:
256,192,193521,1,0,0:0:0:0:
256,192,193736,1,0,0:0:0:0:
256,192,193843,1,0,0:0:0:0:
256,192,193950,1,0,0:0:0:0:
256,192,194003,1,0,0:0:0:0:
256,192,194057,1,0,0:0:0:0:
256,192,194164,1,8,0:0:0:0:
256,192,194378,1,0,0:0:0:0:
256,192,194593,1,8,0:0:0:0:
256,192,194646,1,8,0:0:0:0:
256,192,194700,1,0,0:0:0:0:
256,192,194807,1,8,0:0:0:0:
256,192,194914,1,0,0:0:0:0:
256,192,195021,1,8,0:0:0:0:
256,192,195128,1,0,0:0:0:0:
256,192,195236,1,0,0:0:0:0:
256,192,195343,1,0,0:0:0:0:
256,192,195396,1,0,0:0:0:0:
256,192,195450,1,8,0:0:0:0:
256,192,195557,1,8,0:0:0:0:
256,192,195664,1,0,0:0:0:0:
256,192,195771,1,0,0:0:0:0:
256,192,195825,1,0,0:0:0:0:
256,192,195878,1,8,0:0:0:0:
256,192,196307,1,8,0:0:0:0:
256,192,196361,1,8,0:0:0:0:
256,192,196414,1,0,0:0:0:0:
256,192,196521,1,0,0:0:0:0:
256,192,196628,1,8,0:0:0:0:
256,192,196736,1,0,0:0:0:0:
256,192,197164,1,0,0:0:0:0:
256,192,197218,1,0,0:0:0:0:
256,192,197271,1,0,0:0:0:0:
256,192,197378,1,0,0:0:0:0:
256,192,197486,1,8,0:0:0:0:
256,192,197593,1,0,0:0:0:0:
256,192,198021,1,0,0:0:0:0:
256,192,198128,1,0,0:0:0:0:
256,192,198236,1,8,0:0:0:0:
256,192,198343,1,0,0:0:0:0:
256,192,198450,1,8,0:0:0:0:
256,192,198557,1,8,0:0:0:0:
256,192,198664,1,0,0:0:0:0:
256,192,198771,1,8,0:0:0:0:
256,192,198878,1,8,0:0:0:0:
256,192,198986,1,0,0:0:0:0:
256,192,199093,1,0,0:0:0:0:
256,192,199200,1,0,0:0:0:0:
256,192,199307,1,8,0:0:0:0:
256,192,199736,1,0,0:0:0:0:
256,192,199843,1,0,0:0:0:0:
256,192,199950,1,8,0:0:0:0:
256,192,200057,1,8,0:0:0:0:
256,192,200164,1,0,0:0:0:0:
256,192,200593,1,0,0:0:0:0:
256,192,200700,1,0,0:0:0:0:
256,192,200807,1,0,0:0:0:0:
256,192,200914,1,0,0:0:0:0:
256,192,201021,1,8,0:0:0:0:
256,192,201450,1,0,0:0:0:0:
256,192,201557,1,0,0:0:0:0:
256,192,201664,1,8,0:0:0:0:
256,192,201771,1,8,0:0:0:0:
256,192,201878,1,0,0:0:0:0:
256,192,201986,1,8,0:0:0:0:
256,192,202093,1,0,0:0:0:0:
256,192,202307,1,0,0:0:0:0:
256,192,202414,1,0,0:0:0:0:
256,192,202521,1,0,0:0:0:0:
256,192,202628,1,0,0:0:0:0:
256,192,202736,1,8,0:0:0:0:
256,192,203164,1,0,0:0:0:0:
256,192,203271,1,0,0:0:0:0:
256,192,203378,1,8,0:0:0:0:
256,192,203593,1,8,0:0:0:0:
256,192,204021,1,0,0:0:0:0:
256,192,204128,1,0,0:0:0:0:
256,192,204236,1,8,0:0:0:0:
256,192,204343,1,8,0:0:0:0:
256,192,204450,1,0,0:0:0:0:
256,192,204878,1,0,0:0:0:0:
256,192,204986,1,8,0:0:0:0:
256,192,205093,1,0,0:0:0:0:
256,192,205307,1,8,0:0:0:0:
256,192,205521,1,0,0:0:0:0:
256,192,205628,1,8,0:0:0:0:
256,192,205736,1,0,0:0:0:0:
256,192,205843,1,0,0:0:0:0:
256,192,205950,1,8,0:0:0:0:
256,192,206057,1,8,0:0:0:0:
256,192,206164,1,0,0:0:0:0:
256,192,206271,1,0,0:0:0:0:
