osu file format v14

[General]
AudioFilename: lkj.mp3
AudioLeadIn: 0
PreviewTime: 89684
Countdown: 0
SampleSet: Soft
StackLeniency: 0.7
Mode: 0
LetterboxInBreaks: 0
WidescreenStoryboard: 1

[Editor]
DistanceSpacing: 1
BeatDivisor: 4
GridSize: 4
TimelineZoom: 1

[Metadata]
Title:you(Vocal)
TitleUnicode:you(Vocal)
Artist:Yuzuki
ArtistUnicode:癒月
Creator:EvilElvis
Version:Elementary
Source:ひぐらしのなく頃に解
Tags:dear -kevincela- ryuu Seikatu DexFrild Higurashi no Naku Koro ni dai M.Graveyard 07th Expansion
BeatmapID:731866
BeatmapSetID:308465

[Difficulty]
HPDrainRate:2
CircleSize:3
OverallDifficulty:1
ApproachRate:3
SliderMultiplier:1
SliderTickRate:1

[Events]
//Background and Video events
0,0,"bghz.jpg",0,0
//Break Periods
//Storyboard Layer 0 (Background)
//Storyboard Layer 1 (Fail)
//Storyboard Layer 2 (Pass)
//Storyboard Layer 3 (Foreground)
//Storyboard Sound Samples

[TimingPoints]
1409,689.655172413793,4,2,1,40,1,0
34512,-100,4,2,1,40,0,0
56581,-100,4,2,1,50,0,1
56926,-100,4,2,1,40,0,0
62098,-100,4,2,1,50,0,1
62443,-100,4,2,1,40,0,0
67615,-100,4,2,1,50,0,1
67960,-100,4,2,1,40,0,0
73133,-100,4,2,1,50,0,1
73477,-100,4,2,1,40,0,0
87615,-100,4,2,1,20,0,0
88305,-100,4,2,1,25,0,0
88995,-100,4,2,1,30,0,0
89684,-100,4,2,1,50,0,1
111064,-100,4,2,1,30,0,0
115891,-100,4,2,1,20,0,0
116581,-100,4,2,1,25,0,0
117271,-100,4,2,1,30,0,0
126926,-100,4,2,1,20,0,0
127615,-100,4,2,1,25,0,0
128305,-100,4,2,1,30,0,0
154512,-100,4,2,1,20,0,0
155202,-100,4,2,1,30,0,0
155891,-100,4,2,1,50,0,1
177960,-100,4,2,1,30,0,0
198650,-100,4,2,1,50,0,1
199340,-100,4,2,1,30,0,0

[Colours]
Combo1 : 100,100,255
Combo2 : 150,45,255

[HitObjects]
16,232,34512,6,0,P|88:300|188:268,1,200,2|2,0:0|0:0,0:0:0:0:
256,212,36581,1,2,0:0:0:0:
333,277,37271,2,0,P|427:299|496:232,1,200,2|2,0:0|0:0,0:0:0:0:
476,132,39340,1,0,0:0:0:0:
443,35,40029,6,0,P|376:103|400:200,1,200,2|2,0:0|0:0,0:0:0:0:
468,268,42098,1,2,0:0:0:0:
376,312,42788,2,0,B|304:320|304:320|256:296|256:296|164:304,1,200,2|2,0:0|0:0,0:0:0:0:
182,302,45546,6,0,L|192:80,1,200,2|2,0:0|0:0,0:0:0:0:
272,40,47615,1,2,0:0:0:0:
332,120,48305,2,0,P|424:148|500:68,1,200,2|2,0:0|0:0,0:0:0:0:
404,48,50374,1,2,0:0:0:0:
332,120,51064,6,0,L|336:224,1,100,2|0,0:0|0:0,0:0:0:0:
312,316,52443,2,0,P|336:320|416:280,1,100,2|2,0:0|0:0,0:0:0:0:
336,220,53822,2,0,P|240:248|220:352,1,200,2|2,0:0|0:0,0:0:0:0:
215,336,56581,5,4,0:3:0:0:
168,352,56926,2,0,P|116:340|80:296,1,100,2|0,0:0|0:0,0:0:0:0:
76,256,57960,2,0,P|98:212|141:187,1,100,2|2,0:0|0:0,0:0:0:0:
236,220,59340,2,0,P|324:236|400:152,1,200,2|2,0:0|0:0,0:0:0:0:
300,136,61408,1,2,0:0:0:0:
204,112,62098,6,0,L|152:120,2,50,4|0|2,0:3|0:0|0:0,0:0:0:0:
300,136,63477,2,0,B|336:156|360:144|372:136|384:128|408:116|444:136,1,150,2|0,0:0|0:0,0:0:0:0:
472,176,64857,6,0,P|480:220|464:284,1,100,2|2,0:0|0:0,0:0:0:0:
380,316,66236,2,0,L|276:312,1,100,2|2,0:0|0:0,0:0:0:0:
196,256,67615,5,4,0:3:0:0:
148,272,67960,2,0,P|104:276|48:252,1,100,2|0,0:0|0:0,0:0:0:0:
24,212,68995,2,0,P|8:157|20:104,1,100,2|2,0:0|0:0,0:0:0:0:
100,60,70374,2,0,P|168:116|276:88,1,200,2|2,0:0|0:0,0:0:0:0:
352,32,72443,1,2,0:0:0:0:
432,88,73133,5,4,0:3:0:0:
448,136,73477,2,0,P|456:184|440:240,1,100,0|0,0:0|0:0,0:0:0:0:
408,268,74512,2,0,L|308:276,1,100,2|2,0:0|0:0,0:0:0:0:
228,332,75891,1,2,0:0:0:0:
128,312,76581,1,2,0:0:0:0:
32,288,77271,1,4,0:3:0:0:
172,144,78650,5,0,0:0:0:0:
228,332,80029,1,0,0:0:0:0:
372,192,81409,2,0,P|420:176|480:192,1,100,0|0,0:0|0:0,0:0:0:0:
428,276,82788,2,0,P|380:292|320:276,1,100,0|0,0:0|0:0,0:0:0:0:
264,212,84167,5,0,0:0:0:0:
92,312,85546,1,0,0:0:0:0:
40,120,86926,1,0,0:0:0:0:
132,84,87615,1,4,0:0:0:0:
220,136,88305,2,0,P|267:140|324:124,1,100,4|4,0:0|0:0,0:0:0:0:
412,92,89684,6,0,B|408:168|408:168|432:212|432:212|428:300,1,200,4|4,0:3|0:0,0:0:0:0:
348,344,91753,1,0,1:0:0:0:
276,276,92443,2,0,P|216:264|168:280,1,100,4|0,0:3|1:0,0:0:0:0:
100,332,93822,2,0,P|51:342|3:329,1,100,4|4,0:0|0:0,0:0:0:0:
56,244,95202,6,0,B|64:148|64:148|32:96|60:40,1,200,4|4,0:3|0:0,0:0:0:0:
148,92,97271,1,0,1:0:0:0:
240,48,97960,2,0,B|316:48|316:48|360:64|360:64|452:64,1,200,4|4,0:3|0:0,0:0:0:0:
504,140,100029,1,2,0:0:0:0:
468,232,100719,6,0,P|412:280|280:260,1,200,4|4,0:3|0:3,0:0:0:0:
212,212,102788,1,0,1:0:0:0:
228,112,103477,2,0,P|280:136|308:184,1,100,4|0,0:3|1:0,0:0:0:0:
212,212,104857,2,0,L|92:208,1,100,4|4,0:3|0:3,0:0:0:0:
56,292,106236,6,0,L|268:300,1,200,4|4,0:3|0:3,0:0:0:0:
348,340,108305,1,0,1:0:0:0:
440,300,108995,2,0,P|480:224|416:132,1,200,4|4,0:3|0:3,0:0:0:0:
232,76,111753,5,2,0:0:0:0:
148,132,112443,2,0,P|96:144|36:128,1,100,2|2,0:0|0:0,0:0:0:0:
4,120,113477,2,0,L|8:240,1,100,2|2,0:0|0:0,0:0:0:0:
40,256,114512,5,2,0:0:0:0:
132,296,115202,1,2,0:0:0:0:
220,252,115891,2,0,P|268:244|328:256,1,100,4|4,0:0|0:0,0:0:0:0:
408,300,117271,6,0,P|416:224|320:152,1,200,2|2,0:0|0:0,0:0:0:0:
318,252,119340,1,0,0:0:0:0:
408,300,120029,6,0,L|508:296,1,100,2|2,0:0|0:0,0:0:0:0:
504,196,121408,2,0,L|404:200,1,100,2|2,0:0|0:0,0:0:0:0:
318,252,122788,5,2,0:0:0:0:
272,272,123133,2,0,P|220:280|164:256,1,100,2|2,0:0|0:0,0:0:0:0:
144,224,124167,2,0,P|128:176|136:124,1,100,2|0,0:0|0:0,0:0:0:0:
200,52,125546,5,2,0:0:0:0:
288,100,126236,1,2,0:0:0:0:
376,148,126926,2,0,L|492:140,1,100,4|4,0:0|0:0,0:0:0:0:
512,236,128305,6,0,L|300:248,1,200,2|2,0:0|0:0,0:0:0:0:
216,280,130374,1,0,0:0:0:0:
144,348,131064,2,0,P|116:288|192:184,1,200,2|2,0:0|0:0,0:0:0:0:
384,164,133822,6,0,L|452:168,2,50,2|0|2,0:0|0:0|0:0,0:0:0:0:
300,108,135202,1,4,0:0:0:0:
292,208,135891,1,2,0:0:0:0:
208,152,136581,2,0,B|159:138|135:156|114:173|93:190|69:208|20:195,1,200,2|4,0:0|0:3,0:0:0:0:
44,96,138650,1,0,0:0:0:0:
112,172,139340,6,0,P|124:224|112:284,1,100,2|2,0:0|0:0,0:0:0:0:
56,348,140719,1,4,0:0:0:0:
104,364,141064,2,0,L|216:356,1,100,2|0,0:0|0:0,0:0:0:0:
248,336,142098,6,0,P|292:352|347:343,2,100,2|2|4,0:0|0:0|0:3,0:0:0:0:
304,252,144167,1,0,0:0:0:0:
356,164,144857,6,0,P|388:196|408:256,1,100,2|2,0:0|0:0,0:0:0:0:
304,252,146236,2,0,L|188:248,1,100,4|2,0:0|0:0,0:0:0:0:
128,312,147615,1,4,0:0:0:0:
32,284,148305,1,2,0:0:0:0:
104,216,148995,1,4,0:3:0:0:
272,332,150374,5,4,0:3:0:0:
384,164,151753,1,2,0:0:0:0:
212,64,153133,5,4,0:3:0:0:
148,140,153822,1,0,0:0:0:0:
80,212,154512,2,0,L|88:324,1,100,0|0,1:0|1:0,0:0:0:0:
176,356,155891,6,0,P|224:360|288:336,1,100,12|8,1:3|1:3,0:0:0:0:
312,316,156926,1,2,0:0:0:0:
356,292,157271,2,0,P|405:288|453:302,1,100,4|8,0:3|1:3,0:0:0:0:
500,216,158650,6,0,L|492:112,1,100,4|8,0:3|1:3,0:0:0:0:
412,56,160029,2,0,L|408:4,2,50,4|4|12,0:3|0:0|1:3,0:0:0:0:
328,108,161408,6,0,L|216:104,1,100,4|8,0:3|1:3,0:0:0:0:
180,124,162443,1,4,0:3:0:0:
132,140,162788,2,0,L|20:136,1,100,4|8,0:3|1:3,0:0:0:0:
60,232,164167,6,0,L|172:236,1,100,4|8,0:3|1:3,0:0:0:0:
256,264,165546,1,4,0:3:0:0:
180,332,166236,1,12,1:3:0:0:
159,235,166926,6,0,P|160:184|179:135,1,100,4|8,1:0|1:3,0:0:0:0:
268,96,168305,2,0,L|376:88,1,100,4|8,0:3|1:3,0:0:0:0:
416,104,169340,1,4,0:3:0:0:
448,140,169684,6,0,P|460:180|456:240,1,100,4|8,0:3|1:3,0:0:0:0:
396,320,171064,2,0,L|400:380,2,50,4|4|12,3:0|0:0|1:3,0:0:0:0:
316,260,172443,6,0,L|200:256,1,100,4|8,0:3|1:3,0:0:0:0:
172,232,173477,1,2,0:0:0:0:
144,192,173822,2,0,P|136:140|156:84,1,100,4|8,0:3|1:3,0:0:0:0:
240,52,175202,6,0,P|248:104|228:160,1,100,4|8,0:3|1:3,0:0:0:0:
149,95,176581,2,0,L|41:87,1,100,4|4,0:3|0:3,0:0:0:0:
26,176,177960,6,0,P|26:224|42:280,1,100,4|8,1:0|1:3,0:0:0:0:
74,312,178995,1,2,0:0:0:0:
122,332,179340,2,0,L|238:324,1,100,0|12,1:0|1:3,0:0:0:0:
321,337,180719,5,4,0:3:0:0:
275,248,181408,1,8,1:3:0:0:
365,205,182098,1,4,0:3:0:0:
417,289,182788,1,8,0:3:0:0:
354,366,183477,6,0,L|244:355,1,100,4|8,1:0|1:3,0:0:0:0:
222,317,184512,1,2,0:0:0:0:
207,269,184857,2,0,P|199:225|219:161,1,100,0|12,1:0|0:3,0:0:0:0:
281,99,186236,5,4,0:3:0:0:
319,191,186926,1,8,1:3:0:0:
380,112,187615,2,0,L|372:12,1,100,4|4,0:3|0:0,0:0:0:0:
464,40,188995,6,0,L|472:140,1,100,4|8,1:0|1:3,0:0:0:0:
456,188,190029,1,2,0:0:0:0:
440,236,190374,2,0,L|448:336,1,100,0|12,1:0|0:3,0:0:0:0:
352,360,191753,5,4,0:3:0:0:
256,328,192443,1,8,1:3:0:0:
160,360,193133,1,4,0:3:0:0:
180,264,193822,1,8,0:3:0:0:
256,328,194512,6,0,P|308:336|360:316,1,100,4|8,1:0|1:3,0:0:0:0:
388,288,195546,1,2,0:0:0:0:
408,244,195891,2,0,P|404:191|372:145,1,100,0|12,1:0|0:3,0:0:0:0:
284,116,197271,5,4,0:3:0:0:
184,136,197960,1,8,0:3:0:0:
84,156,198650,2,0,L|92:264,1,100,4|2,0:3|0:0,0:0:0:0:
