osu file format v14

[General]
AudioFilename: lkj.mp3
AudioLeadIn: 0
PreviewTime: 89684
Countdown: 0
SampleSet: Soft
StackLeniency: 0.7
Mode: 0
LetterboxInBreaks: 0
WidescreenStoryboard: 1

[Editor]
DistanceSpacing: 2
BeatDivisor: 4
GridSize: 4
TimelineZoom: 1

[Metadata]
Title:you(Vocal)
TitleUnicode:you(Vocal)
Artist:Yuzuki
ArtistUnicode:癒月
Creator:EvilElvis
Version:Average
Source:ひぐらしのなく頃に解
Tags:dear -kevincela- ryuu Seikatu DexFrild Higurashi no Naku Koro ni dai M.Graveyard 07th Expansion
BeatmapID:810839
BeatmapSetID:308465

[Difficulty]
HPDrainRate:5
CircleSize:3.3
OverallDifficulty:5
ApproachRate:6
SliderMultiplier:1.1
SliderTickRate:1

[Events]
//Background and Video events
0,0,"bghz.jpg",0,0
//Break Periods
//Storyboard Layer 0 (Background)
//Storyboard Layer 1 (Fail)
//Storyboard Layer 2 (Pass)
//Storyboard Layer 3 (Foreground)
//Storyboard Sound Samples

[TimingPoints]
1409,689.655172413793,4,2,1,40,1,0
34512,-100,4,2,1,40,0,0
56581,-100,4,2,1,60,0,1
56926,-100,4,2,1,40,0,0
62098,-100,4,2,1,60,0,1
62443,-100,4,2,1,40,0,0
67615,-100,4,2,1,60,0,1
67960,-100,4,2,1,40,0,0
73133,-100,4,2,1,60,0,1
73477,-100,4,2,1,40,0,0
78650,-133.333333333333,4,2,1,40,0,0
87615,-133.333333333333,4,2,1,20,0,0
88305,-133.333333333333,4,2,1,25,0,0
89684,-76.9230769230769,4,2,1,70,0,1
89857,-76.9230769230769,4,2,1,50,0,1
95202,-76.9230769230769,4,2,1,70,0,1
95374,-76.9230769230769,4,2,1,50,0,1
96581,-76.9230769230769,4,2,1,70,0,1
96753,-76.9230769230769,4,2,1,50,0,1
100719,-76.9230769230769,4,2,1,70,0,1
100891,-76.9230769230769,4,2,1,50,0,1
106236,-76.9230769230769,4,2,1,70,0,1
106408,-76.9230769230769,4,2,1,50,0,1
111064,-100,4,2,1,30,0,0
111408,-100,4,2,1,40,0,0
115891,-100,4,2,1,20,0,0
116581,-100,4,2,1,25,0,0
117271,-100,4,2,1,40,0,0
121408,-100,4,2,1,40,0,0
122788,-100,4,2,1,40,0,0
126926,-100,4,2,1,20,0,0
127615,-100,4,2,1,25,0,0
128305,-100,4,2,1,40,0,0
154512,-100,4,2,1,20,0,0
155202,-100,4,2,1,40,0,0
155891,-76.9230769230769,4,2,1,80,0,1
156236,-76.9230769230769,4,2,1,40,0,1
156581,-76.9230769230769,4,2,1,60,0,1
166926,-76.9230769230769,4,2,1,80,0,1
167098,-76.9230769230769,4,2,1,60,0,1
177960,-100,4,2,1,60,0,0
198650,-100,4,2,1,80,0,1
199340,-100,4,2,1,60,0,0

[Colours]
Combo1 : 100,100,255
Combo2 : 150,45,255

[HitObjects]
140,120,34512,6,0,L|228:116,1,82.5,2|0,0:0|0:0,0:0:0:0:
264,84,35202,2,0,L|268:36,2,27.5,0|0|0,0:0|0:0|0:0,0:0:0:0:
192,200,35891,2,0,L|128:204,1,55,2|2,0:0|0:0,0:0:0:0:
264,268,36581,2,0,L|318:264,1,55,2|0,0:0|0:0,0:0:0:0:
473,180,37271,6,0,L|384:184,1,82.5,2|0,0:0|0:0,0:0:0:0:
348,148,37960,2,0,L|296:150,2,27.5,0|0|0,0:0|0:0|0:0,0:0:0:0:
256,212,38650,1,2,0:0:0:0:
144,208,38995,1,2,0:0:0:0:
64,132,39340,1,0,0:0:0:0:
212,324,40029,6,0,P|216:280|208:240,1,82.5,2|2,0:0|0:0,0:0:0:0:
256,212,40719,2,0,L|296:204,2,27.5,0|0|2,0:0|0:0|0:0,0:0:0:0:
172,140,41409,2,0,P|164:108|172:68,1,55,2|2,0:0|0:0,0:0:0:0:
256,24,42098,2,0,L|284:28,1,27.5,2|0,0:0|0:0,0:0:0:0:
328,60,42443,1,0,0:0:0:0:
432,208,42788,6,0,L|424:336,2,110,2|0|2,0:0|0:0|0:0,0:0:0:0:
340,203,44512,2,0,L|336:148,1,55,2|2,0:0|0:0,0:0:0:0:
180,304,45546,6,0,P|140:312|96:304,1,82.5,2|0,0:0|0:0,0:0:0:0:
64,264,46236,2,0,P|49:262|32:264,2,27.5,0|0|2,0:0|0:0|0:0,0:0:0:0:
128,172,46926,2,0,L|124:104,1,55,2|2,0:0|0:0,0:0:0:0:
264,88,47615,5,2,0:0:0:0:
364,136,47960,1,0,0:0:0:0:
472,120,48305,1,2,0:0:0:0:
400,328,48995,6,0,P|392:300|396:264,1,55,0|0,0:0|0:0,0:0:0:0:
292,232,49684,2,0,L|224:228,2,55,2|2|2,0:0|0:0|0:0,0:0:0:0:
424,52,51064,6,0,P|412:88|417:134,1,82.5,2|0,0:0|0:0,0:0:0:0:
448,176,51753,2,0,P|450:196|448:220,2,27.5,0|0|2,0:0|0:0|0:0,0:0:0:0:
344,212,52443,1,2,0:0:0:0:
244,168,52788,1,0,0:0:0:0:
136,196,53133,2,0,L|92:192,2,27.5,2|0|2,0:0|0:0|0:0,0:0:0:0:
216,332,53822,6,0,P|224:292|216:252,1,82.5,2|0,0:0|0:0,0:0:0:0:
256,212,54512,2,0,L|300:208,1,27.5,2|0,0:0|0:0,0:0:0:0:
403,154,55029,2,0,L|376:152,1,27.5,0|2,0:0|0:0,0:0:0:0:
76,324,56236,6,0,L|72:288,1,27.5,0|0,0:0|0:0,0:0:0:0:
100,248,56581,1,4,0:3:0:0:
100,248,56926,1,2,0:0:0:0:
312,300,57615,5,0,0:0:0:0:
396,232,57960,2,0,L|400:104,1,110,2|2,0:0|0:0,0:0:0:0:
272,40,58995,1,0,0:0:0:0:
272,40,59340,6,0,L|276:160,1,110,2|2,0:0|0:0,0:0:0:0:
188,220,60374,1,0,0:0:0:0:
288,264,60719,1,2,0:0:0:0:
384,208,61064,2,0,L|444:204,1,55,2|2,0:0|0:0,0:0:0:0:
336,64,61753,6,0,L|288:60,1,27.5,0|0,0:0|0:0,0:0:0:0:
256,76,62098,1,4,0:3:0:0:
256,76,62443,1,0,0:0:0:0:
167,198,62788,6,0,P|171:171|168:144,1,55,2|2,0:0|0:0,0:0:0:0:
76,80,63477,1,2,0:0:0:0:
76,80,63822,2,0,L|152:76,1,55,0|2,0:0|0:0,0:0:0:0:
228,128,64512,5,0,0:0:0:0:
336,156,64857,1,2,0:0:0:0:
444,128,65202,1,2,0:0:0:0:
364,52,65546,5,2,0:0:0:0:
336,156,65891,1,2,0:0:0:0:
392,252,66236,1,2,0:0:0:0:
336,344,66581,2,0,L|256:340,1,55,0|2,0:0|0:0,0:0:0:0:
96,224,67615,5,4,0:3:0:0:
96,224,67960,1,2,0:0:0:0:
312,256,68650,5,0,0:0:0:0:
252,164,68995,2,0,P|244:112|256:44,1,110,2|2,0:0|0:0,0:0:0:0:
360,32,70029,1,2,0:0:0:0:
436,112,70374,2,0,L|500:108,2,55,2|0|2,0:0|0:0|0:0,0:0:0:0:
364,196,71409,1,0,0:0:0:0:
260,160,71753,1,2,0:0:0:0:
260,160,72098,2,0,L|184:156,1,55,2|2,0:0|0:0,0:0:0:0:
356,304,73133,5,4,0:3:0:0:
356,304,73477,1,0,0:0:0:0:
140,336,74167,5,0,0:0:0:0:
80,244,74512,2,0,L|76:172,1,55,2|0,0:0|0:0,0:0:0:0:
171,73,75202,2,0,L|168:128,1,55,2|0,0:0|0:0,0:0:0:0:
260,192,75891,1,2,0:0:0:0:
368,176,76236,1,0,0:0:0:0:
440,92,76581,2,0,L|436:20,2,55,2|2|4,0:0|0:0|0:3,0:0:0:0:
172,284,78305,5,0,0:0:0:0:
92,308,78650,2,0,L|36:304,1,41.2500015735627,0|2,0:0|0:0,0:0:0:0:
332,224,79684,5,0,0:0:0:0:
412,248,80029,2,0,L|468:244,1,41.2500015735627,0|2,0:0|0:0,0:0:0:0:
224,88,81064,5,0,0:0:0:0:
144,112,81409,2,0,L|88:108,1,41.2500015735627,0|2,0:0|0:0,0:0:0:0:
56,192,82098,2,0,L|108:188,1,41.2500015735627,0|0,0:0|0:0,0:0:0:0:
180,236,82788,2,0,L|221:232,2,41.2500015735627,0|2|0,0:0|0:0|0:0,0:0:0:0:
328,316,83822,5,0,0:0:0:0:
392,264,84167,2,0,L|396:204,1,41.2500015735627,0|2,0:0|0:0,0:0:0:0:
276,108,85202,5,0,0:0:0:0:
200,144,85546,2,0,P|172:148|144:144,1,41.2500015735627,0|2,0:0|0:0,0:0:0:0:
20,60,86581,5,0,0:0:0:0:
24,144,86926,1,0,0:0:0:0:
88,228,87271,1,2,0:0:0:0:
224,260,87615,1,4,0:0:0:0:
224,260,88305,1,4,0:0:0:0:
460,72,89684,6,0,P|448:128|464:192,1,107.249995090485,4|0,0:3|0:0,0:0:0:0:
392,240,90374,2,0,P|372:236|332:240,1,35.749998363495,0|0,1:0|0:0,0:0:0:0:
272,264,90719,1,2,0:0:0:0:
67,220,91064,2,0,P|101:228|136:220,1,71.4999967269899,4|0,0:0|0:0,0:0:0:0:
200,92,91753,2,0,L|252:88,1,35.749998363495,0|0,1:0|0:0,0:0:0:0:
324,108,92098,2,0,L|392:104,1,35.749998363495,2|0,0:0|1:0,0:0:0:0:
464,168,92443,6,0,P|472:228|456:292,1,107.249995090485,4|0,0:3|0:0,0:0:0:0:
384,324,93133,2,0,L|328:320,1,35.749998363495,0|0,1:0|0:0,0:0:0:0:
188,336,93650,1,0,1:0:0:0:
266,296,93822,1,4,0:0:0:0:
88,288,94167,2,0,P|80:248|88:192,1,71.4999967269899,4|4,0:0|0:0,0:0:0:0:
168,60,94857,1,4,0:0:0:0:
304,104,95202,6,0,L|428:96,1,107.249995090485,4|0,0:3|0:0,0:0:0:0:
472,164,95891,2,0,P|476:184|472:208,1,35.749998363495,0|0,1:0|0:0,0:0:0:0:
432,280,96236,1,2,1:2:0:0:
256,316,96581,2,0,P|196:320|124:304,1,107.249995090485,4|0,0:0|0:0,0:0:0:0:
88,248,97271,2,0,L|84:200,1,35.749998363495,0|0,1:0|0:0,0:0:0:0:
148,148,97615,2,0,L|152:48,1,71.4999967269899,2|4,1:2|0:3,0:0:0:0:
416,32,98477,6,0,L|456:28,1,35.749998363495,0|0,0:0|1:0,0:0:0:0:
484,116,98822,2,0,L|444:112,1,35.749998363495,0|2,0:0|0:0,0:0:0:0:
356,224,99340,2,0,L|364:304,1,71.4999967269899,4|2,0:0|0:0,0:0:0:0:
228,344,100029,2,0,L|221:272,1,71.4999967269899,2|2,0:0|0:0,0:0:0:0:
52,216,100719,6,0,P|108:224|176:200,1,107.249995090485,4|0,0:3|0:0,0:0:0:0:
208,136,101408,2,0,P|230:130|256:136,1,35.749998363495,0|0,1:0|0:0,0:0:0:0:
328,176,101753,2,0,L|333:104,1,71.4999967269899,2|4,0:0|0:3,0:0:0:0:
388,272,102443,1,2,0:0:0:0:
224,336,102788,2,0,L|180:332,2,35.749998363495,0|0|2,1:0|0:0|0:0,0:0:0:0:
404,316,103477,6,0,P|384:268|392:188,1,107.249995090485,4|0,0:3|0:0,0:0:0:0:
428,132,104167,2,0,L|488:128,1,35.749998363495,0|0,1:0|0:0,0:0:0:0:
448,40,104512,2,0,L|508:36,1,35.749998363495,2|0,1:2|1:0,0:0:0:0:
352,72,104857,2,0,P|316:80|264:68,2,71.4999967269899,4|6|4,0:3|0:0|0:3,0:0:0:0:
180,36,105891,1,6,0:0:0:0:
180,36,106236,6,0,L|188:148,1,107.249995090485,4|0,0:3|0:0,0:0:0:0:
152,224,106926,2,0,L|100:220,1,35.749998363495,0|0,1:0|0:0,0:0:0:0:
40,172,107271,1,2,0:0:0:0:
140,324,107615,1,4,0:3:0:0:
140,324,107960,1,2,0:0:0:0:
288,224,108305,2,0,L|344:220,2,35.749998363495,0|0|2,1:0|1:0|0:0,0:0:0:0:
224,52,108995,6,0,P|212:108|232:172,1,107.249995090485,4|0,0:3|0:0,0:0:0:0:
288,224,109684,1,0,1:0:0:0:
288,224,109857,2,0,L|424:220,1,107.249995090485,0|4,1:0|0:3,0:0:0:0:
395,220,111408,5,2,0:0:0:0:
324,304,111753,2,0,L|264:300,1,55,2|2,0:0|0:0,0:0:0:0:
164,328,112443,1,2,0:0:0:0:
72,128,113133,2,0,P|80:158|80:192,1,55,2|2,0:0|0:0,0:0:0:0:
80,181,114167,5,2,0:0:0:0:
180,228,114512,2,0,L|212:224,1,27.5,2|2,0:0|0:0,0:0:0:0:
260,244,114857,2,0,L|308:240,2,27.5,0|2|2,0:0|0:0|0:0,0:0:0:0:
212,144,115546,1,2,0:0:0:0:
316,104,115891,6,0,L|370:107,1,55,4|0,0:0|0:0,0:0:0:0:
220,52,116581,2,0,L|165:55,1,55,4|0,0:0|0:0,0:0:0:0:
316,104,117271,5,2,0:0:0:0:
420,68,117615,1,2,0:0:0:0:
332,268,118305,1,2,0:0:0:0:
232,316,118650,2,0,P|192:316|160:296,1,55,2|2,0:0|0:0,0:0:0:0:
68,136,119684,5,2,0:0:0:0:
164,80,120029,2,0,L|168:48,2,27.5,2|2|2,0:0|0:0|0:0,0:0:0:0:
264,128,120719,1,2,0:0:0:0:
428,276,121408,6,0,L|456:272,2,27.5,2|2|2,0:0|0:0|0:0,0:0:0:0:
332,224,122098,2,0,P|324:200|332:156,1,55,2|2,0:0|0:0,0:0:0:0:
229,54,122788,6,0,P|238:80|236:108,1,55,2|2,0:0|0:0,0:0:0:0:
64,244,123822,1,2,0:0:0:0:
152,312,124167,2,0,L|216:308,1,55,2|2,0:0|0:0,0:0:0:0:
412,228,125202,5,2,0:0:0:0:
336,148,125546,2,0,L|340:104,1,27.5,2|2,0:0|0:0,0:0:0:0:
300,80,125891,2,0,P|272:96|232:88,1,55,2|2,0:0|0:0,0:0:0:0:
144,60,126581,1,2,0:0:0:0:
76,148,126926,6,0,L|80:204,1,55,4|0,0:0|0:0,0:0:0:0:
168,268,127615,2,0,L|168:208,1,55,4|0,0:0|0:0,0:0:0:0:
248,136,128305,5,2,0:0:0:0:
248,136,128650,1,2,0:0:0:0:
432,260,129340,1,2,0:0:0:0:
336,316,129684,2,0,L|272:312,1,55,2|2,0:0|0:0,0:0:0:0:
96,196,130719,5,2,0:0:0:0:
180,124,131064,2,0,L|176:68,1,55,2|2,0:0|0:0,0:0:0:0:
360,188,132098,2,0,L|356:252,1,55,2|2,0:0|0:0,0:0:0:0:
116,300,133477,5,0,0:0:0:0:
164,200,133822,2,0,L|160:124,2,55,2|0|2,0:0|0:0|0:0,0:0:0:0:
372,268,135202,1,4,0:0:0:0:
264,288,135546,6,0,L|196:284,1,55,2|2,0:0|0:0,0:0:0:0:
116,228,136236,1,0,0:0:0:0:
168,132,136581,2,0,L|172:52,1,55,2|0,0:0|0:0,0:0:0:0:
272,36,137271,2,0,L|328:40,1,55,2|2,0:0|0:0,0:0:0:0:
392,128,137960,2,0,L|268:136,1,110,4|0,0:3|0:0,0:0:0:0:
168,132,138995,5,2,0:0:0:0:
220,228,139340,2,0,L|224:284,2,55,2|0|2,0:0|0:0|0:0,0:0:0:0:
388,88,140719,1,4,0:0:0:0:
452,176,141064,6,0,P|456:228|444:304,1,110,2|0,0:0|0:0,0:0:0:0:
348,328,142098,2,0,L|280:324,1,55,2|0,0:0|0:0,0:0:0:0:
200,268,142788,2,0,P|192:240|196:200,2,55,2|2|4,0:0|0:0|0:3,0:0:0:0:
200,268,144167,1,0,0:0:0:0:
76,56,144857,6,0,L|84:124,1,55,2|0,0:0|0:0,0:0:0:0:
192,132,145546,2,0,L|184:196,1,55,2|2,0:0|0:0,0:0:0:0:
92,248,146236,1,4,0:0:0:0:
185,186,146581,1,2,0:0:0:0:
296,196,146926,1,2,0:0:0:0:
380,268,147271,1,2,0:0:0:0:
324,172,147615,6,0,L|328:96,1,55,4|0,0:0|0:0,0:0:0:0:
228,68,148305,2,0,P|196:77|156:64,1,55,2|0,0:0|0:3,0:0:0:0:
76,28,148995,2,0,L|84:164,1,110,4|4,0:3|0:3,0:0:0:0:
48,244,150029,6,0,L|168:236,1,110,2|0,0:0|0:0,0:0:0:0:
457,131,151408,2,0,L|348:124,1,110,2|0,0:0|0:0,0:0:0:0:
81,66,152788,2,0,L|136:60,1,55,2|4,0:0|0:3,0:0:0:0:
200,148,153477,2,0,L|328:152,1,110,0|0,0:0|0:0,0:0:0:0:
400,216,154512,5,0,1:0:0:0:
104,212,155202,1,0,1:0:0:0:
400,216,155891,6,0,P|408:268|388:336,1,107.249995090485,12|0,1:3|0:0,0:0:0:0:
308,344,156581,2,0,L|248:340,2,35.749998363495,8|0|2,1:3|0:0|0:0,0:0:0:0:
168,228,157271,2,0,L|240:220,1,71.4999967269899,4|4,0:3|0:3,0:0:0:0:
392,136,157960,6,0,L|396:100,1,35.749998363495,8|0,1:3|1:0,0:0:0:0:
308,36,158305,2,0,L|312:72,1,35.749998363495,4|0,0:3|0:0,0:0:0:0:
252,140,158650,2,0,P|204:160|140:152,1,107.249995090485,4|0,0:3|0:0,0:0:0:0:
68,76,159340,6,0,P|72:92|72:112,1,35.749998363495,8|0,1:3|1:0,0:0:0:0:
28,192,159684,1,2,0:0:0:0:
148,320,160029,2,0,L|236:316,2,71.4999967269899,4|4|12,0:3|0:0|1:3,0:0:0:0:
308,272,161064,1,4,0:0:0:0:
308,272,161408,6,0,P|300:216|308:160,1,107.249995090485,4|0,0:3|0:0,0:0:0:0:
386,126,162098,2,0,L|430:122,1,35.749998363495,8|0,1:3|0:0,0:0:0:0:
490,182,162443,1,4,0:3:0:0:
490,182,162788,1,4,0:3:0:0:
306,166,163133,1,2,0:0:0:0:
160,252,163477,6,0,L|100:248,1,35.749998363495,8|0,1:3|0:0,0:0:0:0:
216,328,163822,2,0,L|288:324,1,71.4999967269899,4|4,0:3|0:3,0:0:0:0:
468,260,164512,1,0,0:0:0:0:
468,260,164857,2,0,L|472:208,1,35.749998363495,8|0,1:3|1:0,0:0:0:0:
400,164,165202,2,0,L|396:64,1,71.4999967269899,6|4,0:0|0:3,0:0:0:0:
220,116,165891,2,0,L|132:112,2,71.4999967269899,6|12|4,0:0|1:3|0:0,0:0:0:0:
400,224,166926,6,0,P|418:179|406:103,1,107.249995090485,4|0,1:0|0:0,0:0:0:0:
336,76,167615,2,0,P|332:48|336:28,2,35.749998363495,8|0|4,1:3|1:0|0:3,0:0:0:0:
167,114,168305,2,0,L|96:112,1,71.4999967269899,4|2,0:3|0:0,0:0:0:0:
216,280,168995,2,0,L|260:276,2,35.749998363495,8|0|4,1:3|1:0|0:3,0:0:0:0:
56,232,169684,2,0,L|52:112,1,107.249995090485,4|0,0:3|0:0,0:0:0:0:
144,112,170374,6,0,L|148:56,1,35.749998363495,8|0,1:3|1:0,0:0:0:0:
228,28,170719,2,0,L|232:84,1,35.749998363495,4|0,0:3|1:0,0:0:0:0:
280,136,171064,1,4,3:0:0:0:
460,112,171408,1,4,0:0:0:0:
348,224,171753,1,12,1:3:0:0:
356,48,172098,1,4,0:0:0:0:
452,220,172443,6,0,P|456:276|448:332,1,107.249995090485,4|0,0:3|0:0,0:0:0:0:
360,340,173133,2,0,L|304:336,1,35.749998363495,8|0,1:3|1:0,0:0:0:0:
248,288,173477,2,0,L|168:292,1,71.4999967269899,2|4,0:0|0:3,0:0:0:0:
64,160,174167,1,2,0:0:0:0:
64,160,174512,2,0,L|60:116,2,35.749998363495,8|0|4,1:3|1:0|0:3,0:0:0:0:
220,212,175202,6,0,P|288:216|328:204,1,107.249995090485,4|0,0:3|0:0,0:0:0:0:
392,136,175891,2,0,L|396:68,1,35.749998363495,8|0,1:3|0:0,0:0:0:0:
324,44,176236,2,0,P|288:40|248:48,1,71.4999967269899,4|4,0:3|0:3,0:0:0:0:
104,152,176926,1,4,0:0:0:0:
216,292,177271,1,4,0:3:0:0:
365,186,177615,1,4,0:0:0:0:
307,40,177960,6,0,L|253:46,1,55,4|2,1:0|0:0,0:0:0:0:
396,104,178650,2,0,L|456:96,1,55,8|2,1:3|0:0,0:0:0:0:
464,224,179340,2,0,L|460:272,1,27.5,0|2,1:0|0:0,0:0:0:0:
412,276,179684,2,0,L|408:324,2,27.5,2|2|12,0:0|0:0|1:3,0:0:0:0:
196,232,180719,6,0,P|192:200|196:156,1,55,4|2,0:3|0:0,0:0:0:0:
292,132,181408,1,8,1:3:0:0:
292,132,181753,2,0,P|296:100|292:56,1,55,4|4,0:3|0:3,0:0:0:0:
192,36,182443,2,0,L|116:40,1,55,4|8,0:0|0:3,0:0:0:0:
56,180,183477,6,0,L|60:248,1,55,4|2,1:0|0:0,0:0:0:0:
168,256,184167,2,0,L|164:332,1,55,8|2,1:3|0:0,0:0:0:0:
300,340,184857,2,0,L|332:336,1,27.5,0|2,1:0|0:0,0:0:0:0:
360,292,185202,2,0,L|392:288,2,27.5,2|2|12,0:0|0:0|0:3,0:0:0:0:
272,192,185891,5,4,0:3:0:0:
180,252,186236,2,0,L|112:248,1,55,4|2,0:3|0:0,0:0:0:0:
36,192,186926,1,8,1:3:0:0:
68,88,187271,1,4,0:3:0:0:
176,72,187615,1,4,0:3:0:0:
220,172,187960,2,0,L|292:168,1,55,0|4,0:0|0:0,0:0:0:0:
450,91,188995,6,0,L|396:88,1,55,4|2,1:0|0:0,0:0:0:0:
300,36,189684,2,0,L|236:32,1,55,8|2,1:3|0:0,0:0:0:0:
112,68,190374,2,0,L|116:104,1,27.5,0|2,1:0|0:0,0:0:0:0:
156,132,190719,2,0,L|160:168,1,27.5,2|2,0:0|0:0,0:0:0:0:
144,212,191064,1,12,0:3:0:0:
356,272,191753,6,0,P|349:306|360:344,1,55,4|2,0:3|0:0,0:0:0:0:
452,280,192443,2,0,P|456:252|452:216,2,55,8|4|4,1:3|0:3|0:3,0:0:0:0:
352,326,193477,2,0,L|272:324,1,55,4|8,0:0|0:3,0:0:0:0:
120,216,194512,6,0,P|112:184|116:144,1,55,4|2,1:0|0:0,0:0:0:0:
180,72,195202,1,8,1:3:0:0:
180,72,195546,1,2,0:0:0:0:
316,80,195891,2,0,L|368:76,1,27.5,0|2,1:0|0:0,0:0:0:0:
384,116,196236,2,0,L|436:112,1,27.5,2|2,0:0|0:0,0:0:0:0:
464,136,196581,2,0,P|468:164|464:192,1,55,12|4,0:3|0:3,0:0:0:0:
380,288,197271,5,4,0:3:0:0:
280,332,197615,2,0,L|212:328,1,55,2|8,0:0|0:3,0:0:0:0:
120,300,198305,1,2,0:0:0:0:
208,156,198650,6,0,L|212:44,1,110,4|2,0:3|0:0,0:0:0:0:
