osu file format v5

[General]
AudioFilename: 152129541674.mp3
AudioLeadIn: 0
PreviewTime: 23304
Countdown: 3
SampleSet: Soft
StackLeniency: 0.7
Mode: 0
LetterboxInBreaks: 1
EditorBookmarks: 45373

[Metadata]
Title:You
Artist:Yuzuki
Creator:sheshe816
Version:Normal
Source:
Tags:

[Difficulty]
HPDrainRate:6
CircleSize:5
OverallDifficulty:6
SliderMultiplier:1.2
SliderTickRate:2

[Events]
//Background and Video events
0,0,"untitled.jpg"
//Break Periods
2,12470,22254
2,55228,66392
//Storyboard Layer 0 (Background)
//Storyboard Layer 1 (Failing)
//Storyboard Layer 2 (Passing)
//Storyboard Layer 3 (Foreground)
//Storyboard Sound Samples
//Background Colour Transformations
3,100,163,162,255

[TimingPoints]
1236,689.655172413793,4,2,0,85,1
6753,-50,4,2,0,85,0
7442,-100,4,2,0,85,0
8132,-50,4,2,0,85,0
8822,-100,4,2,0,85,0
36408,-50,4,2,0,85,0
37098,-100,4,2,0,85,0
49511,-50,4,2,0,85,0
50546,-100,4,2,0,85,0
54167,-50,4,2,0,85,0
54684,-100,4,2,0,85,0

[Colours]
Combo1 : 234,220,53
Combo2 : 27,228,62
Combo3 : 150,68,33
Combo4 : 62,62,255
Combo5 : 255,150,45

[HitObjects]
64,64,1236,1,0
160,64,1925,1,0
160,64,2098,1,0
160,64,2270,1,0
160,112,2615,2,0,C|144:128|160:144|144:160,1,60
160,240,3304,6,0,C|208:240,3,30
240,240,3994,2,0,C|272:224|288:192|336:208,1,120
332,206,5029,1,0
240,240,5373,1,0
332,206,5718,1,0
416,240,6063,1,0
416,320,6753,6,0,C|400:352|400:352|368:336|352:352|336:352|320:336|320:336,1,120
288,352,7442,1,0
288,304,7615,1,0
288,352,7787,1,0
288,256,8132,2,0,C|288:240|304:208|304:208|272:224|240:192,1,120
208,208,8822,1,0
160,208,8994,1,0
208,208,9167,1,0
256,192,9511,12,0,12270
64,64,23304,5,0
64,64,23649,1,0
64,64,23994,1,0
64,320,24684,5,0
64,320,25029,1,0
64,320,25373,1,0
448,320,26063,5,0
448,320,26408,1,0
448,320,26753,1,0
448,64,27442,5,0
448,64,27787,1,0
448,64,28132,1,0
448,192,28822,6,0,L|384:192,2,60
256,320,30201,6,0,L|256:256,2,60
64,192,31580,6,0,L|128:192,2,60
256,64,32960,6,0,L|256:128,2,60
256,192,34339,6,0,C|240:224|272:240|256:288,1,120
257,283,35201,1,0
257,283,35373,1,0
257,283,35546,1,0
192,288,35718,2,0,C|128:288,1,60
80,288,36408,6,0,C|64:272|80:256|64:240,2,60
64,192,37098,2,0,C|80:160|48:144|48:112,1,90
48,80,37787,1,0
88,104,38132,1,0
128,128,38477,2,0,C|256:128,1,120
272,224,39856,6,0,C|240:288|280:352,1,120
262,328,40718,1,0
262,328,40891,1,0
262,328,41063,1,0
344,327,41235,6,0,C|378:286|347:229,1,120
347,229,42098,1,0
347,229,42270,1,0
344,160,42615,6,0,C|216:160,1,120
224,160,43477,1,0
152,160,43994,2,0,C|88:160,2,60
64,320,45373,6,0,C|96:336|112:304|160:320,1,120
155,318,46408,1,0
208,320,46753,2,0,C|208:256,1,60
208,208,47442,2,0,C|176:208,4,30
304,208,48821,5,0
304,208,48994,1,0
304,208,49166,1,0
304,144,49511,2,0,C|304:16,2,120
384,192,50891,6,0,C|416:192|448:192,1,60
448,256,51581,1,0
448,256,51753,1,0
448,256,51926,1,0
448,320,52270,6,0,C|384:320,3,60
388,320,53649,1,0
288,320,54167,2,0,C|272:304|272:304|288:288,2,60,0|0|0
288,208,54856,2,0,C|288:176,1,30
80,80,67442,6,0,C|64:112|80:144,1,60
