osu file format v12

[General]
AudioFilename: Hyori Ittai.mp3
AudioLeadIn: 1000
PreviewTime: 1526
Countdown: 0
SampleSet: Soft
StackLeniency: 0.7
Mode: 0
LetterboxInBreaks: 0
WidescreenStoryboard: 0

[Editor]
DistanceSpacing: 1
BeatDivisor: 4
GridSize: 4

[Metadata]
Title:Hyouri Ittai (TV Size)
TitleUnicode:表裏一体 (TV Size)
Artist:Yuzu
ArtistUnicode:ゆず
Creator:Trust
Version:Normal
Source:HUNTER X HUNTER
Tags:hxh ハンター×ハンター 2011 nippon animation 日本アニメーション gon freecss killua zoldyck chimera ant ending fiya
BeatmapID:332921
BeatmapSetID:129299

[Difficulty]
HPDrainRate:4
CircleSize:3
OverallDifficulty:4
ApproachRate:5
SliderMultiplier:1.2
SliderTickRate:2

[Events]
//Background and Video events
Video,1493,"video.avi"
0,0,"ittaibg.jpg",0,0
//Break Periods
//Storyboard Layer 0 (Background)
//Storyboard Layer 1 (Fail)
//Storyboard Layer 2 (Pass)
//Storyboard Layer 3 (Foreground)
//Storyboard Sound Samples
//Background Colour Transformations
3,100,163,162,255

[TimingPoints]
1726,400,4,2,3,60,1,0
27326,-100,4,2,3,40,0,0
40126,-100,4,2,3,20,0,0
42726,-100,4,2,3,40,0,0
43326,375,4,2,3,60,1,0
43701,-100,4,2,3,80,0,1
55326,-100,4,2,3,80,0,0
55701,-100,4,2,3,80,0,1
67138,-100,4,2,3,80,0,0
67701,-100,4,2,3,60,0,1
67888,-100,4,2,3,60,0,0
69201,-100,4,2,3,60,0,1
69388,-100,4,2,3,60,0,0
78201,-100,4,2,3,50,0,0
78576,-100,4,2,3,40,0,0
78951,-100,4,2,3,30,0,0

[Colours]
Combo1 : 241,112,88
Combo2 : 157,182,73
Combo3 : 205,218,135
Combo4 : 207,169,88

[HitObjects]
50,325,1726,2,0,P|106:309|154:257,1,120,4|8,0:0|0:0,0:0:0:0:
256,209,2526,1,0,0:0:0:0:
363,266,2926,2,0,P|404:308|462:325,1,120,8|0,0:0|0:0,0:0:0:0:
465,205,3726,1,8,0:0:0:0:
363,140,4126,2,0,P|405:97|462:81,2,120,0|8|0,0:0|0:0|0:0,0:0:0:0:
280,227,5326,6,0,L|186:307,1,120,8|0,0:0|0:0,0:0:0:0:
68,304,6126,1,8,0:0:0:0:
47,247,6326,2,0,P|31:195|59:119,1,120,2|2,0:0|0:0,0:0:0:0:
156,192,7126,2,0,B|212:168|232:216|296:184,1,120,2|2,0:0|0:0,0:0:0:0:
334,193,7726,2,0,L|394:194,2,60,8|8|4,0:0|0:0|0:0,0:0:0:0:
257,99,8526,5,8,0:0:0:0:
137,99,8926,2,0,L|77:98,2,60,2|0|8,0:0|0:0|0:0,0:0:0:0:
159,154,9526,2,0,P|172:206|157:273,1,120,2|0,0:0|0:0,0:0:0:0:
251,346,10326,2,0,P|303:333|370:348,1,120,2|0,0:0|0:0,0:0:0:0:
423,367,10926,1,8,0:0:0:0:
453,315,11126,2,0,P|474:262|450:144,1,180,2|8,0:0|0:0,0:0:0:0:
359,65,12126,6,0,B|308:109,1,60,2|0,0:0|0:0,0:0:0:0:
256,212,12726,2,0,P|203:173|201:99,1,120,2|2,0:0|0:0,0:0:0:0:
161,72,13326,1,8,0:0:0:0:
93,66,13526,2,0,P|61:115|93:228,1,180,2|8,0:0|0:0,0:0:0:0:
198,278,14526,6,0,P|257:265|318:281,1,120,4|8,0:0|0:0,0:0:0:0:
423,327,15326,1,2,0:0:0:0:
413,207,15726,2,0,P|399:149|412:91,1,120,8|0,0:0|0:0,0:0:0:0:
315,20,16526,1,8,0:0:0:0:
218,91,16926,6,0,L|148:91,2,60,0|2|8,0:0|0:0|0:0,0:0:0:0:
273,115,17526,2,0,P|286:172|273:230,2,120,2|8|6,0:0|0:0|0:0,0:0:0:0:
218,7,18726,1,2,0:0:0:0:
159,25,18926,2,0,P|134:77|149:134,1,120,12|2,0:0|0:0,0:0:0:0:
182,185,19526,6,0,L|217:240,2,60,4|4|4,0:3|0:3|0:3,0:0:0:0:
149,135,20126,1,8,0:0:0:0:
84,236,20526,1,8,0:0:0:0:
146,339,20926,6,0,P|207:324|283:348,1,120,4|8,0:0|0:0,0:0:0:0:
374,377,21726,1,0,0:0:0:0:
442,278,22126,1,8,0:0:0:0:
442,218,22326,2,0,L|442:90,1,120,2|0,0:0|0:0,0:0:0:0:
338,157,23126,2,0,L|338:284,1,120,2|2,0:0|0:0,0:0:0:0:
287,311,23726,1,8,0:0:0:0:
233,339,23926,6,0,P|139:372|58:335,1,180,0|8,0:0|0:0,0:0:0:0:
147,252,24926,2,0,P|193:224|237:159,1,120,2|8,0:0|0:0,0:0:0:0:
296,70,25726,1,0,0:0:0:0:
416,70,26126,1,2,0:0:0:0:
478,172,26526,1,0,0:0:0:0:
416,275,26926,1,0,0:0:0:0:
296,275,27326,6,0,P|236:275|172:317,1,120,2|0,0:0|0:0,0:0:0:0:
130,329,27926,2,0,P|101:276|101:217,1,120,2|0,0:0|0:0,0:0:0:0:
116,158,28526,1,2,0:0:0:0:
177,55,28926,2,0,P|105:39|52:60,2,120,0|0|2,0:0|0:0|0:0,0:0:0:0:
270,130,30126,1,2,0:0:0:0:
292,15,30526,6,0,P|352:15|416:57,1,120,0|0,0:0|0:0,0:0:0:0:
452,77,31126,2,0,P|423:129|423:188,1,120,2|2,0:0|0:0,0:0:0:0:
442,245,31726,2,0,P|433:305|420:326,1,60,0|0,0:0|0:0,0:0:0:0:
388,343,32126,2,0,P|314:356|262:333,2,120,2|0|2,0:0|0:0|0:0,0:0:0:0:
333,236,33326,1,2,0:0:0:0:
213,236,33726,6,0,P|139:215|92:225,1,120,0|0,0:0|0:0,0:0:0:0:
39,237,34326,2,0,P|52:179|34:107,1,120,2|2,0:0|0:0,0:0:0:0:
15,66,34926,1,0,0:0:0:0:
128,26,35326,2,0,P|179:20|245:51,2,120,2|0|2,0:0|0:0|0:0,0:0:0:0:
165,140,36526,1,2,0:0:0:0:
240,47,36926,6,0,P|275:94|281:158,1,120,2|0,0:0|0:0,0:0:0:0:
275,213,37526,2,0,P|281:271|316:319,1,120,2|0,0:0|0:0,0:0:0:0:
369,348,38126,2,0,P|406:338|430:304,1,60,0|0,0:0|0:0,0:0:0:0:
256,192,38526,12,2,41726,0:0:0:0:
100,96,42726,6,0,B|93:144|134:182|134:182|176:178,1,120,2|2,0:0|0:0,0:0:0:0:
218,162,43326,1,0,0:0:0:0:
334,128,43701,6,0,B|356:125|356:125|397:163|390:212,2,120,12|0|8,0:0|0:0|0:0,0:0:0:0:
218,162,44826,1,0,0:0:0:0:
244,44,45201,2,0,P|193:42|133:75,2,120,8|0|8,0:0|0:0|0:0,0:0:0:0:
326,131,46326,6,0,B|386:161|445:135|445:135|419:199|448:252,2,240,4|0|0,0:0|0:0|0:0,0:0:0:0:
218,78,48201,1,8,0:0:0:0:
219,78,48388,2,0,P|144:77|84:168,1,180,4|8,0:0|0:0,0:0:0:0:
59,274,49326,5,4,0:0:0:0:
172,235,49701,2,0,B|223:233|248:192|248:192|339:191,1,180,8|0,0:0|0:0,0:0:0:0:
441,249,50638,2,0,P|456:198|433:126,2,120,2|2|4,0:0|0:0|0:0,0:0:0:0:
347,324,51763,1,2,0:0:0:0:
252,249,52138,2,0,P|237:198|260:126,1,120,0|2,0:0|0:0,0:0:0:0:
281,81,52701,5,8,0:0:0:0:
377,152,53076,1,0,0:0:0:0:
394,33,53451,1,8,0:0:0:0:
281,81,53826,1,4,0:0:0:0:
282,81,54013,2,0,P|254:129|273:205,1,120,8|4,0:0|0:0,0:0:0:0:
317,298,54763,6,0,B|319:321|319:321|281:362|233:355,1,120,2|2,0:0|0:0,0:0:0:0:
174,340,55326,1,0,0:0:0:0:
108,239,55701,6,0,B|99:218|99:218|125:169|174:163,2,120,12|0|8,0:0|0:0|0:0,0:0:0:0:
216,288,56826,2,0,B|252:316|252:316|292:300|340:324,1,120,0|8,0:0|0:0,0:0:0:0:
440,356,57576,2,0,P|444:296|417:238,1,120,0|8,0:0|0:0,0:0:0:0:
301,210,58326,6,0,P|248:237|214:293,2,120,4|8|0,0:0|0:0|0:0,0:0:0:0:
359,194,59263,2,0,P|411:166|445:110,1,120,2|2,0:0|0:0,0:0:0:0:
329,78,60013,1,2,0:0:0:0:
234,151,60388,5,0,0:0:0:0:
189,191,60576,2,0,P|153:195|109:184,1,60,4|0,0:0|0:0,0:0:0:0:
10,175,61138,2,0,P|31:121|143:77,1,180,2|8,0:0|0:0,0:0:0:0:
197,79,61888,5,0,0:0:0:0:
197,79,62076,2,0,L|219:151,1,60,4|0,0:0|0:0,0:0:0:0:
163,245,62638,2,0,P|279:238|327:178,1,180,2|8,0:0|0:0,0:0:0:0:
349,144,63388,5,0,0:0:0:0:
349,144,63576,2,0,L|415:150,1,60,4|0,0:0|0:0,0:0:0:0:
429,268,64138,2,0,P|369:323|256:306,1,180,2|8,0:0|0:0,0:0:0:0:
325,209,65076,1,0,0:0:0:0:
205,217,65451,2,0,L|184:298,1,60,8|2,0:0|0:0,0:0:0:0:
169,96,66201,5,8,0:0:0:0:
111,80,66388,2,0,L|53:61,2,60,0|4|0,0:0|0:0|0:0,0:0:0:0:
147,194,67138,2,0,P|255:230|308:198,1,180,4|12,0:0|0:0,0:0:0:0:
400,125,68076,6,0,L|431:184,1,60,2|0,0:0|0:0,0:0:0:0:
477,287,68638,2,0,P|417:284|356:378,1,180,0|12,0:0|0:0,0:0:0:0:
256,307,69576,6,0,B|214:225|296:225|251:122,1,180,2|2,0:0|0:0,0:0:0:0:
212,92,70326,2,0,P|164:84|88:140,2,120,2|0|2,0:0|0:0|0:0,0:0:0:0:
325,129,71451,2,0,L|353:193,1,60,8|2,0:0|0:0,0:0:0:0:
371,239,71826,6,0,P|374:300|349:357,2,120,4|8|0,0:0|0:0|0:0,0:0:0:0:
257,280,72951,1,8,0:0:0:0:
141,239,73326,2,0,P|138:300|163:357,2,120,4|8|0,0:0|0:0|0:0,0:0:0:0:
194,131,74451,2,0,L|238:67,1,60,8|0,0:0|0:0,0:0:0:0:
266,35,74826,6,0,P|312:71|371:80,1,120,4|0,0:0|0:0,0:0:0:0:
431,82,75388,2,0,P|455:122|466:201,2,120,2|2|2,0:0|0:0|0:0,0:0:0:0:
256,192,76326,12,0,79138,0:0:0:0:
