osu file format v12

[General]
AudioFilename: Hyori Ittai.mp3
AudioLeadIn: 1000
PreviewTime: 1526
Countdown: 0
SampleSet: Soft
StackLeniency: 0.7
Mode: 0
LetterboxInBreaks: 0
WidescreenStoryboard: 0

[Editor]
DistanceSpacing: 1.1
BeatDivisor: 4
GridSize: 4

[Metadata]
Title:Hyouri Ittai (TV Size)
TitleUnicode:表裏一体 (TV Size)
Artist:Yuzu
ArtistUnicode:ゆず
Creator:Trust
Version:Hard
Source:HUNTER X HUNTER
Tags:hxh ハンター×ハンター 2011 nippon animation 日本アニメーション gon freecss killua zoldyck chimera ant ending fiya
BeatmapID:331594
BeatmapSetID:129299

[Difficulty]
HPDrainRate:6
CircleSize:4
OverallDifficulty:6
ApproachRate:8
SliderMultiplier:1.55
SliderTickRate:2

[Events]
//Background and Video events
Video,1493,"video.avi"
0,0,"ittaibg.jpg",0,0
//Break Periods
//Storyboard Layer 0 (Background)
//Storyboard Layer 1 (Fail)
//Storyboard Layer 2 (Pass)
//Storyboard Layer 3 (Foreground)
//Storyboard Sound Samples
//Background Colour Transformations
3,100,163,162,255

[TimingPoints]
1726,400,4,2,3,60,1,0
27326,-111.111111111111,4,2,3,60,0,0
27326,-111.111111111111,4,2,3,40,0,0
40126,-111.111111111111,4,2,3,20,0,0
42726,-111.111111111111,4,2,3,40,0,0
43326,375,4,2,3,60,1,0
43701,-100,4,2,3,80,0,1
55326,-100,4,2,3,80,0,0
55701,-100,4,2,3,80,0,1
67138,-100,4,2,3,80,0,0
67701,-100,4,2,3,60,0,1
67888,-100,4,2,3,60,0,0
69201,-100,4,2,3,60,0,1
69388,-100,4,2,3,60,0,0
78201,-100,4,2,3,70,0,0
78576,-100,4,2,3,80,0,0
78951,-100,4,2,3,90,0,0

[Colours]
Combo1 : 241,112,88
Combo2 : 157,182,73
Combo3 : 205,218,135
Combo4 : 207,169,88

[HitObjects]
64,304,1726,6,0,P|96:344|208:320,1,155,4|8,0:0|0:0,0:0:0:0:
264,292,2326,1,2,0:0:0:0:
332,240,2526,2,0,P|376:216|432:224,1,77.5,0|0,0:0|0:0,0:0:0:0:
468,272,2926,2,0,P|424:296|368:288,1,77.5,8|2,0:0|0:0,0:0:0:0:
332,240,3326,6,0,P|284:212|192:244,1,155,0|8,0:0|0:0,0:0:0:0:
128,292,3926,1,2,0:0:0:0:
60,240,4126,2,0,L|16:140,1,77.5,0|0,0:0|0:0,0:0:0:0:
108,136,4526,2,0,L|91:44,1,77.5,8|2,0:0|0:0,0:0:0:0:
172,40,4926,6,0,P|224:48|268:28,1,77.5,0|2,0:0|0:0,0:0:0:0:
330,21,5326,2,0,P|319:90|219:123,1,155,8|0,0:0|0:0,0:0:0:0:
247,41,5926,1,2,0:0:0:0:
330,21,6126,1,8,0:0:0:0:
413,41,6326,6,0,P|463:89|432:190,1,155,2|2,0:0|0:0,0:0:0:0:
382,122,6926,1,8,0:0:0:0:
375,207,7126,2,0,B|339:207|305:231|305:231|271:207|227:207,1,155,2|2,0:0|0:0,0:0:0:0:
145,215,7726,1,8,0:0:0:0:
64,241,7926,2,0,L|5:265,2,38.75,8|8|4,0:0|0:0|0:0,0:0:0:0:
184,136,8326,6,0,P|241:121|278:139,1,77.5,2|8,0:0|0:0,0:0:0:0:
231,207,8726,1,0,0:0:0:0:
145,215,8926,2,0,P|105:175|105:126,2,77.5,2|0|8,0:0|0:0|0:0,0:0:0:0:
260,284,9526,2,0,B|336:315|336:256|410:284,1,155,2|0,0:0|0:0,0:0:0:0:
481,326,10126,6,0,P|455:355|419:366,1,77.5,8|2,0:0|0:0,0:0:0:0:
425,200,10526,2,0,P|461:215|485:246,1,77.5,0|0,0:0|0:0,0:0:0:0:
411,284,10926,1,8,0:0:0:0:
347,227,11126,2,0,P|299:215|255:235,1,77.5,2|6,0:0|0:0,0:0:0:0:
161,302,11526,5,0,0:0:0:0:
229,353,11726,1,8,0:0:0:0:
299,304,11926,1,0,0:0:0:0:
273,222,12126,2,0,P|257:169|216:138,1,77.5,2|0,0:0|0:0,0:0:0:0:
189,221,12526,1,8,0:0:0:0:
290,87,12726,6,0,P|321:120|352:233,1,155,4|2,0:0|0:0,0:0:0:0:
299,305,13326,1,8,0:0:0:0:
407,305,13526,2,0,P|449:240|458:164,1,155,2|8,0:0|0:0,0:0:0:0:
343,78,14126,2,0,P|358:133|386:158,1,77.5,8|0,0:0|0:0,0:0:0:0:
428,84,14526,1,4,0:0:0:0:
391,7,14726,5,2,0:0:0:0:
343,78,14926,1,8,0:0:0:0:
261,103,15126,1,0,0:0:0:0:
176,93,15326,2,0,P|137:89|104:69,1,77.5,2|0,0:0|0:0,0:0:0:0:
165,9,15726,1,8,0:0:0:0:
248,29,15926,2,0,P|263:64|260:102,1,77.5,2|0,0:0|0:0,0:0:0:0:
216,175,16326,6,0,P|213:213|228:248,1,77.5,2|8,0:0|0:0,0:0:0:0:
298,198,16726,1,2,0:0:0:0:
216,175,16926,2,0,P|177:172|142:187,2,77.5,0|2|8,0:0|0:0|0:0,0:0:0:0:
298,198,17526,1,2,0:0:0:0:
380,175,17726,5,4,0:0:0:0:
427,245,17926,2,0,P|440:276|438:303,2,38.75,8|2|8,0:0|0:0|0:0,0:0:0:0:
380,175,18326,6,0,P|413:106|496:93,1,155,6|2,0:0|0:0,0:0:0:0:
463,173,18926,2,0,L|350:56,1,155,12|2,0:0|0:0,0:0:0:0:
293,2,19526,1,4,0:3:0:0:
233,102,19726,1,4,0:3:0:0:
171,5,19926,1,4,0:3:0:0:
110,65,20126,2,0,L|44:133,1,77.5,8|2,0:0|0:0,0:0:0:0:
105,178,20526,2,0,L|77:280,1,77.5,8|2,0:0|0:0,0:0:0:0:
141,316,20926,6,0,P|192:277|278:312,1,155,4|8,0:0|0:0,0:0:0:0:
338,357,21526,1,2,0:0:0:0:
422,343,21726,2,0,P|458:319|477:285,2,77.5,0|2|8,0:0|0:0|0:0,0:0:0:0:
394,261,22326,2,0,B|428:183|368:183|396:100,2,155,2|0|2,0:0|0:0|0:0,0:0:0:0:
322,217,23326,2,0,P|310:177|308:139,1,77.5,0|2,0:0|0:0,0:0:0:0:
241,237,23726,2,0,L|240:318,1,77.5,8|0,0:0|0:0,0:0:0:0:
158,217,24126,6,0,P|170:177|172:139,1,77.5,6|2,0:0|0:0,0:0:0:0:
178,56,24526,1,8,0:0:0:0:
100,90,24726,1,0,0:0:0:0:
171,141,24926,2,0,P|210:137|240:114,1,77.5,2|0,0:0|0:0,0:0:0:0:
318,79,25326,1,8,0:0:0:0:
403,82,25526,6,0,P|421:115|419:153,1,77.5,2|4,0:0|0:0,0:0:0:0:
394,236,25926,1,0,0:0:0:0:
329,291,26126,2,0,L|287:329,3,38.75,2|8|0|8,0:0|0:0|0:0|0:0,0:0:0:0:
269,287,26526,2,0,L|247:342,3,38.75,0|8|0|8,0:0|0:0|0:0|0:0,0:0:0:0:
216,303,26926,2,0,L|208:365,3,38.75,0|8|0|8,0:0|0:0|0:0|0:0,0:0:0:0:
177,359,27326,6,0,L|136:219,1,139.499995742798,2|0,0:0|0:0,0:0:0:0:
64,203,27926,2,0,P|117:212|182:151,1,139.499995742798,0|0,0:0|0:0,0:0:0:0:
229,101,28526,2,0,P|286:83|321:90,1,69.749997871399,2|0,0:0|0:0,0:0:0:0:
368,88,28926,5,0,0:0:0:0:
435,125,29126,1,2,0:0:0:0:
469,193,29326,1,0,0:0:0:0:
437,262,29526,1,0,0:0:0:0:
370,299,29726,2,0,P|304:319|217:280,1,139.499995742798,2|2,0:0|0:0,0:0:0:0:
86,318,30526,6,0,P|114:245|94:181,1,139.499995742798,0|0,0:0|0:0,0:0:0:0:
73,115,31126,2,0,P|166:65|219:81,1,139.499995742798,2|2,0:0|0:0,0:0:0:0:
261,110,31726,2,0,L|245:208,1,69.749997871399,0|0,0:0|0:0,0:0:0:0:
237,254,32126,1,2,0:0:0:0:
273,33,32526,1,0,0:0:0:0:
326,249,32926,1,2,0:0:0:0:
194,70,33326,1,2,0:0:0:0:
285,321,33726,6,0,P|351:335|420:297,1,139.499995742798,0|0,0:0|0:0,0:0:0:0:
456,237,34326,2,0,L|483:93,1,139.499995742798,2|2,0:0|0:0,0:0:0:0:
404,107,34926,2,0,L|388:188,1,69.749997871399,0|0,0:0|0:0,0:0:0:0:
337,232,35326,5,2,0:0:0:0:
266,262,35526,1,0,0:0:0:0:
189,269,35726,1,0,0:0:0:0:
114,252,35926,1,0,0:0:0:0:
64,193,36126,2,0,B|42:144|42:144|68:89|27:41,1,139.499995742798,2|2,0:0|0:0,0:0:0:0:
176,134,36926,6,0,P|237:87|319:109,1,139.499995742798,2|0,0:0|0:0,0:0:0:0:
364,126,37526,2,0,P|343:186|392:255,1,139.499995742798,2|0,0:0|0:0,0:0:0:0:
326,304,38126,2,0,P|297:285|262:282,1,69.749997871399,0|0,0:0|0:0,0:0:0:0:
256,192,38526,12,2,41726,0:0:0:0:
192,281,42726,6,0,P|258:304|339:258,1,139.499995742798,2|2,0:0|0:0,0:0:0:0:
396,229,43326,1,0,0:0:0:0:
256,42,43701,6,0,L|256:200,1,155,12|0,0:0|0:0,0:0:0:0:
256,290,44263,1,2,0:0:0:0:
366,246,44451,2,0,P|378:293|366:329,1,77.5,8|2,0:0|0:0,0:0:0:0:
256,290,44826,1,0,0:0:0:0:
145,245,45013,2,0,P|132:281|140:319,1,77.5,2|8,0:0|0:0,0:0:0:0:
256,290,45388,2,0,L|256:135,1,155,2|2,0:0|0:0,0:0:0:0:
294,62,45951,2,0,P|256:52|212:66,1,77.5,8|0,0:0|0:0,0:0:0:0:
189,183,46326,6,0,P|249:217|329:176,1,155,4|8,0:0|0:0,0:0:0:0:
358,115,46888,2,0,P|324:175|365:255,1,155,2|2,0:0|0:0,0:0:0:0:
406,183,47451,1,8,0:0:0:0:
358,115,47638,2,0,B|321:66|321:66|286:57|286:57|246:8,1,155,2|2,0:0|0:0,0:0:0:0:
182,70,48201,1,8,0:0:0:0:
112,124,48388,2,0,P|184:155|255:123,1,155,4|2,0:0|0:0,0:0:0:0:
251,13,48951,1,8,0:0:0:0:
251,127,49138,1,8,0:0:0:0:
356,75,49326,6,0,P|389:134|347:222,1,155,4|8,0:0|0:0,0:0:0:0:
293,264,49888,1,2,0:0:0:0:
225,211,50076,2,0,P|186:214|150:239,1,77.5,0|0,0:0|0:0,0:0:0:0:
215,293,50451,1,8,0:0:0:0:
292,263,50638,2,0,P|307:189|260:131,1,155,2|2,0:0|0:0,0:0:0:0:
186,173,51201,1,8,0:0:0:0:
100,172,51388,2,0,P|53:113|68:40,2,155,2|2|0,0:0|0:0|0:0,0:0:0:0:
186,173,52326,6,0,L|274:140,1,77.5,4|2,0:0|0:0,0:0:0:0:
388,171,52701,2,0,L|300:204,1,77.5,8|0,0:0|0:0,0:0:0:0:
187,248,53076,2,0,P|178:210|186:173,1,77.5,0|2,0:0|0:0,0:0:0:0:
313,123,53451,2,0,P|322:161|315:199,1,77.5,8|0,0:0|0:0,0:0:0:0:
245,304,53826,5,4,0:0:0:0:
119,282,54013,2,0,P|102:218|124:130,1,155,8|4,0:0|0:0,0:0:0:0:
393,102,54763,2,0,P|410:166|388:254,1,155,2|0,0:0|0:0,0:0:0:0:
298,224,55326,1,0,0:0:0:0:
264,48,55701,6,0,P|180:15|131:57,1,155,12|0,0:0|0:0,0:0:0:0:
171,126,56263,2,0,P|119:133|72:108,1,77.5,2|8,0:0|0:0,0:0:0:0:
59,202,56638,2,0,P|144:223|219:195,1,155,2|2,0:0|0:0,0:0:0:0:
290,174,57201,1,8,0:0:0:0:
366,211,57388,2,0,P|375:248|368:285,1,77.5,2|0,0:0|0:0,0:0:0:0:
289,318,57763,1,2,0:0:0:0:
210,287,57951,2,0,L|130:319,1,77.5,8|8,0:0|0:0,0:0:0:0:
145,230,58326,6,0,L|293:173,1,155,4|8,0:0|0:0,0:0:0:0:
387,145,58888,2,0,P|424:164|443:202,1,77.5,2|0,0:0|0:0,0:0:0:0:
360,231,59263,1,2,0:0:0:0:
297,168,59451,1,8,0:0:0:0:
274,249,59638,2,0,P|322:312|408:304,2,155,2|2|0,0:0|0:0|0:0,0:0:0:0:
297,168,60576,1,4,0:0:0:0:
199,285,60763,2,0,L|250:284,2,38.75
199,285,61138,6,0,B|163:285|163:285|128:230|173:155,1,155,2|0,0:0|0:0,0:0:0:0:
199,93,61701,2,0,P|215:47|207:3,1,77.5,8|0,0:0|0:0,0:0:0:0:
129,38,62076,1,4,0:0:0:0:
164,172,62263,1,0,0:0:0:0:
164,172,62638,6,0,B|200:172|200:172|235:227|190:302,1,155,2|0,0:0|0:0,0:0:0:0:
256,349,63201,2,0,P|302:333|346:341,1,77.5,8|0,0:0|0:0,0:0:0:0:
411,362,63576,1,4,0:0:0:0:
391,224,63763,1,0,0:0:0:0:
391,224,64138,2,0,P|368:173|275:173,1,155,2|0,0:0|0:0,0:0:0:0:
278,256,64701,6,0,L|203:305,1,77.5,8|2,0:0|0:0,0:0:0:0:
188,216,65076,2,0,L|97:238,1,77.5,0|0,0:0|0:0,0:0:0:0:
111,148,65451,1,8,0:0:0:0:
37,190,65638,2,0,P|49:295|85:317,1,155,2|2,0:0|0:0,0:0:0:0:
165,341,66201,2,0,P|197:332|257:351,1,77.5,8|0,0:0|0:0,0:0:0:0:
319,370,66576,5,4,0:0:0:0:
370,240,66763,2,0,P|319:242|306:234,2,38.75
370,240,67138,2,0,B|402:235|421:208|421:208|441:318,1,155,4|0,0:0|0:0,0:0:0:0:
507,332,67701,2,0,P|446:377|368:333,1,155,12|2,0:0|0:0,0:0:0:0:
322,285,68263,5,0,0:0:0:0:
320,114,68638,2,0,B|242:141|240:71|148:118,1,155,0|2,0:0|0:0,0:0:0:0:
117,177,69201,2,0,P|82:107|117:43,1,155,12|2,0:0|0:0,0:0:0:0:
192,25,69763,1,0,0:0:0:0:
117,177,70138,6,0,B|195:139|195:210|266:210|266:139|349:183,1,232.5,2|0,0:0|0:0,0:0:0:0:
392,247,70888,1,0,0:0:0:0:
337,313,71076,2,0,P|287:291|268:254,1,77.5,0|0,0:0|0:0,0:0:0:0:
203,320,71451,2,0,P|177:291|171:253,1,77.5,0|2,0:0|0:0,0:0:0:0:
88,232,71826,6,0,P|108:130|163:95,1,155,4|8,0:0|0:0,0:0:0:0:
226,79,72388,1,2,0:0:0:0:
311,79,72576,2,0,P|377:77|410:91,1,77.5,0|2,0:0|0:0,0:0:0:0:
346,155,72951,2,0,P|280:157|247:143,1,77.5,8|0,0:0|0:0,0:0:0:0:
226,79,73326,6,0,P|186:129|216:222,1,155,4|8,0:0|0:0,0:0:0:0:
256,280,73888,1,2,0:0:0:0:
339,261,74076,2,0,P|377:255|415:262,1,77.5,0|2,0:0|0:0,0:0:0:0:
456,337,74451,2,0,P|417:342|379:336,1,77.5,8|0,0:0|0:0,0:0:0:0:
256,280,74826,6,0,P|268:211|357:176,1,155,4|8,0:0|0:0,0:0:0:0:
422,188,75388,2,0,P|437:161|436:113,1,77.5,2|0,0:0|0:0,0:0:0:0:
354,92,75763,2,0,P|346:62|311:28,1,77.5,2|8,0:0|0:0,0:0:0:0:
256,192,76138,12,0,77451,0:0:0:0:
177,234,77826,6,0,P|136:196|94:196,1,77.5,2|0,0:0|0:0,0:0:0:0:
148,113,78201,2,0,P|193:99|214:68,1,77.5,2|0,0:0|0:0,0:0:0:0:
301,76,78576,2,0,P|326:104|364:113,1,77.5,2|0,0:0|0:0,0:0:0:0:
395,192,78951,2,0,P|359:204|335:234,1,77.5,2|0,0:0|0:0,0:0:0:0:
