osu file format v14

[General]
AudioFilename: Yuzo Koshiro - Lightning Dance.mp3
AudioLeadIn: 0
PreviewTime: 87601
Countdown: 1
SampleSet: None
StackLeniency: 0.7
Mode: 1
LetterboxInBreaks: 1
WidescreenStoryboard: 0

[Editor]
DistanceSpacing: 1.1
BeatDivisor: 4
GridSize: 32
TimelineZoom: 1.4

[Metadata]
Title:Lightning Dance
TitleUnicode:Lightning Dance
Artist:Yuzo Koshiro
ArtistUnicode:Yuzo Koshiro
Creator:-[ ix Ishida xi ]-
Version:Lightning
Source:
Tags:
BeatmapID:1086617
BeatmapSetID:511159

[Difficulty]
HPDrainRate:5
CircleSize:5
OverallDifficulty:5
ApproachRate:5
SliderMultiplier:1.4
SliderTickRate:1

[Events]
//Background and Video events
0,0,"need_for_speed___the_run_hd_2-wallpaper-1280x800.jpg",0,0
//Break Periods
//Storyboard Layer 0 (Background)
//Storyboard Layer 1 (Fail)
//Storyboard Layer 2 (Pass)
//Storyboard Layer 3 (Foreground)
//Storyboard Sound Samples

[TimingPoints]
543,392.156862745098,4,1,0,70,1,0
543,-142.857142857143,4,1,0,70,0,0
13092,-117.647058823529,4,1,0,70,0,0
19366,-100,4,1,0,70,0,0
25641,-66.6666666666667,4,1,0,70,0,1
36670,-83.3333333333333,4,1,0,70,0,0
36915,-86.9565217391304,4,1,0,70,0,0
37013,-90.9090909090909,4,1,0,70,0,0
37111,-95.2380952380952,4,1,0,70,0,0
37307,-100,4,1,0,70,0,0
37503,-105.263157894737,4,1,0,70,0,0
37601,-111.111111111111,4,1,0,70,0,0
37699,-117.647058823529,4,1,0,70,0,0
37797,-125,4,1,0,70,0,0
37895,-133.333333333333,4,1,0,70,0,0
38190,-33.3333333333333,4,1,0,70,0,1
38288,-66.6666666666667,4,1,0,70,0,1
50788,-125,4,1,0,70,0,0
63288,-100,4,1,0,70,0,0
63680,-66.6666666666667,4,1,0,70,0,0
63876,-100,4,1,0,70,0,0
64072,-66.6666666666667,4,1,0,70,0,0
64268,-100,4,1,0,70,0,0
64464,-66.6666666666667,4,1,0,70,0,0
64660,-100,4,1,0,70,0,0
64856,-66.6666666666667,4,1,0,70,0,0
65052,-100,4,1,0,70,0,0
65248,-66.6666666666667,4,1,0,70,0,0
65444,-100,4,1,0,70,0,0
65641,-66.6666666666667,4,1,0,70,0,0
65837,-100,4,1,0,70,0,0
66033,-66.6666666666667,4,1,0,70,0,0
66229,-100,4,1,0,70,0,0
66425,-66.6666666666667,4,1,0,70,0,0
66621,-100,4,1,0,70,0,0
66817,-66.6666666666667,4,1,0,70,0,0
67013,-100,4,1,0,70,0,0
67209,-66.6666666666667,4,1,0,70,0,0
67405,-100,4,1,0,70,0,0
67601,-66.6666666666667,4,1,0,70,0,0
67797,-100,4,1,0,70,0,0
67993,-66.6666666666667,4,1,0,70,0,0
68190,-100,4,1,0,70,0,0
68386,-66.6666666666667,4,1,0,70,0,0
68582,-100,4,1,0,70,0,0
68778,-66.6666666666667,4,1,0,70,0,0
69366,-50,4,1,0,70,0,0
69562,-40,4,1,0,70,0,0
69660,-125,4,1,0,70,0,0
75837,-117.647058823529,4,1,0,70,0,0
77405,-111.111111111111,4,1,0,70,0,0
78974,-105.263157894737,4,1,0,70,0,0
80543,-100,4,1,0,70,0,0
82111,-95.2380952380952,4,1,0,70,0,0
82895,-90.9090909090909,4,1,0,70,0,0
83680,-86.9565217391304,4,1,0,70,0,0
84464,-83.3333333333333,4,1,0,70,0,0
85248,-80,4,1,0,70,0,0
85641,-76.9230769230769,4,1,0,70,0,0
86033,-74.0740740740741,4,1,0,70,0,0
86425,-71.4285714285714,4,1,0,70,0,0
86817,-68.9655172413793,4,1,0,70,0,0
87601,-50,4,1,0,70,0,0
87650,-52.6315789473684,4,1,0,70,0,0
87699,-55.5555555555556,4,1,0,70,0,0
87748,-58.8235294117647,4,1,0,70,0,0
87797,-62.5,4,1,0,70,0,0
87863,-66.6666666666667,4,1,0,70,0,0
87928,-71.4285714285714,4,1,0,70,0,0
87993,-76.9230769230769,4,1,0,70,0,0
88092,-83.3333333333333,4,1,0,70,0,0
88190,-90.9090909090909,4,1,0,70,0,0
88386,-133.333333333333,4,1,0,70,0,0
100935,-100,4,1,0,70,0,0
113484,-66.6666666666667,4,1,0,70,0,0
113974,-100,4,1,0,70,0,0
116621,-66.6666666666667,4,1,0,70,0,0
117111,-100,4,1,0,70,0,0
119758,-66.6666666666667,4,1,0,70,0,0
120248,-100,4,1,0,70,0,0
122895,-66.6666666666667,4,1,0,70,0,0
123386,-100,4,1,0,70,0,0
126033,-66.6666666666667,4,1,0,70,0,0
138582,-71.4285714285714,4,1,0,70,0,0
138680,-76.9230769230769,4,1,0,70,0,1
138778,-83.3333333333333,4,1,0,70,0,1
138974,-76.9230769230769,4,1,0,70,0,1
139072,-71.4285714285714,4,1,0,70,0,1
139170,-66.6666666666667,4,1,0,70,0,1
139366,-62.5,4,1,0,70,0,1
139464,-66.6666666666667,4,1,0,70,0,1
139562,-71.4285714285714,4,1,0,70,0,1
139660,-76.9230769230769,4,1,0,70,0,1
139856,-83.3333333333333,4,1,0,70,0,1
139954,-90.9090909090909,4,1,0,70,0,1
140052,-100,4,1,0,70,0,1
140150,-90.9090909090909,4,1,0,70,0,1
140248,-83.3333333333333,4,1,0,70,0,1
140346,-76.9230769230769,4,1,0,70,0,1
140542,-71.4285714285714,4,1,0,70,0,1
140641,-66.6666666666667,4,1,0,70,0,1
140739,-62.5,4,1,0,70,0,1
140935,-58.8235294117647,4,1,0,70,0,1
141033,-62.5,4,1,0,70,0,1
141131,-66.6666666666667,4,1,0,70,0,1
141229,-71.4285714285714,4,1,0,70,0,1
141425,-76.9230769230769,4,1,0,70,0,1
141523,-83.3333333333333,4,1,0,70,0,1
141621,-90.9090909090909,4,1,0,70,0,1
141719,-83.3333333333333,4,1,0,70,0,1
141817,-76.9230769230769,4,1,0,70,0,1
141915,-71.4285714285714,4,1,0,70,0,1
142111,-66.6666666666667,4,1,0,70,0,1
142209,-62.5,4,1,0,70,0,1
142307,-58.8235294117647,4,1,0,70,0,1
142503,-55.5555555555556,4,1,0,70,0,1
142601,-58.8235294117647,4,1,0,70,0,1
142699,-62.5,4,1,0,70,0,1
142797,-66.6666666666667,4,1,0,70,0,1
142993,-71.4285714285714,4,1,0,70,0,1
143092,-76.9230769230769,4,1,0,70,0,1
143190,-83.3333333333333,4,1,0,70,0,1
143288,-90.9090909090909,4,1,0,70,0,1
143484,-83.3333333333333,4,1,0,70,0,1
143680,-76.9230769230769,4,1,0,70,0,1
143778,-71.4285714285714,4,1,0,70,0,1
143876,-66.6666666666667,4,1,0,70,0,1
144072,-62.5,4,1,0,70,0,1
144170,-66.6666666666667,4,1,0,70,0,1
144268,-71.4285714285714,4,1,0,70,0,1
144366,-76.9230769230769,4,1,0,70,0,1
144464,-83.3333333333333,4,1,0,70,0,1
144562,-90.9090909090909,4,1,0,70,0,1
144660,-100,4,1,0,70,0,1
144758,-111.111111111111,4,1,0,70,0,1
144856,-100,4,1,0,70,0,1
144954,-90.9090909090909,4,1,0,70,0,1
145052,-83.3333333333333,4,1,0,70,0,1
145248,-76.9230769230769,4,1,0,70,0,1
145346,-71.4285714285714,4,1,0,70,0,1
145444,-66.6666666666667,4,1,0,70,0,1
145641,-62.5,4,1,0,70,0,1
145739,-66.6666666666667,4,1,0,70,0,1
145837,-71.4285714285714,4,1,0,70,0,1
145935,-76.9230769230769,4,1,0,70,0,1
146131,-83.3333333333333,4,1,0,70,0,1
146229,-90.9090909090909,4,1,0,70,0,1
146327,-100,4,1,0,70,0,1
146425,-90.9090909090909,4,1,0,70,0,1
146523,-83.3333333333333,4,1,0,70,0,1
146621,-76.9230769230769,4,1,0,70,0,1
146817,-71.4285714285714,4,1,0,70,0,1
146915,-66.6666666666667,4,1,0,70,0,1
147013,-62.5,4,1,0,70,0,1
147209,-58.8235294117647,4,1,0,70,0,1
147307,-62.5,4,1,0,70,0,1
147405,-66.6666666666667,4,1,0,70,0,1
147503,-71.4285714285714,4,1,0,70,0,1
147601,-76.9230769230769,4,1,0,70,0,1
147699,-83.3333333333333,4,1,0,70,0,1
147797,-90.9090909090909,4,1,0,70,0,1
147993,-83.3333333333333,4,1,0,70,0,1
148092,-76.9230769230769,4,1,0,70,0,1
148190,-71.4285714285714,4,1,0,70,0,1
148386,-66.6666666666667,4,1,0,70,0,1
148484,-62.5,4,1,0,70,0,1
148582,-58.8235294117647,4,1,0,70,0,1
148778,-55.5555555555556,4,1,0,70,0,1
148876,-58.8235294117647,4,1,0,70,0,1
148974,-62.5,4,1,0,70,0,1
149072,-66.6666666666667,4,1,0,70,0,1
149268,-71.4285714285714,4,1,0,70,0,1
149366,-76.9230769230769,4,1,0,70,0,1
149464,-83.3333333333333,4,1,0,70,0,1
149562,-90.9090909090909,4,1,0,70,0,1
149758,-83.3333333333333,4,1,0,70,0,1
149954,-76.9230769230769,4,1,0,70,0,1
150052,-71.4285714285714,4,1,0,70,0,1
150150,-66.6666666666667,4,1,0,70,0,1
150346,-62.5,4,1,0,70,0,1
150542,-58.8235294117647,4,1,0,70,0,1
150641,-55.5555555555556,4,1,0,70,0,1
150739,-52.6315789473684,4,1,0,70,0,1
150935,-47.6190476190476,4,1,0,70,0,1
151131,-43.4782608695652,4,1,0,70,0,1
151327,-46.5116279069767,4,1,0,70,0,1
151523,-50,4,1,0,70,0,1
151719,-54.054054054054,4,1,0,70,0,1
151915,-58.8235294117647,4,1,0,70,0,1
152111,-64.5161290322581,4,1,0,70,0,1
152307,-71.4285714285714,4,1,0,70,0,1
152503,-80,4,1,0,70,0,1
152699,-90.9090909090909,4,1,0,70,0,1
152895,-100,4,1,0,70,0,1
153092,-111.111111111111,4,1,0,70,0,1
153288,-125,4,1,0,70,0,1
153484,-142.857142857143,4,1,0,70,0,1
153680,-166.666666666667,4,1,0,70,0,1
153778,-181.818181818182,4,1,0,70,0,1
153876,-200,4,1,0,70,0,1
154072,-250,4,1,0,70,0,1
154268,-333.333333333333,4,1,0,70,0,1
160542,-333.333333333333,4,1,0,70,0,0

[HitObjects]
256,192,543,5,12,0:0:0:0:
256,96,935,1,8,0:0:0:0:
256,96,1327,1,8,0:0:0:0:
160,64,1621,1,8,0:0:0:0:
256,96,1719,1,8,0:0:0:0:
256,96,1915,1,8,0:0:0:0:
256,96,2111,1,8,0:0:0:0:
256,224,2307,1,8,0:0:0:0:
288,96,2503,1,8,0:0:0:0:
288,128,2895,1,8,0:0:0:0:
288,128,2993,1,8,0:0:0:0:
288,128,3092,1,8,0:0:0:0:
288,128,3190,1,8,0:0:0:0:
288,128,3386,1,8,0:0:0:0:
288,128,3484,1,8,0:0:0:0:
288,128,3680,1,8,0:0:0:0:
256,128,4072,1,8,0:0:0:0:
256,128,4464,1,8,0:0:0:0:
256,128,4758,1,8,0:0:0:0:
256,128,4856,1,8,0:0:0:0:
256,128,5052,1,8,0:0:0:0:
256,128,5248,1,8,0:0:0:0:
256,128,5641,1,8,0:0:0:0:
384,160,6033,1,8,0:0:0:0:
384,160,6131,1,8,0:0:0:0:
384,160,6327,1,8,0:0:0:0:
288,160,6523,1,8,0:0:0:0:
288,160,6621,1,8,0:0:0:0:
320,160,6817,1,12,0:0:0:0:
320,160,7209,1,8,0:0:0:0:
320,160,7601,1,8,0:0:0:0:
320,160,7895,1,8,0:0:0:0:
224,128,7993,1,8,0:0:0:0:
320,160,8190,1,8,0:0:0:0:
320,160,8386,1,12,0:0:0:0:
256,160,8778,1,8,0:0:0:0:
256,192,9170,1,8,0:0:0:0:
256,192,9268,1,8,0:0:0:0:
256,192,9366,1,8,0:0:0:0:
256,192,9464,1,8,0:0:0:0:
256,192,9660,1,8,0:0:0:0:
320,160,9758,1,8,0:0:0:0:
320,160,9954,1,12,0:0:0:0:
256,192,10248,1,8,0:0:0:0:
256,192,10346,1,8,0:0:0:0:
320,160,10543,1,8,0:0:0:0:
224,64,10739,1,12,0:0:0:0:
256,192,10935,1,8,0:0:0:0:
256,192,11033,1,8,0:0:0:0:
256,192,11229,1,8,0:0:0:0:
224,64,11327,1,8,0:0:0:0:
224,64,11523,1,12,0:0:0:0:
192,96,11817,1,8,0:0:0:0:
256,192,12013,1,8,0:0:0:0:
192,96,12111,1,8,0:0:0:0:
224,96,12307,1,12,0:0:0:0:
224,96,12699,1,12,0:0:0:0:
256,128,12895,1,8,0:0:0:0:
256,128,12993,1,8,0:0:0:0:
256,192,13092,1,4,0:0:0:0:
224,96,13484,1,0,0:0:0:0:
256,192,13876,1,0,0:0:0:0:
224,96,14072,1,8,0:0:0:0:
224,96,14170,1,0,0:0:0:0:
224,96,14464,1,0,0:0:0:0:
224,96,14660,1,0,0:0:0:0:
224,96,15052,1,0,0:0:0:0:
224,96,15444,1,0,0:0:0:0:
288,96,15739,1,8,0:0:0:0:
288,96,15837,1,0,0:0:0:0:
288,96,16033,1,0,0:0:0:0:
288,96,16229,1,0,0:0:0:0:
288,128,16621,1,0,0:0:0:0:
288,128,17013,1,0,0:0:0:0:
288,128,17209,1,8,0:0:0:0:
288,128,17307,1,0,0:0:0:0:
288,128,17601,1,0,0:0:0:0:
288,128,17797,1,0,0:0:0:0:
320,160,18190,1,0,0:0:0:0:
288,160,18386,1,8,0:0:0:0:
288,160,18484,1,8,0:0:0:0:
288,160,18582,1,0,0:0:0:0:
288,160,18778,1,8,0:0:0:0:
288,160,18876,1,0,0:0:0:0:
288,160,19072,1,8,0:0:0:0:
288,160,19170,1,0,0:0:0:0:
288,160,19366,1,0,0:0:0:0:
320,192,19758,1,0,0:0:0:0:
320,192,20150,1,0,0:0:0:0:
320,192,20346,1,8,0:0:0:0:
320,192,20444,1,0,0:0:0:0:
320,192,20739,1,0,0:0:0:0:
320,192,20935,1,0,0:0:0:0:
320,160,21131,1,8,0:0:0:0:
320,160,21327,1,0,0:0:0:0:
288,128,21719,1,0,0:0:0:0:
288,128,22013,1,8,0:0:0:0:
288,128,22111,1,0,0:0:0:0:
288,128,22307,1,0,0:0:0:0:
288,128,22503,1,0,0:0:0:0:
320,160,22699,1,8,0:0:0:0:
320,160,22895,1,0,0:0:0:0:
320,160,23288,1,0,0:0:0:0:
224,128,23484,1,8,0:0:0:0:
224,128,23582,1,0,0:0:0:0:
192,192,23876,1,0,0:0:0:0:
352,160,24072,1,0,0:0:0:0:
352,160,24268,1,8,0:0:0:0:
352,160,24366,1,0,0:0:0:0:
352,160,24464,1,0,0:0:0:0:
352,160,24660,1,8,0:0:0:0:
352,160,24758,1,0,0:0:0:0:
192,96,24856,1,8,0:0:0:0:
320,96,24922,1,8,0:0:0:0:
320,96,24987,1,8,0:0:0:0:
320,96,25052,1,8,0:0:0:0:
320,96,25118,1,8,0:0:0:0:
320,96,25183,1,8,0:0:0:0:
320,96,25248,1,8,0:0:0:0:
320,96,25444,1,8,0:0:0:0:
320,96,25641,1,4,0:0:0:0:
192,128,25935,1,8,0:0:0:0:
192,128,26033,1,0,0:0:0:0:
192,128,26425,1,0,0:0:0:0:
192,128,26523,1,8,0:0:0:0:
192,128,26621,1,8,0:0:0:0:
192,128,26719,1,0,0:0:0:0:
192,128,26915,1,8,0:0:0:0:
192,128,27013,1,0,0:0:0:0:
192,128,27209,1,0,0:0:0:0:
256,96,27405,1,8,0:0:0:0:
256,96,27503,1,8,0:0:0:0:
256,96,27601,1,0,0:0:0:0:
256,96,27993,1,0,0:0:0:0:
256,96,28190,1,8,0:0:0:0:
256,96,28288,1,0,0:0:0:0:
256,96,28484,1,8,0:0:0:0:
256,96,28582,1,0,0:0:0:0:
256,96,28778,1,0,0:0:0:0:
256,96,29072,1,8,0:0:0:0:
256,96,29170,1,0,0:0:0:0:
256,96,29366,1,8,0:0:0:0:
256,96,29464,1,8,0:0:0:0:
256,96,29562,1,0,0:0:0:0:
256,96,29660,1,8,0:0:0:0:
256,96,29758,1,8,0:0:0:0:
256,96,29856,1,0,0:0:0:0:
192,64,30052,1,8,0:0:0:0:
192,64,30150,1,0,0:0:0:0:
192,64,30346,1,0,0:0:0:0:
160,96,30542,1,8,0:0:0:0:
160,96,30641,1,0,0:0:0:0:
160,96,30837,1,8,0:0:0:0:
160,96,30935,1,0,0:0:0:0:
160,96,31131,1,8,0:0:0:0:
160,96,31229,1,0,0:0:0:0:
160,96,31425,1,8,0:0:0:0:
160,96,31523,1,0,0:0:0:0:
128,128,31719,1,8,0:0:0:0:
128,128,31817,1,8,0:0:0:0:
160,96,31915,1,4,0:0:0:0:
224,128,32111,1,8,0:0:0:0:
224,128,32307,1,0,0:0:0:0:
256,160,32699,1,0,0:0:0:0:
256,160,32797,1,8,0:0:0:0:
256,160,32895,1,8,0:0:0:0:
256,160,32993,1,0,0:0:0:0:
320,128,33190,1,8,0:0:0:0:
320,128,33288,1,0,0:0:0:0:
320,128,33484,1,0,0:0:0:0:
288,128,33680,1,8,0:0:0:0:
288,128,33778,1,8,0:0:0:0:
288,128,33876,1,0,0:0:0:0:
288,160,34170,1,8,0:0:0:0:
288,160,34268,1,0,0:0:0:0:
288,160,34464,1,8,0:0:0:0:
288,160,34562,1,0,0:0:0:0:
288,160,34758,1,8,0:0:0:0:
288,160,34856,1,0,0:0:0:0:
288,160,35052,1,0,0:0:0:0:
288,160,35248,1,8,0:0:0:0:
288,160,35444,1,0,0:0:0:0:
288,160,35641,1,8,0:0:0:0:
288,160,35739,1,8,0:0:0:0:
288,160,35837,1,0,0:0:0:0:
288,160,35935,1,8,0:0:0:0:
288,160,36033,1,8,0:0:0:0:
288,160,36131,1,0,0:0:0:0:
288,160,36327,1,8,0:0:0:0:
288,160,36425,1,0,0:0:0:0:
288,160,36523,1,8,0:0:0:0:
288,160,36621,1,0,0:0:0:0:
256,160,36817,1,0,0:0:0:0:
256,160,36915,1,8,0:0:0:0:
256,160,37013,1,8,0:0:0:0:
256,160,37209,1,8,0:0:0:0:
288,160,37405,1,8,0:0:0:0:
256,160,37503,1,8,0:0:0:0:
256,160,37601,1,8,0:0:0:0:
256,160,37699,1,8,0:0:0:0:
256,160,37797,1,8,0:0:0:0:
256,160,37993,1,8,0:0:0:0:
256,160,38190,1,4,0:0:0:0:
192,160,38386,1,0,0:0:0:0:
256,160,38484,1,0,0:0:0:0:
256,160,38582,1,8,0:0:0:0:
256,160,38778,1,8,0:0:0:0:
256,160,38876,1,8,0:0:0:0:
256,160,38974,1,0,0:0:0:0:
192,160,39170,1,0,0:0:0:0:
256,160,39268,1,0,0:0:0:0:
256,160,39366,1,8,0:0:0:0:
256,160,39562,1,8,0:0:0:0:
256,160,39660,1,8,0:0:0:0:
256,160,39758,1,0,0:0:0:0:
192,160,39954,1,0,0:0:0:0:
256,192,40052,1,0,0:0:0:0:
256,192,40150,1,8,0:0:0:0:
224,160,40346,1,8,0:0:0:0:
224,160,40444,1,8,0:0:0:0:
224,160,40543,1,0,0:0:0:0:
224,160,40641,1,8,0:0:0:0:
224,160,40739,1,8,0:0:0:0:
224,160,40837,1,0,0:0:0:0:
224,160,41033,1,8,0:0:0:0:
224,160,41131,1,0,0:0:0:0:
224,160,41327,1,0,0:0:0:0:
192,192,41523,1,0,0:0:0:0:
192,192,41621,1,0,0:0:0:0:
192,192,41719,1,8,0:0:0:0:
192,192,41915,1,8,0:0:0:0:
192,192,42013,1,8,0:0:0:0:
192,192,42111,1,0,0:0:0:0:
192,192,42307,1,0,0:0:0:0:
192,192,42405,1,0,0:0:0:0:
192,192,42503,1,8,0:0:0:0:
192,192,42699,1,8,0:0:0:0:
192,192,42797,1,8,0:0:0:0:
192,192,42895,1,0,0:0:0:0:
192,224,43092,1,8,0:0:0:0:
192,224,43190,1,0,0:0:0:0:
192,224,43386,1,8,0:0:0:0:
192,224,43484,1,0,0:0:0:0:
192,224,43680,1,8,0:0:0:0:
192,224,43778,1,0,0:0:0:0:
192,224,43974,1,8,0:0:0:0:
192,224,44072,1,0,0:0:0:0:
192,192,44268,1,8,0:0:0:0:
192,224,44464,1,4,0:0:0:0:
192,192,44660,1,0,0:0:0:0:
192,192,44758,1,0,0:0:0:0:
192,192,44856,1,8,0:0:0:0:
192,192,45052,1,8,0:0:0:0:
192,192,45150,1,8,0:0:0:0:
192,192,45248,1,0,0:0:0:0:
192,192,45444,1,0,0:0:0:0:
192,192,45543,1,0,0:0:0:0:
192,192,45641,1,8,0:0:0:0:
416,96,45837,1,8,0:0:0:0:
416,96,45935,1,8,0:0:0:0:
416,96,46033,1,0,0:0:0:0:
384,160,46229,1,0,0:0:0:0:
384,160,46327,1,0,0:0:0:0:
384,160,46425,1,8,0:0:0:0:
384,160,46621,1,8,0:0:0:0:
384,160,46719,1,8,0:0:0:0:
384,160,46817,1,0,0:0:0:0:
352,96,46915,1,8,0:0:0:0:
256,96,47013,1,8,0:0:0:0:
352,96,47111,1,0,0:0:0:0:
256,96,47209,1,8,0:0:0:0:
256,96,47307,1,8,0:0:0:0:
256,96,47405,1,0,0:0:0:0:
256,96,47503,1,0,0:0:0:0:
256,96,47601,1,8,0:0:0:0:
256,96,47797,1,0,0:0:0:0:
160,64,47895,1,0,0:0:0:0:
256,96,47993,1,8,0:0:0:0:
288,96,48190,1,0,0:0:0:0:
288,96,48288,1,0,0:0:0:0:
288,96,48386,1,8,0:0:0:0:
288,96,48582,1,0,0:0:0:0:
288,96,48680,1,0,0:0:0:0:
288,96,48778,1,8,0:0:0:0:
320,128,48974,1,0,0:0:0:0:
96,128,49072,1,8,0:0:0:0:
320,128,49170,1,8,0:0:0:0:
384,96,49235,1,0,0:0:0:0:
384,96,49301,1,0,0:0:0:0:
384,96,49366,1,0,0:0:0:0:
384,96,49431,1,8,0:0:0:0:
384,96,49497,1,8,0:0:0:0:
384,96,49562,1,8,0:0:0:0:
384,96,49627,1,0,0:0:0:0:
384,96,49693,1,0,0:0:0:0:
384,96,49758,1,0,0:0:0:0:
384,96,49824,1,8,0:0:0:0:
384,96,49889,1,8,0:0:0:0:
384,96,49954,1,8,0:0:0:0:
384,96,50020,1,0,0:0:0:0:
384,96,50085,1,0,0:0:0:0:
384,96,50150,1,0,0:0:0:0:
384,96,50216,1,8,0:0:0:0:
384,96,50281,1,8,0:0:0:0:
384,96,50346,1,8,0:0:0:0:
224,96,50543,1,0,0:0:0:0:
352,160,50739,1,4,0:0:0:0:
320,160,51033,1,8,0:0:0:0:
352,160,51131,1,0,0:0:0:0:
320,160,51327,1,8,0:0:0:0:
352,160,51523,1,0,0:0:0:0:
320,160,51621,1,8,0:0:0:0:
352,160,51915,1,0,0:0:0:0:
288,224,52111,1,8,0:0:0:0:
352,160,52307,1,0,0:0:0:0:
288,224,52601,1,8,0:0:0:0:
288,224,52699,1,0,0:0:0:0:
288,224,52895,1,8,0:0:0:0:
288,224,53092,1,0,0:0:0:0:
160,96,53190,1,8,0:0:0:0:
224,160,53386,1,8,0:0:0:0:
288,224,53484,1,0,0:0:0:0:
288,224,53680,1,8,0:0:0:0:
288,224,53876,1,0,0:0:0:0:
288,224,54170,1,8,0:0:0:0:
288,224,54268,1,0,0:0:0:0:
288,224,54464,1,8,0:0:0:0:
288,224,54660,1,0,0:0:0:0:
288,224,54758,1,8,0:0:0:0:
416,224,54856,1,8,0:0:0:0:
288,224,54954,1,8,0:0:0:0:
288,224,55052,1,0,0:0:0:0:
288,224,55248,1,8,0:0:0:0:
384,224,55346,1,8,0:0:0:0:
288,224,55444,1,0,0:0:0:0:
224,96,55739,1,8,0:0:0:0:
224,96,55837,1,0,0:0:0:0:
224,96,56033,1,8,0:0:0:0:
256,192,56131,1,8,0:0:0:0:
224,128,56229,1,0,0:0:0:0:
416,128,56327,1,8,0:0:0:0:
224,128,56523,1,8,0:0:0:0:
224,128,56621,1,0,0:0:0:0:
192,192,56719,1,0,0:0:0:0:
224,160,56817,1,8,0:0:0:0:
256,224,57013,1,4,0:0:0:0:
256,224,57307,1,8,0:0:0:0:
256,224,57405,1,0,0:0:0:0:
256,224,57601,1,8,0:0:0:0:
256,224,57797,1,0,0:0:0:0:
256,224,57895,1,8,0:0:0:0:
224,160,57993,1,8,0:0:0:0:
224,160,58092,1,8,0:0:0:0:
256,224,58190,1,0,0:0:0:0:
256,224,58386,1,8,0:0:0:0:
352,96,58484,1,8,0:0:0:0:
224,128,58582,1,0,0:0:0:0:
352,96,58876,1,8,0:0:0:0:
352,96,58974,1,0,0:0:0:0:
352,96,59170,1,8,0:0:0:0:
352,96,59268,1,8,0:0:0:0:
352,96,59366,1,0,0:0:0:0:
352,96,59464,1,8,0:0:0:0:
352,96,59562,1,8,0:0:0:0:
352,96,59660,1,8,0:0:0:0:
352,96,59758,1,0,0:0:0:0:
352,128,59954,1,8,0:0:0:0:
320,128,60052,1,8,0:0:0:0:
352,128,60150,1,0,0:0:0:0:
64,160,60346,1,8,0:0:0:0:
64,160,60444,1,0,0:0:0:0:
64,160,60641,1,8,0:0:0:0:
64,160,60739,1,0,0:0:0:0:
64,160,60935,1,8,0:0:0:0:
64,160,61033,1,0,0:0:0:0:
64,160,61229,1,8,0:0:0:0:
64,160,61327,1,0,0:0:0:0:
64,160,61523,1,0,0:0:0:0:
64,160,61719,1,0,0:0:0:0:
64,160,61915,1,8,0:0:0:0:
64,160,62013,1,0,0:0:0:0:
64,160,62209,1,8,0:0:0:0:
64,160,62307,1,0,0:0:0:0:
64,160,62503,1,8,0:0:0:0:
64,160,62601,1,0,0:0:0:0:
64,160,62797,1,8,0:0:0:0:
64,160,62895,1,0,0:0:0:0:
320,160,63092,1,8,0:0:0:0:
448,128,63190,1,8,0:0:0:0:
64,160,63288,1,0,0:0:0:0:
448,128,63484,1,8,0:0:0:0:
448,128,63582,1,8,0:0:0:0:
320,160,63680,1,0,0:0:0:0:
256,160,63745,1,0,0:0:0:0:
160,64,63810,1,0,0:0:0:0:
192,96,63876,1,8,0:0:0:0:
192,64,63974,1,8,0:0:0:0:
192,128,64072,1,0,0:0:0:0:
192,128,64137,1,0,0:0:0:0:
192,128,64203,1,0,0:0:0:0:
224,160,64268,1,8,0:0:0:0:
224,160,64366,1,8,0:0:0:0:
224,128,64464,1,0,0:0:0:0:
224,128,64529,1,0,0:0:0:0:
224,128,64595,1,0,0:0:0:0:
224,160,64660,1,8,0:0:0:0:
224,160,64758,1,8,0:0:0:0:
288,96,64856,1,0,0:0:0:0:
288,96,64922,1,0,0:0:0:0:
288,96,64987,1,0,0:0:0:0:
224,160,65052,1,8,0:0:0:0:
224,160,65150,1,8,0:0:0:0:
288,128,65248,1,0,0:0:0:0:
288,128,65314,1,0,0:0:0:0:
288,128,65379,1,0,0:0:0:0:
224,160,65444,1,8,0:0:0:0:
224,160,65543,1,8,0:0:0:0:
224,96,65641,1,0,0:0:0:0:
224,96,65706,1,0,0:0:0:0:
224,96,65771,1,0,0:0:0:0:
224,160,65837,1,8,0:0:0:0:
224,160,65935,1,8,0:0:0:0:
256,64,66033,1,0,0:0:0:0:
256,64,66098,1,0,0:0:0:0:
256,64,66163,1,0,0:0:0:0:
224,160,66229,1,8,0:0:0:0:
224,160,66327,1,8,0:0:0:0:
224,32,66425,1,0,0:0:0:0:
224,160,66621,1,8,0:0:0:0:
224,160,66719,1,8,0:0:0:0:
288,64,66817,1,0,0:0:0:0:
288,64,66882,1,0,0:0:0:0:
288,64,66948,1,0,0:0:0:0:
224,160,67013,1,8,0:0:0:0:
224,160,67111,1,8,0:0:0:0:
288,64,67209,1,0,0:0:0:0:
288,64,67275,1,0,0:0:0:0:
288,64,67340,1,0,0:0:0:0:
224,160,67405,1,8,0:0:0:0:
224,160,67503,1,8,0:0:0:0:
288,64,67601,1,0,0:0:0:0:
288,64,67667,1,0,0:0:0:0:
288,64,67732,1,0,0:0:0:0:
224,160,67797,1,8,0:0:0:0:
224,160,67895,1,8,0:0:0:0:
288,64,67993,1,0,0:0:0:0:
288,64,68059,1,0,0:0:0:0:
288,64,68124,1,0,0:0:0:0:
192,96,68190,1,8,0:0:0:0:
192,96,68288,1,8,0:0:0:0:
256,64,68386,1,0,0:0:0:0:
256,64,68451,1,0,0:0:0:0:
256,64,68516,1,0,0:0:0:0:
192,96,68582,1,8,0:0:0:0:
192,96,68680,1,8,0:0:0:0:
352,160,68778,1,0,0:0:0:0:
352,160,68843,1,0,0:0:0:0:
352,160,68909,1,0,0:0:0:0:
352,160,68974,1,0,0:0:0:0:
352,160,69039,1,0,0:0:0:0:
352,160,69105,1,0,0:0:0:0:
352,160,69170,1,8,0:0:0:0:
352,160,69366,1,8,0:0:0:0:
352,128,69562,1,12,0:0:0:0:
352,128,69758,1,0,0:0:0:0:
352,128,69856,1,8,0:0:0:0:
352,128,70052,1,0,0:0:0:0:
352,128,70150,1,8,0:0:0:0:
352,128,70346,1,0,0:0:0:0:
352,128,70444,1,8,0:0:0:0:
352,128,70641,1,0,0:0:0:0:
352,128,70739,1,8,0:0:0:0:
352,128,70837,1,0,0:0:0:0:
352,128,70935,1,8,0:0:0:0:
352,128,71131,1,8,0:0:0:0:
224,128,71327,1,0,0:0:0:0:
224,128,71425,1,8,0:0:0:0:
224,128,71621,1,0,0:0:0:0:
224,128,71719,1,8,0:0:0:0:
224,128,71915,1,0,0:0:0:0:
224,128,72013,1,8,0:0:0:0:
224,128,72111,1,8,0:0:0:0:
224,128,72209,1,0,0:0:0:0:
224,128,72307,1,8,0:0:0:0:
224,128,72503,1,8,0:0:0:0:
224,128,72699,1,8,0:0:0:0:
224,128,72895,1,0,0:0:0:0:
224,128,72993,1,8,0:0:0:0:
224,128,73190,1,0,0:0:0:0:
224,128,73288,1,8,0:0:0:0:
224,128,73484,1,0,0:0:0:0:
224,128,73582,1,8,0:0:0:0:
224,128,73778,1,0,0:0:0:0:
224,128,73876,1,8,0:0:0:0:
224,128,74072,1,8,0:0:0:0:
320,96,74170,1,8,0:0:0:0:
224,128,74268,1,8,0:0:0:0:
320,96,74366,1,0,0:0:0:0:
320,96,74464,1,0,0:0:0:0:
320,96,74562,1,8,0:0:0:0:
320,96,74660,1,0,0:0:0:0:
320,96,74758,1,0,0:0:0:0:
320,96,74856,1,8,0:0:0:0:
320,96,75052,1,0,0:0:0:0:
320,96,75150,1,8,0:0:0:0:
320,96,75248,1,0,0:0:0:0:
320,96,75346,1,0,0:0:0:0:
320,96,75444,1,8,0:0:0:0:
320,96,75543,1,8,0:0:0:0:
448,128,75641,1,8,0:0:0:0:
448,128,75739,1,8,0:0:0:0:
448,128,75837,1,12,0:0:0:0:
448,128,76033,1,0,0:0:0:0:
448,128,76131,1,8,0:0:0:0:
448,128,76327,1,0,0:0:0:0:
448,128,76425,1,8,0:0:0:0:
160,96,76621,1,0,0:0:0:0:
160,96,76719,1,8,0:0:0:0:
160,96,76915,1,0,0:0:0:0:
192,64,77013,1,8,0:0:0:0:
192,64,77111,1,0,0:0:0:0:
192,64,77209,1,8,0:0:0:0:
192,64,77405,1,12,0:0:0:0:
288,64,77601,1,0,0:0:0:0:
288,64,77699,1,8,0:0:0:0:
288,64,77895,1,0,0:0:0:0:
288,64,77993,1,8,0:0:0:0:
192,64,78190,1,0,0:0:0:0:
192,64,78288,1,8,0:0:0:0:
224,96,78484,1,0,0:0:0:0:
224,96,78582,1,8,0:0:0:0:
224,96,78680,1,0,0:0:0:0:
224,96,78778,1,8,0:0:0:0:
224,96,78974,1,12,0:0:0:0:
320,96,79170,1,0,0:0:0:0:
320,96,79268,1,8,0:0:0:0:
320,96,79464,1,0,0:0:0:0:
320,96,79562,1,8,0:0:0:0:
320,96,79758,1,0,0:0:0:0:
320,96,79856,1,8,0:0:0:0:
320,96,80052,1,0,0:0:0:0:
320,96,80150,1,8,0:0:0:0:
320,96,80248,1,0,0:0:0:0:
320,96,80346,1,8,0:0:0:0:
256,96,80543,1,12,0:0:0:0:
320,96,80739,1,0,0:0:0:0:
320,96,80837,1,8,0:0:0:0:
320,96,81033,1,0,0:0:0:0:
320,96,81131,1,8,0:0:0:0:
320,96,81327,1,0,0:0:0:0:
320,96,81425,1,8,0:0:0:0:
320,96,81621,1,0,0:0:0:0:
320,96,81719,1,8,0:0:0:0:
320,96,81817,1,0,0:0:0:0:
320,96,81915,1,8,0:0:0:0:
320,96,82111,1,12,0:0:0:0:
320,96,82307,1,0,0:0:0:0:
320,96,82405,1,8,0:0:0:0:
320,96,82601,1,0,0:0:0:0:
320,96,82699,1,8,0:0:0:0:
320,96,82797,1,0,0:0:0:0:
320,96,82895,1,12,0:0:0:0:
320,96,83092,1,0,0:0:0:0:
320,96,83190,1,8,0:0:0:0:
224,96,83386,1,0,0:0:0:0:
224,96,83484,1,8,0:0:0:0:
224,96,83582,1,0,0:0:0:0:
224,96,83680,1,12,0:0:0:0:
224,96,83876,1,0,0:0:0:0:
224,96,83974,1,8,0:0:0:0:
224,96,84170,1,0,0:0:0:0:
224,96,84268,1,8,0:0:0:0:
224,96,84366,1,0,0:0:0:0:
224,96,84464,1,12,0:0:0:0:
224,96,84660,1,0,0:0:0:0:
224,96,84758,1,8,0:0:0:0:
224,96,84954,1,0,0:0:0:0:
224,96,85052,1,8,0:0:0:0:
224,96,85150,1,0,0:0:0:0:
224,96,85248,1,12,0:0:0:0:
224,96,85543,1,0,0:0:0:0:
224,96,85641,1,12,0:0:0:0:
224,96,85935,1,0,0:0:0:0:
224,96,86033,1,12,0:0:0:0:
224,96,86327,1,0,0:0:0:0:
224,96,86425,1,12,0:0:0:0:
224,96,86719,1,0,0:0:0:0:
224,96,86817,1,12,0:0:0:0:
224,96,87013,1,0,0:0:0:0:
224,96,87111,1,8,0:0:0:0:
224,96,87307,1,0,0:0:0:0:
224,96,87405,1,8,0:0:0:0:
224,96,87503,1,0,0:0:0:0:
256,160,87601,1,8,0:0:0:0:
256,160,87650,1,8,0:0:0:0:
256,160,87699,1,8,0:0:0:0:
256,160,87748,1,8,0:0:0:0:
256,160,87797,1,8,0:0:0:0:
352,160,87863,1,8,0:0:0:0:
352,160,87928,1,8,0:0:0:0:
320,224,87993,1,8,0:0:0:0:
320,224,88092,1,8,0:0:0:0:
320,224,88190,1,0,0:0:0:0:
224,128,88386,1,0,0:0:0:0:
224,128,88778,1,0,0:0:0:0:
224,128,89170,1,0,0:0:0:0:
224,128,89464,1,8,0:0:0:0:
224,128,89562,1,0,0:0:0:0:
224,128,89758,1,0,0:0:0:0:
224,128,89954,1,0,0:0:0:0:
224,128,90150,1,8,0:0:0:0:
224,128,90346,1,0,0:0:0:0:
224,128,90739,1,0,0:0:0:0:
224,128,90935,1,8,0:0:0:0:
224,128,91033,1,0,0:0:0:0:
224,128,91229,1,8,0:0:0:0:
224,128,91327,1,0,0:0:0:0:
224,128,91523,1,0,0:0:0:0:
224,128,91719,1,8,0:0:0:0:
224,128,91915,1,0,0:0:0:0:
224,128,92307,1,0,0:0:0:0:
224,128,92601,1,8,0:0:0:0:
224,128,92699,1,0,0:0:0:0:
192,96,92895,1,0,0:0:0:0:
224,128,93092,1,0,0:0:0:0:
192,96,93288,1,8,0:0:0:0:
160,64,93484,1,0,0:0:0:0:
160,64,93876,1,0,0:0:0:0:
160,64,93974,1,8,0:0:0:0:
160,64,94072,1,8,0:0:0:0:
160,64,94170,1,0,0:0:0:0:
224,64,94366,1,8,0:0:0:0:
224,64,94464,1,0,0:0:0:0:
224,64,94660,1,0,0:0:0:0:
224,128,95052,1,0,0:0:0:0:
224,128,95444,1,0,0:0:0:0:
224,128,95738,1,8,0:0:0:0:
224,128,95836,1,0,0:0:0:0:
224,128,96032,1,0,0:0:0:0:
224,128,96228,1,0,0:0:0:0:
224,128,96424,1,8,0:0:0:0:
224,128,96620,1,0,0:0:0:0:
224,128,97013,1,0,0:0:0:0:
224,128,97209,1,8,0:0:0:0:
224,128,97307,1,0,0:0:0:0:
224,128,97503,1,8,0:0:0:0:
224,128,97601,1,0,0:0:0:0:
224,128,97797,1,0,0:0:0:0:
224,128,97993,1,8,0:0:0:0:
224,128,98189,1,0,0:0:0:0:
224,128,98581,1,0,0:0:0:0:
224,128,98875,1,8,0:0:0:0:
224,128,98973,1,0,0:0:0:0:
192,96,99169,1,0,0:0:0:0:
224,128,99366,1,0,0:0:0:0:
192,96,99562,1,8,0:0:0:0:
160,64,99758,1,0,0:0:0:0:
160,64,100150,1,0,0:0:0:0:
160,64,100248,1,8,0:0:0:0:
160,64,100346,1,8,0:0:0:0:
160,64,100444,1,0,0:0:0:0:
224,64,100640,1,8,0:0:0:0:
224,64,100738,1,0,0:0:0:0:
288,192,100837,1,8,0:0:0:0:
288,192,100935,1,4,0:0:0:0:
288,128,101131,1,0,0:0:0:0:
288,128,101229,1,0,0:0:0:0:
288,128,101327,1,8,0:0:0:0:
288,128,101523,1,0,0:0:0:0:
288,128,101621,1,0,0:0:0:0:
288,128,101719,1,0,0:0:0:0:
288,128,101915,1,0,0:0:0:0:
288,128,102013,1,0,0:0:0:0:
288,128,102111,1,8,0:0:0:0:
288,128,102307,1,0,0:0:0:0:
288,128,102405,1,0,0:0:0:0:
288,128,102503,1,0,0:0:0:0:
384,128,102699,1,0,0:0:0:0:
384,128,102797,1,0,0:0:0:0:
0,192,102895,1,8,0:0:0:0:
256,128,103092,1,0,0:0:0:0:
256,128,103190,1,8,0:0:0:0:
256,128,103288,1,0,0:0:0:0:
288,160,103484,1,8,0:0:0:0:
256,128,103582,1,0,0:0:0:0:
192,96,103778,1,8,0:0:0:0:
288,160,103876,1,0,0:0:0:0:
288,96,104072,1,4,0:0:0:0:
256,160,104268,1,0,0:0:0:0:
256,160,104366,1,0,0:0:0:0:
256,160,104464,1,8,0:0:0:0:
256,160,104660,1,0,0:0:0:0:
256,160,104758,1,0,0:0:0:0:
256,160,104856,1,0,0:0:0:0:
256,160,105052,1,0,0:0:0:0:
256,160,105150,1,0,0:0:0:0:
256,160,105248,1,8,0:0:0:0:
256,160,105444,1,0,0:0:0:0:
256,160,105542,1,0,0:0:0:0:
256,160,105641,1,0,0:0:0:0:
352,128,105837,1,8,0:0:0:0:
352,128,105935,1,0,0:0:0:0:
352,128,106033,1,8,0:0:0:0:
352,128,106229,1,0,0:0:0:0:
352,128,106327,1,8,0:0:0:0:
352,128,106425,1,0,0:0:0:0:
352,128,106523,1,8,0:0:0:0:
352,128,106621,1,8,0:0:0:0:
352,128,106719,1,0,0:0:0:0:
352,128,106915,1,8,0:0:0:0:
352,128,107013,1,0,0:0:0:0:
352,128,107111,1,8,0:0:0:0:
352,128,107209,1,4,0:0:0:0:
288,160,107405,1,0,0:0:0:0:
288,192,107503,1,0,0:0:0:0:
288,192,107601,1,8,0:0:0:0:
288,192,107797,1,0,0:0:0:0:
288,192,107895,1,0,0:0:0:0:
288,192,107993,1,0,0:0:0:0:
288,128,108190,1,0,0:0:0:0:
288,128,108288,1,0,0:0:0:0:
288,128,108386,1,8,0:0:0:0:
288,128,108582,1,0,0:0:0:0:
288,128,108680,1,0,0:0:0:0:
288,128,108778,1,0,0:0:0:0:
288,128,108974,1,0,0:0:0:0:
288,128,109072,1,0,0:0:0:0:
288,128,109170,1,8,0:0:0:0:
352,160,109366,1,0,0:0:0:0:
352,160,109464,1,8,0:0:0:0:
352,160,109562,1,0,0:0:0:0:
352,160,109758,1,8,0:0:0:0:
352,160,109856,1,0,0:0:0:0:
352,160,110052,1,8,0:0:0:0:
352,160,110150,1,0,0:0:0:0:
352,160,110346,1,4,0:0:0:0:
352,160,110542,1,0,0:0:0:0:
352,160,110641,1,0,0:0:0:0:
352,160,110739,1,8,0:0:0:0:
352,160,110935,1,0,0:0:0:0:
352,160,111033,1,8,0:0:0:0:
352,160,111131,1,0,0:0:0:0:
352,160,111327,1,0,0:0:0:0:
352,160,111425,1,0,0:0:0:0:
352,160,111523,1,8,0:0:0:0:
352,160,111719,1,8,0:0:0:0:
352,160,111817,1,0,0:0:0:0:
352,160,111915,1,8,0:0:0:0:
352,160,112111,1,0,0:0:0:0:
352,160,112209,1,8,0:0:0:0:
352,160,112307,1,8,0:0:0:0:
352,160,112503,1,0,0:0:0:0:
192,192,112569,1,0,0:0:0:0:
192,192,112634,1,0,0:0:0:0:
192,192,112699,1,8,0:0:0:0:
384,192,112797,1,0,0:0:0:0:
384,160,112895,1,0,0:0:0:0:
384,192,112993,1,8,0:0:0:0:
384,192,113092,1,8,0:0:0:0:
384,192,113288,1,8,0:0:0:0:
384,160,113484,1,4,0:0:0:0:
288,128,113680,1,0,0:0:0:0:
288,128,113778,1,0,0:0:0:0:
288,128,113876,1,8,0:0:0:0:
288,128,114072,1,0,0:0:0:0:
288,128,114170,1,8,0:0:0:0:
288,128,114268,1,0,0:0:0:0:
288,128,114366,1,0,0:0:0:0:
288,128,114464,1,0,0:0:0:0:
288,128,114562,1,0,0:0:0:0:
288,128,114660,1,8,0:0:0:0:
288,128,114856,1,8,0:0:0:0:
288,128,114954,1,0,0:0:0:0:
288,128,115052,1,0,0:0:0:0:
352,128,115248,1,0,0:0:0:0:
352,128,115444,1,8,0:0:0:0:
384,128,115641,1,8,0:0:0:0:
384,128,115739,1,0,0:0:0:0:
384,128,115837,1,0,0:0:0:0:
384,128,115935,1,0,0:0:0:0:
384,128,116033,1,0,0:0:0:0:
384,128,116131,1,8,0:0:0:0:
384,128,116327,1,8,0:0:0:0:
384,128,116425,1,0,0:0:0:0:
384,128,116621,1,4,0:0:0:0:
384,128,116817,1,0,0:0:0:0:
384,128,116915,1,0,0:0:0:0:
384,128,117013,1,8,0:0:0:0:
384,128,117209,1,8,0:0:0:0:
384,128,117307,1,0,0:0:0:0:
384,128,117405,1,0,0:0:0:0:
384,128,117503,1,8,0:0:0:0:
384,128,117601,1,0,0:0:0:0:
384,128,117699,1,0,0:0:0:0:
384,128,117797,1,8,0:0:0:0:
384,128,117993,1,8,0:0:0:0:
384,128,118092,1,8,0:0:0:0:
384,128,118190,1,0,0:0:0:0:
384,128,118386,1,8,0:0:0:0:
160,160,118484,1,0,0:0:0:0:
288,160,118582,1,8,0:0:0:0:
224,160,118778,1,8,0:0:0:0:
256,96,118876,1,0,0:0:0:0:
256,96,118974,1,8,0:0:0:0:
256,96,119072,1,8,0:0:0:0:
256,96,119170,1,8,0:0:0:0:
256,96,119268,1,0,0:0:0:0:
256,96,119464,1,8,0:0:0:0:
256,96,119562,1,0,0:0:0:0:
256,96,119758,1,4,0:0:0:0:
224,160,119954,1,0,0:0:0:0:
224,160,120052,1,0,0:0:0:0:
224,160,120150,1,8,0:0:0:0:
224,160,120346,1,0,0:0:0:0:
224,160,120444,1,8,0:0:0:0:
224,160,120542,1,0,0:0:0:0:
224,160,120641,1,0,0:0:0:0:
224,160,120739,1,0,0:0:0:0:
224,160,120837,1,0,0:0:0:0:
224,160,120935,1,8,0:0:0:0:
224,160,121131,1,8,0:0:0:0:
224,160,121229,1,8,0:0:0:0:
224,160,121327,1,0,0:0:0:0:
288,96,121425,1,8,0:0:0:0:
288,96,121621,1,8,0:0:0:0:
288,96,121719,1,0,0:0:0:0:
288,96,121817,1,8,0:0:0:0:
288,96,121915,1,0,0:0:0:0:
288,96,122013,1,8,0:0:0:0:
288,96,122111,1,0,0:0:0:0:
288,96,122209,1,0,0:0:0:0:
288,96,122307,1,0,0:0:0:0:
288,96,122405,1,0,0:0:0:0:
288,96,122503,1,8,0:0:0:0:
288,96,122601,1,8,0:0:0:0:
288,96,122699,1,0,0:0:0:0:
288,96,122895,1,4,0:0:0:0:
320,128,123092,1,8,0:0:0:0:
320,128,123190,1,0,0:0:0:0:
320,128,123288,1,8,0:0:0:0:
320,128,123484,1,8,0:0:0:0:
320,128,123582,1,8,0:0:0:0:
320,128,123680,1,0,0:0:0:0:
320,128,123778,1,8,0:0:0:0:
320,128,123876,1,0,0:0:0:0:
320,128,123974,1,0,0:0:0:0:
320,128,124072,1,8,0:0:0:0:
320,128,124268,1,8,0:0:0:0:
320,128,124366,1,8,0:0:0:0:
320,128,124464,1,0,0:0:0:0:
320,128,124660,1,0,0:0:0:0:
320,128,124758,1,0,0:0:0:0:
320,128,124856,1,8,0:0:0:0:
320,128,125052,1,8,0:0:0:0:
320,128,125150,1,8,0:0:0:0:
320,128,125248,1,0,0:0:0:0:
320,128,125346,1,0,0:0:0:0:
320,128,125444,1,8,0:0:0:0:
320,128,125542,1,0,0:0:0:0:
320,128,125739,1,8,0:0:0:0:
320,128,125837,1,0,0:0:0:0:
320,128,125935,1,8,0:0:0:0:
320,128,126033,1,4,0:0:0:0:
416,160,126229,1,0,0:0:0:0:
416,160,126294,1,0,0:0:0:0:
384,160,126359,1,0,0:0:0:0:
384,160,126425,1,8,0:0:0:0:
384,160,126621,1,8,0:0:0:0:
384,160,126686,1,8,0:0:0:0:
384,160,126752,1,8,0:0:0:0:
384,160,126817,1,0,0:0:0:0:
384,160,127013,1,0,0:0:0:0:
384,160,127078,1,0,0:0:0:0:
384,160,127144,1,0,0:0:0:0:
384,160,127209,1,8,0:0:0:0:
384,160,127405,1,8,0:0:0:0:
384,160,127471,1,8,0:0:0:0:
384,160,127536,1,8,0:0:0:0:
384,160,127601,1,0,0:0:0:0:
384,160,127797,1,0,0:0:0:0:
384,160,127863,1,0,0:0:0:0:
384,192,127928,1,0,0:0:0:0:
384,192,127993,1,8,0:0:0:0:
384,192,128190,1,8,0:0:0:0:
384,192,128255,1,8,0:0:0:0:
384,192,128320,1,8,0:0:0:0:
384,192,128386,1,0,0:0:0:0:
320,192,128484,1,8,0:0:0:0:
320,192,128582,1,8,0:0:0:0:
320,192,128680,1,0,0:0:0:0:
320,192,128778,1,8,0:0:0:0:
256,128,128843,1,8,0:0:0:0:
256,128,128909,1,8,0:0:0:0:
320,192,128974,1,0,0:0:0:0:
320,192,129072,1,8,0:0:0:0:
320,192,129170,1,4,0:0:0:0:
192,160,129366,1,0,0:0:0:0:
192,160,129431,1,0,0:0:0:0:
192,160,129497,1,0,0:0:0:0:
192,160,129562,1,8,0:0:0:0:
192,160,129758,1,8,0:0:0:0:
192,160,129824,1,8,0:0:0:0:
192,160,129889,1,8,0:0:0:0:
192,160,129954,1,0,0:0:0:0:
192,160,130150,1,0,0:0:0:0:
192,160,130216,1,0,0:0:0:0:
192,160,130281,1,0,0:0:0:0:
192,160,130346,1,8,0:0:0:0:
192,160,130542,1,8,0:0:0:0:
192,160,130608,1,8,0:0:0:0:
192,160,130673,1,8,0:0:0:0:
192,160,130739,1,0,0:0:0:0:
224,128,130935,1,8,0:0:0:0:
288,128,131131,1,0,0:0:0:0:
288,128,131196,1,8,0:0:0:0:
288,128,131261,1,8,0:0:0:0:
288,128,131327,1,0,0:0:0:0:
288,128,131523,1,8,0:0:0:0:
288,128,131719,1,0,0:0:0:0:
288,128,131784,1,8,0:0:0:0:
288,128,131850,1,8,0:0:0:0:
288,128,131915,1,0,0:0:0:0:
224,128,132111,1,8,0:0:0:0:
352,192,132209,1,8,0:0:0:0:
352,192,132307,1,4,0:0:0:0:
256,96,132503,1,0,0:0:0:0:
256,96,132569,1,0,0:0:0:0:
256,96,132634,1,0,0:0:0:0:
256,128,132699,1,8,0:0:0:0:
256,128,132895,1,8,0:0:0:0:
256,128,132961,1,8,0:0:0:0:
256,128,133026,1,8,0:0:0:0:
256,128,133092,1,0,0:0:0:0:
256,128,133288,1,0,0:0:0:0:
256,128,133353,1,0,0:0:0:0:
256,128,133418,1,0,0:0:0:0:
256,128,133484,1,8,0:0:0:0:
256,128,133680,1,8,0:0:0:0:
256,128,133745,1,8,0:0:0:0:
256,128,133810,1,8,0:0:0:0:
256,128,133876,1,0,0:0:0:0:
256,128,134072,1,0,0:0:0:0:
256,128,134137,1,0,0:0:0:0:
256,128,134203,1,0,0:0:0:0:
256,128,134268,1,8,0:0:0:0:
416,64,134464,1,8,0:0:0:0:
416,96,134529,1,8,0:0:0:0:
416,96,134595,1,8,0:0:0:0:
416,96,134660,1,0,0:0:0:0:
448,96,134758,1,8,0:0:0:0:
384,128,134856,1,0,0:0:0:0:
384,128,134922,1,0,0:0:0:0:
384,128,134987,1,0,0:0:0:0:
384,128,135052,1,8,0:0:0:0:
416,96,135150,1,0,0:0:0:0:
320,224,135248,1,8,0:0:0:0:
256,96,135314,1,8,0:0:0:0:
352,192,135379,1,8,0:0:0:0:
352,192,135444,1,0,0:0:0:0:
320,64,135641,1,0,0:0:0:0:
320,64,135706,1,0,0:0:0:0:
320,64,135771,1,0,0:0:0:0:
320,64,135837,1,8,0:0:0:0:
320,64,136033,1,8,0:0:0:0:
320,64,136098,1,8,0:0:0:0:
320,64,136163,1,8,0:0:0:0:
320,64,136229,1,0,0:0:0:0:
320,64,136425,1,0,0:0:0:0:
320,64,136490,1,0,0:0:0:0:
320,64,136556,1,0,0:0:0:0:
320,64,136621,1,8,0:0:0:0:
320,64,136817,1,8,0:0:0:0:
320,64,136882,1,8,0:0:0:0:
320,64,136948,1,8,0:0:0:0:
320,64,137013,1,0,0:0:0:0:
320,64,137209,1,8,0:0:0:0:
224,160,137405,1,0,0:0:0:0:
224,160,137471,1,8,0:0:0:0:
224,160,137536,1,8,0:0:0:0:
224,160,137601,1,0,0:0:0:0:
224,160,137797,1,8,0:0:0:0:
192,128,137993,1,0,0:0:0:0:
192,128,138059,1,8,0:0:0:0:
192,128,138124,1,8,0:0:0:0:
192,128,138190,1,0,0:0:0:0:
352,128,138288,1,0,0:0:0:0:
192,128,138386,1,8,0:0:0:0:
352,128,138484,1,8,0:0:0:0:
384,96,138582,1,0,0:0:0:0:
384,96,138680,1,0,0:0:0:0:
384,96,138778,1,0,0:0:0:0:
384,96,138974,1,0,0:0:0:0:
384,96,139072,1,0,0:0:0:0:
384,96,139170,1,0,0:0:0:0:
384,96,139366,1,8,0:0:0:0:
384,96,139464,1,8,0:0:0:0:
384,128,139562,1,8,0:0:0:0:
384,128,139660,1,0,0:0:0:0:
384,128,139856,1,0,0:0:0:0:
384,128,139954,1,0,0:0:0:0:
384,128,140052,1,0,0:0:0:0:
384,128,140150,1,8,0:0:0:0:
384,128,140248,1,8,0:0:0:0:
384,128,140346,1,8,0:0:0:0:
384,128,140542,1,8,0:0:0:0:
384,128,140641,1,8,0:0:0:0:
384,128,140739,1,8,0:0:0:0:
384,128,140935,1,8,0:0:0:0:
384,128,141033,1,8,0:0:0:0:
384,128,141131,1,8,0:0:0:0:
384,128,141229,1,0,0:0:0:0:
384,128,141425,1,8,0:0:0:0:
384,128,141523,1,0,0:0:0:0:
384,128,141621,1,0,0:0:0:0:
384,128,141719,1,8,0:0:0:0:
384,128,141817,1,8,0:0:0:0:
384,128,141915,1,8,0:0:0:0:
384,128,142111,1,8,0:0:0:0:
384,128,142209,1,8,0:0:0:0:
384,128,142307,1,8,0:0:0:0:
384,128,142503,1,8,0:0:0:0:
384,128,142601,1,8,0:0:0:0:
384,128,142699,1,8,0:0:0:0:
384,128,142797,1,0,0:0:0:0:
384,128,142993,1,8,0:0:0:0:
384,128,143092,1,0,0:0:0:0:
384,128,143190,1,8,0:0:0:0:
384,128,143288,1,0,0:0:0:0:
384,128,143484,1,8,0:0:0:0:
384,128,143680,1,0,0:0:0:0:
384,128,143778,1,8,0:0:0:0:
384,128,143876,1,0,0:0:0:0:
384,128,144072,1,8,0:0:0:0:
384,128,144170,1,8,0:0:0:0:
384,128,144268,1,0,0:0:0:0:
384,128,144366,1,8,0:0:0:0:
384,128,144464,1,0,0:0:0:0:
384,128,144562,1,0,0:0:0:0:
384,128,144660,1,8,0:0:0:0:
224,96,144758,1,8,0:0:0:0:
224,96,144856,1,0,0:0:0:0:
224,96,144954,1,0,0:0:0:0:
224,96,145052,1,0,0:0:0:0:
224,96,145248,1,0,0:0:0:0:
224,96,145346,1,0,0:0:0:0:
224,96,145444,1,0,0:0:0:0:
224,96,145641,1,8,0:0:0:0:
224,96,145739,1,8,0:0:0:0:
224,96,145837,1,8,0:0:0:0:
224,96,145935,1,0,0:0:0:0:
224,96,146131,1,8,0:0:0:0:
224,96,146229,1,0,0:0:0:0:
224,96,146327,1,0,0:0:0:0:
224,96,146425,1,8,0:0:0:0:
224,96,146523,1,8,0:0:0:0:
224,96,146621,1,8,0:0:0:0:
224,96,146817,1,8,0:0:0:0:
224,96,146915,1,8,0:0:0:0:
224,96,147013,1,8,0:0:0:0:
224,96,147209,1,8,0:0:0:0:
224,96,147307,1,8,0:0:0:0:
224,96,147405,1,8,0:0:0:0:
224,96,147503,1,0,0:0:0:0:
224,96,147601,1,8,0:0:0:0:
224,96,147699,1,8,0:0:0:0:
224,96,147797,1,0,0:0:0:0:
224,96,147993,1,0,0:0:0:0:
224,96,148092,1,0,0:0:0:0:
224,96,148190,1,0,0:0:0:0:
224,96,148386,1,0,0:0:0:0:
224,96,148484,1,0,0:0:0:0:
224,96,148582,1,0,0:0:0:0:
224,96,148778,1,0,0:0:0:0:
224,96,148876,1,0,0:0:0:0:
224,96,148974,1,8,0:0:0:0:
224,96,149072,1,0,0:0:0:0:
224,96,149268,1,8,0:0:0:0:
224,96,149366,1,0,0:0:0:0:
224,96,149464,1,0,0:0:0:0:
224,96,149562,1,8,0:0:0:0:
224,96,149758,1,8,0:0:0:0:
224,96,149954,1,0,0:0:0:0:
224,96,150052,1,8,0:0:0:0:
224,96,150150,1,0,0:0:0:0:
224,96,150346,1,8,0:0:0:0:
224,96,150542,1,0,0:0:0:0:
224,96,150641,1,0,0:0:0:0:
224,96,150739,1,8,0:0:0:0:
224,96,150935,1,8,0:0:0:0:
224,96,151131,1,8,0:0:0:0:
224,96,151327,1,8,0:0:0:0:
224,96,151523,1,8,0:0:0:0:
224,96,151719,1,8,0:0:0:0:
224,96,151915,1,8,0:0:0:0:
224,96,152111,1,8,0:0:0:0:
224,64,152307,1,8,0:0:0:0:
224,64,152503,1,8,0:0:0:0:
224,64,152699,1,8,0:0:0:0:
224,128,152895,1,8,0:0:0:0:
224,128,153092,1,8,0:0:0:0:
224,128,153288,1,8,0:0:0:0:
224,128,153484,1,8,0:0:0:0:
224,128,153680,1,8,0:0:0:0:
352,160,153778,1,0,0:0:0:0:
224,128,153876,1,8,0:0:0:0:
224,128,154072,1,8,0:0:0:0:
352,160,154268,1,0,0:0:0:0:
