osu file format v7

[General]
AudioFilename: Palette.mp3
AudioLeadIn: 1500
PreviewTime: 78522
Countdown: 0
SampleSet: Normal
StackLeniency: 0.4
Mode: 0
LetterboxInBreaks: 0
SkinPreference:Default
EpilepsyWarning: 1

[Editor]
Bookmarks: 8866,33199,49198,62534,78533,94533,110538,123871,139208,155228,175216,191215,207215,215215
DistanceSpacing: 1
BeatDivisor: 4
GridSize: 32

[Metadata]
Title:Palette
Artist:Yuyoyuppe feat. Hanatan
Creator:DJPop
Version:Hard
Source:VOCALOID
Tags:meola gomu double click megurine luka

[Difficulty]
HPDrainRate:4
CircleSize:4
OverallDifficulty:6
SliderMultiplier:1.28
SliderTickRate:1

[Events]
//Background and Video events
0,0,"Palette.png"
//Break Periods
2,110738,122821
2,126737,129487
2,133403,139158
//Storyboard Layer 0 (Background)
//Storyboard Layer 1 (Fail)
//Storyboard Layer 2 (Pass)
//Storyboard Layer 3 (Foreground)
//Storyboard Sound Samples
//Background Colour Transformations
3,100,255,0,0

[TimingPoints]
1200,333.333333333333,3,1,1,50,1,0
32033,-100,3,1,1,30,0,0
32366,-100,3,1,1,50,0,0
32699,-100,3,1,1,70,0,0
33033,-100,3,1,1,90,0,0
49198,333.333333333333,5,1,1,70,1,0
62534,333.333333333333,3,1,1,70,1,0
78367,-100,3,1,1,90,0,0
78533,-100,3,1,1,90,0,1
110538,333.333333333333,5,1,1,70,1,1
110871,-100,5,1,1,70,0,0
124121,-100,5,2,1,70,0,0
137208,1000,3,2,1,50,1,0
154562,666.666666666667,3,2,1,50,1,0
155062,-100,3,1,1,70,0,0
155228,666.666666666667,3,1,1,70,1,0
155728,-100,3,2,1,70,0,0
163062,-100,3,1,1,70,0,0
163728,-100,3,2,1,70,0,0
171062,-100,3,1,1,70,0,0
171728,-100,3,2,1,70,0,0
174062,-100,3,1,1,90,0,0
175216,333.333333333333,3,1,1,90,1,1
215214,-100,3,1,1,90,0,0
215215,-100,3,1,1,90,0,1
223132,-100,3,2,2,0,0,0

[Colours]
Combo1 : 255,0,255
Combo2 : 255,0,0
Combo3 : 255,255,0
Combo4 : 0,255,0
Combo5 : 0,0,255

[HitObjects]
256,192,8866,5,0
192,48,9199,6,0,C|64:48,2,128
320,48,10199,2,0,C|448:48,2,128
192,144,11199,6,0,C|64:144,2,128
320,144,12199,2,0,C|448:144,2,128
320,336,13199,6,0,C|448:336,2,128
192,336,14199,2,0,C|64:336,2,128
320,240,15199,6,0,C|448:240,2,128
192,240,16199,2,0,C|64:240,2,128
80,32,17199,6,0,C|208:32,1,128
336,32,17866,1,0
432,128,18199,2,0,C|304:128,1,128
176,128,18866,1,0
80,224,19199,6,0,C|208:224,1,128
336,224,19866,1,0
432,320,20199,2,0,C|304:320,1,128
176,320,20866,1,0
32,320,21199,6,0,C|32:192,1,128
32,64,21866,1,0
176,64,22199,2,0,C|176:192,1,128
176,320,22866,1,0
336,320,23199,6,0,C|336:192,1,128
336,64,23866,1,0
480,64,24199,2,0,C|480:192,1,128
480,320,24866,1,0
336,336,25199,5,0
208,336,25533,2,0,C|80:336,1,128
176,240,26199,1,0
304,240,26533,2,0,C|432:240,1,128
336,144,27199,5,0
208,144,27533,2,0,C|80:144,1,128
176,48,28199,1,0
304,48,28533,2,0,C|432:48,1,128
448,192,29199,5,0
448,320,29533,2,0,C|320:320,1,128
320,192,30199,1,0
192,192,30533,2,0,C|64:192,1,128
64,320,31199,1,0
192,320,31533,2,0,C|320:320,1,128
256,192,32199,5,0
256,192,32533,1,0
256,192,32866,1,0
128,160,33199,5,12
240,96,33533,1,12
128,32,33866,1,12
32,112,34199,1,8
32,240,34533,1,8
128,320,34866,1,8
256,320,35199,5,8
192,208,35533,1,12
320,208,35866,1,12
384,320,36199,1,8
448,208,36533,1,8
448,80,36866,1,8
320,32,37199,5,8
192,32,37533,1,8
80,96,37866,1,8
192,160,38199,1,8
320,160,38533,1,8
432,224,38866,1,8
320,288,39199,5,8
192,288,39533,1,8
80,224,39866,1,8
80,352,40199,1,8
208,352,40533,1,8
336,352,40866,1,8
464,352,41199,5,8
464,224,41533,1,12
352,160,41866,1,12
464,96,42199,1,8
352,32,42533,1,8
224,32,42866,1,8
96,32,43199,5,8
32,144,43533,1,12
160,144,43866,1,12
96,256,44199,1,8
224,256,44533,1,8
288,144,44866,1,8
352,256,45199,5,8
480,256,45533,1,8
384,352,45866,1,8
256,352,46199,1,8
128,352,46533,1,8
32,256,46866,1,8
32,128,47199,5,8
128,32,47533,1,8
256,32,47866,1,8
384,32,48199,1,8
480,128,48533,1,8
384,224,48866,1,8
288,320,49198,6,0,C|480:320,2,192,4|8|0
160,320,50531,1,0
160,320,50864,2,0,C|64:320,2,96,0|0|8
320,192,51864,5,0
224,64,52531,6,0,C|32:64,2,192,0|8|0
352,64,53864,1,0
352,64,54031,1,0
352,64,54197,2,0,C|448:64,2,96,0|0|8
192,192,55198,5,0
384,352,55864,6,0,B|416:336|432:304|435:273|432:240|416:208|384:192,2,192,4|8|0
256,352,57198,1,0
128,352,57531,2,0,B|96:336|80:304|77:274|80:240|96:208|128:192,1,192,0|8
256,352,58531,5,0
128,32,59197,6,0,B|96:48|80:80|77:112|80:144|96:176|128:192,2,192,0|8|0
256,32,60531,1,0
384,32,60864,2,0,B|416:48|432:80|435:113|432:144|416:176|384:192,1,192,0|8
256,32,61864,5,0
128,352,62535,6,0,C|384:352,2,256,4|8|0
32,256,64201,1,8
32,128,64535,6,0,B|32:88|48:56|80:40|112:36|144:40|176:56|192:88|192:128,1,256,0|8
320,127,65534,2,0,B|320:88|336:56|368:40|400:36|432:40|464:56|480:88|480:128,1,256,8|8
384,224,66535,6,0,C|128:224,2,256
480,320,68201,1,8
352,320,68535,6,0,C|160:320,2,192,0|0|8
32,320,70201,5,0
128,224,70534,1,0
64,32,71034,2,0,B|96:96|160:128|192:128|224:32|256:47|288:32|320:128|352:128|416:96|448:32,1,448,0|8
480,160,72534,6,0,C|480:352,2,192,0|0|8
160,160,74201,5,8
32,160,74534,2,0,C|32:352,2,192
352,160,76201,5,8
256,288,76534,2,0,C|256:96,2,192,0|0|8
256,96,78201,5,8
128,32,78534,6,0,B|80:64|32:96|15:191|32:288|80:320|128:352,1,384,4|8
384,32,80533,6,0,B|432:64|480:96|497:191|480:288|432:320|384:352,1,384,0|8
256,160,82201,5,0
256,32,82534,1,0
128,192,83034,1,0
256,352,83534,2,0,B|288:352|422:352|456:224,1,256,8|0
480,96,84534,5,0
288,32,85034,1,0
224,224,85534,2,0,C|352:224,2,128,8|0|4
224,352,86534,6,0,B|192:352|136:336|96:304|83:224|96:144|136:112|192:96|224:96,1,384,0|8
32,352,88201,5,0
32,224,88534,1,0
96,32,89034,1,0
288,32,89534,2,0,B|320:32|416:32|384:96|352:160|448:160|481:160,1,256,8|0
480,288,90534,6,0,B|448:384|288:373|288:288|288:192|288:128,1,384,0|8
32,288,92533,6,0,B|64:384|224:373|224:288|224:192|224:128,1,384,0|8
448,32,94534,6,0,C|64:32,1,384,4|8
64,352,96534,6,0,C|448:352,1,384,0|8
256,192,98201,5,0
256,192,98534,1,0
64,192,99034,1,0
256,192,99534,2,0,B|288:192|415:191|416:64|416:32,1,256,8|0
288,32,100534,5,0
96,64,101034,1,0
64,256,101534,2,0,B|96:288|87:332|64:344|32:352,2,128,8|0|4
192,224,102534,6,0,B|208:288|224:320|272:352|320:377|368:352|416:320|432:288|448:224,1,384,0|8
256,32,104201,5,0
256,32,104534,1,0
64,32,105034,1,0
64,224,105534,2,0,B|88:272|112:304|160:312|208:304|232:272|256:224,1,256,8|0
256,96,106533,6,0,B|288:96|344:112|384:144|397:224|384:304|344:336|288:352|256:352,1,384,0|8
32,32,108534,5,0
480,32,109534,5,8
256,352,110538,5,4
352,96,123871,5,4
160,96,124371,1,0
320,192,124871,1,0
192,192,125204,1,0
64,224,125537,1,0
256,288,126037,1,0
448,224,126537,1,0
160,288,130537,5,0
352,288,131037,1,0
192,192,131537,1,0
320,192,131870,1,0
448,160,132203,1,0
256,96,132703,1,0
64,160,133203,1,0
480,192,140208,6,0,C|352:192,1,128
224,192,141874,1,0
160,192,142208,1,0
32,160,142874,5,0
32,224,143208,2,0,C|32:352,1,128
160,352,144874,1,0
224,352,145208,2,0,C|352:352,1,128
480,352,146874,5,0
480,288,147208,2,0,C|480:160,1,128
320,32,149208,2,0,C|192:32,1,128
64,64,150874,5,0
64,128,151208,2,0,C|64:256,3,128
256,352,154895,1,4
256,352,155228,1,4
256,160,156229,5,8
352,64,156895,1,0
352,64,157229,1,0
448,160,157894,1,0
448,160,158229,1,8
352,256,158895,1,0
352,256,159229,1,0
160,256,160229,5,8
131,320,160561,1,0
61,320,160895,1,0
32,256,161229,1,0
32,32,162229,1,8
160,32,162895,1,0
160,32,163229,1,4
352,96,164229,5,8
448,192,164895,1,0
448,192,165229,1,0
352,352,166229,1,8
256,256,166895,1,0
256,256,167229,1,0
160,96,168229,5,8
64,192,168895,1,0
64,192,169229,1,0
160,352,170229,1,8
256,256,170895,1,0
256,256,171229,1,4
256,32,172229,5,8
256,160,172895,1,0
256,160,173229,1,0
256,352,174229,1,8
480,32,175216,6,0,C|288:32,1,192,4|0
32,32,176216,2,0,C|288:32,1,256,8|0
288,160,177216,2,0,C|480:160,1,192
480,352,178216,1,8
224,352,178882,5,8
224,352,179216,1,0
32,352,179716,1,0
32,160,180216,1,8
288,32,180882,5,0
288,32,181216,1,0
480,32,181716,1,0
480,224,182216,1,12
384,320,182549,1,0
288,224,182882,1,0
192,320,183216,6,0,B|160:320|72:333|48:224,1,192
32,32,184216,1,8
288,32,184882,5,0
160,32,185216,1,0
288,176,185716,1,0
416,32,186216,1,8
480,288,186882,1,0
352,352,187216,6,0,C|160:352,1,192
192,160,188216,2,0,C|320:160,2,128,4|8|8
160,32,189216,6,0,C|352:32,1,192,4|0
384,256,190215,1,8
256,256,190549,1,4
128,256,190882,1,4
32,352,191215,6,0,C|224:352,1,192,4|0
480,352,192215,2,0,C|224:352,1,256,8|0
224,224,193215,2,0,B|232:184|255:127|312:104|352:96,1,192
480,96,194215,1,8
224,32,194882,5,8
224,32,195215,1,0
32,32,195715,1,0
32,224,196215,1,8
288,352,196882,5,0
288,352,197215,1,0
480,352,197715,1,0
480,160,198215,1,8
384,64,198549,1,0
288,160,198882,1,0
192,64,199215,6,0,B|160:64|72:51|48:160,1,192
32,352,200215,1,8
288,352,200882,5,0
160,352,201215,1,0
288,208,201715,1,0
416,352,202215,1,8
448,224,202549,1,8
480,96,202882,1,0
352,32,203215,6,0,C|160:32,1,192
160,224,204215,2,0,C|160:352,2,128,0|8|8
32,192,205215,5,0
480,192,206215,5,4
256,352,207215,5,4
128,352,207549,1,8
32,256,207882,1,8
32,128,208215,5,8
128,32,208549,1,8
256,32,208882,1,8
384,32,209215,5,0
480,128,209549,1,8
480,256,209882,1,8
384,352,210215,5,8
256,352,210549,1,0
128,352,210882,1,8
32,256,211215,5,8
160,224,211549,1,0
288,256,211882,1,8
352,224,212049,1,8
416,256,212215,5,8
480,144,212549,1,0
352,112,212882,1,8
288,144,213049,1,8
224,112,213215,5,8
96,144,213549,1,0
32,32,213882,1,8
96,64,214049,1,8
160,32,214215,5,8
288,64,214549,1,0
416,32,214882,1,8
451,94,215049,1,8
486,32,215215,1,4
256,192,215299,12,0,223132
