osu file format v12

[General]
AudioFilename: shinryaku.mp3
AudioLeadIn: 0
PreviewTime: 70728
Countdown: 0
SampleSet: None
StackLeniency: 0.7
Mode: 0
LetterboxInBreaks: 0
EpilepsyWarning: 1

[Editor]
DistanceSpacing: 1
BeatDivisor: 4
GridSize: 32

[Metadata]
Title:Shinryaku! (Furious ver.)
TitleUnicode:侵略ノススメ☆ - 激烈大侵略 ver. -
Artist:Yuyoyuppe
ArtistUnicode:ゆよゆっぺ
Creator:RLC
Version:Shinryaku
Source:Shinryaku! Ika Musume
Tags:Hatsune Miku vocaloud 00
BeatmapID:271269
BeatmapSetID:102750

[Difficulty]
HPDrainRate:6
CircleSize:4
OverallDifficulty:7
ApproachRate:9
SliderMultiplier:2
SliderTickRate:2

[Events]
//Background and Video events
0,0,"bg.jpg",0,0
//Break Periods
2,11414,12398
2,99468,109046
2,182495,189479
2,192873,195965
//Storyboard Layer 0 (Background)
//Storyboard Layer 1 (Fail)
//Storyboard Layer 2 (Pass)
//Storyboard Layer 3 (Foreground)
//Storyboard Sound Samples
//Background Colour Transformations
3,100,163,162,255

[TimingPoints]
674,324.324324324324,4,1,1,80,1,0
674,-133.333333333333,4,1,1,80,0,0
15917,-133.333333333333,4,1,1,100,0,0
16241,-100,4,1,1,80,0,1
16322,-100,4,1,1,80,0,0
26619,-133.333333333333,4,2,1,80,0,0
31322,-133.333333333333,4,1,1,40,0,0
33917,-133.333333333333,4,1,1,80,0,0
35376,-133.333333333333,4,1,1,100,0,0
35701,-133.333333333333,4,1,1,80,0,0
36998,-100,4,1,1,80,0,1
37079,-100,4,1,1,80,0,0
42187,-200,4,1,1,80,0,0
42511,-100,4,1,1,80,0,1
42592,-100,4,1,1,80,0,0
44782,-100,4,1,1,80,0,0
45755,-133.333333333333,4,1,1,80,0,0
46079,-100,4,1,1,80,0,0
47376,-100,4,1,1,80,0,1
47457,-100,4,1,1,80,0,0
58403,-200,4,1,1,80,0,0
59052,-100,4,1,1,80,0,0
60998,-200,4,1,1,80,0,0
61646,-100,4,1,1,80,0,0
70728,-200,4,1,1,30,0,0
71052,-100,4,1,1,80,0,1
73322,-200,4,1,1,30,0,0
73646,-100,4,1,1,80,0,1
81106,-200,4,1,1,30,0,0
81430,-100,4,1,1,80,0,1
83701,-200,4,1,1,30,0,0
84025,-100,4,1,1,80,0,1
91484,-100,4,1,1,80,0,0
99268,-100,4,1,1,80,0,0
109646,-133.333333333333,4,2,1,80,0,0
112728,-133.333333333333,4,2,1,30,0,0
112890,-133.333333333333,4,2,1,80,0,0
117430,-100,4,1,1,80,0,0
120025,-100,4,1,1,80,0,1
120106,-100,4,1,1,80,0,0
130403,-100,4,1,1,80,0,1
130484,-100,4,1,1,80,0,0
134944,-100,4,1,0,60,0,0
135592,-100,4,1,1,80,0,0
138187,-200,4,1,1,80,0,0
140457,-200,4,1,0,30,0,0
140538,-200,4,1,0,45,0,0
140619,-200,4,1,0,60,0,0
140863,-200,4,1,1,80,0,0
142079,-100,4,1,1,80,0,0
144025,-200,4,1,1,80,0,0
144673,-100,4,1,1,80,0,0
153755,-200,4,1,1,30,0,0
154079,-100,4,1,1,80,0,1
156349,-200,4,1,1,30,0,0
156673,-100,4,1,1,80,0,1
164133,-200,4,1,1,30,0,0
164457,-100,4,1,1,80,0,1
166728,-200,4,1,1,30,0,0
167052,-100,4,1,1,80,0,1
174511,-100,4,1,1,80,0,0
182295,-100,4,1,1,80,0,0
196565,-200,4,1,1,80,0,0
197214,-133.333333333333,4,1,1,80,0,0
197863,-200,4,1,1,80,0,0
203376,-100,4,1,1,80,0,0
210511,-100,4,1,0,60,0,0
210836,-100,4,1,1,80,0,0
217322,-66.6666666666667,4,1,1,80,0,0
218295,-133.333333333333,4,1,1,80,0,0
218619,-100,4,1,1,80,0,0
219268,-66.6666666666667,4,1,1,80,0,0
219755,-100,4,1,1,80,0,0
220565,-66.6666666666667,4,1,1,80,0,0
220890,-66.6666666666667,4,1,0,40,0,0
221052,-66.6666666666667,4,1,0,60,0,0
221295,-66.6666666666667,4,1,1,80,0,0
221538,-133.333333333333,4,1,1,80,0,0
222511,-100,4,1,1,80,0,0
223484,-66.6666666666667,4,1,1,80,0,0
226403,-200,4,1,1,80,0,0
228511,-200,4,1,1,60,0,1
228592,-200,4,1,1,60,0,0
228673,-200,4,1,1,80,0,1
228755,-200,4,1,1,80,0,0
231268,-200,4,1,0,30,0,0
231349,-200,4,1,0,45,0,0
231430,-200,4,1,0,60,0,0
231673,-200,4,1,1,80,0,0
234187,-133.333333333333,4,1,1,80,0,0
234349,-100,4,1,1,80,0,0
236133,-66.6666666666667,4,1,1,80,0,0
236457,-133.333333333333,4,1,1,30,0,0
236782,-100,4,1,1,80,0,1
247160,-100,4,1,1,80,0,0
252511,-100,4,1,0,45,0,0
252673,-100,4,1,0,60,0,0
252836,-100,4,1,0,55,0,0
252998,-100,4,1,0,50,0,0
253160,-100,4,1,0,45,0,0
253322,-100,4,1,0,40,0,0
253484,-100,4,1,0,35,0,0
253646,-100,4,1,1,80,0,0
253809,-100,4,1,0,45,0,0
253971,-100,4,1,0,60,0,0
254133,-100,4,1,0,55,0,0
254295,-100,4,1,0,50,0,0
254457,-100,4,1,0,45,0,0
254619,-100,4,1,0,40,0,0
254782,-100,4,1,0,35,0,0
254944,-100,4,1,1,80,0,0
255268,-100,4,1,0,30,0,0
255430,-100,4,1,0,50,0,0
255592,-100,4,1,0,60,0,0
255917,-100,4,1,1,70,0,0
256079,-100,4,1,1,80,0,0
257538,-100,4,2,1,5,0,0

[Colours]
Combo1 : 255,255,255
Combo2 : 0,191,244
Combo3 : 240,229,0
Combo4 : 239,96,0
Combo5 : 123,205,0

[HitObjects]
69,93,9755,2,0,L|155:80,1,75.0000028610231
179,89,9998,1,0,0:0:0:0:
215,97,10079,2,0,L|301:85,1,75.0000028610231
420,55,10403,5,0,0:0:0:0:
429,75,10484,1,0,0:0:0:0:
432,97,10565,1,0,0:0:0:0:
430,119,10646,1,0,0:0:0:0:
420,139,10728,2,0,L|494:94,1,75.0000028610231
355,184,11052,1,8,0:3:0:0:
355,184,11214,1,8,0:3:0:0:
404,328,12998,5,0,0:0:0:0:
382,322,13079,1,0,0:0:0:0:
360,316,13160,1,0,0:0:0:0:
338,310,13241,1,0,0:0:0:0:
316,304,13322,2,0,L|409:280,1,75.0000028610231
231,332,13646,1,8,0:3:0:0:
231,332,13809,1,8,0:3:0:0:
281,52,14295,5,8,0:3:0:0:
281,52,14458,1,8,0:3:0:0:
191,218,14944,21,8,0:3:0:0:
191,218,15106,1,8,0:3:0:0:
321,166,15268,1,8,0:3:0:0:
321,166,15430,1,8,0:3:0:0:
454,102,15592,2,0,L|363:88,1,75.0000028610231
368,71,15836,1,0,0:0:0:0:
356,51,15917,2,2,P|320:121|266:117,1,112.500004291535,0|0,0:0|2:0,0:0:0:0:
225,95,16241,6,0,P|138:91|65:199,1,200,4|8,0:0|0:0,0:0:0:0:
111,261,16728,1,0,0:0:0:0:
205,292,16890,2,0,P|256:274|308:283,1,100,8|8,0:3|0:3,0:0:0:0:
362,358,17214,1,8,0:0:0:0:
205,292,17376,6,0,B|299:264|246:211|362:177,1,200,8|8,0:3|0:3,0:0:0:0:
461,178,17863,1,8,0:0:0:0:
401,97,18025,2,0,P|368:62|357:12,1,100,0|8,0:0|0:3,0:0:0:0:
410,242,18349,2,0,P|362:316|365:369,2,100,8|8|0,0:3|0:0|0:0,0:0:0:0:
501,152,18836,6,0,L|299:188,1,200,8|8,0:3|0:0,0:0:0:0:
210,152,19322,1,0,0:0:0:0:
113,127,19484,2,0,L|10:150,1,100,0|0,0:3|0:3,0:0:0:0:
210,152,19809,21,8,0:0:0:0:
195,178,19890,1,0,0:0:0:0:
180,204,19971,2,0,L|128:297,1,100,8|0,0:3|0:0,0:0:0:0:
273,231,20295,1,8,0:3:0:0:
372,257,20457,2,0,L|391:360,1,100,8|0,0:0|0:0,0:0:0:0:
425,183,20782,2,0,L|481:180,2,50,8|0|8,0:3|0:0|0:3,0:0:0:0:
289,145,21106,2,0,L|233:142,2,50,8|0|0,0:0|0:0|0:0,0:0:0:0:
399,96,21430,5,8,0:3:0:0:
399,96,21592,1,8,0:3:0:0:
300,61,21755,6,0,L|186:55,1,100,8|8,0:3|0:3,0:0:0:0:
389,52,22079,1,8,0:0:0:0:
314,137,22241,6,0,L|243:228,1,100,8|8,0:3|0:3,0:0:0:0:
363,21,22565,1,8,0:3:0:0:
362,209,22728,22,0,P|434:250|511:173,1,200,8|8,0:3|0:3,0:0:0:0:
362,209,23214,2,0,P|342:266|355:321,1,100,8|8,0:3|0:0,0:0:0:0:
424,353,23538,1,8,0:3:0:0:
431,173,23701,2,0,L|417:61,1,100,8|8,0:3|0:3,0:0:0:0:
274,246,24025,5,8,0:3:0:0:
274,246,24187,1,8,0:3:0:0:
200,314,24349,2,0,P|149:339|92:340,1,100,8|8,0:0|0:3,0:0:0:0:
282,330,24673,5,8,0:3:0:0:
194,232,24836,2,0,L|127:153,2,100,8|8|8,0:3|0:0|0:3,0:0:0:0:
350,280,25322,6,0,P|405:275|460:275,1,100
374,135,25646,2,0,P|321:134|264:130,1,100
108,333,25971,1,0,0:0:0:0:
137,331,26052,1,0,0:0:0:0:
166,329,26133,1,0,0:0:0:0:
195,327,26214,1,0,0:0:0:0:
224,325,26295,1,0,0:0:0:0:
253,323,26376,1,0,0:0:0:0:
282,322,26457,1,0,0:0:0:0:
311,321,26538,1,0,0:0:0:0:
340,320,26619,22,0,L|433:311,1,75.0000028610231,4|0,0:0|0:0,0:0:0:0:
303,245,26944,2,0,L|380:196,1,75.0000028610231,2|0,0:0|0:0,0:0:0:0:
234,200,27268,2,0,L|270:128,1,75.0000028610231,0|2,0:0|0:0,0:0:0:0:
320,53,27592,1,0,0:0:0:0:
234,200,27755,6,0,P|163:242|88:205,1,150.000005722046,2|0,0:0|0:0,0:0:0:0:
61,142,28241,1,0,0:0:0:0:
100,61,28403,1,0,0:0:0:0:
100,61,28565,1,0,0:0:0:0:
100,61,29214,6,0,L|82:136,1,75.0000028610231,4|0,0:0|0:0,0:0:0:0:
175,152,29538,2,0,L|167:240,1,75.0000028610231,2|0,0:0|0:0,0:0:0:0:
263,220,29863,2,0,L|270:307,1,75.0000028610231,0|2,0:0|0:0,0:0:0:0:
182,312,30187,1,0,0:0:0:0:
263,220,30349,6,0,P|346:242|394:180,1,150.000005722046,2|0,0:0|0:0,0:0:0:0:
401,84,30836,2,0,P|423:45|456:26,1,75.0000028610231
512,162,31160,2,0,L|431:148,1,75.0000028610231,0|8,0:0|0:3,0:0:0:0:
331,124,31484,1,8,0:0:0:0:
331,124,31809,21,8,0:3:0:0:
181,260,32133,1,8,0:3:0:0:
376,209,32457,6,0,L|272:192,1,75.0000028610231,8|0,0:3|0:0,0:0:0:0:
136,175,32782,1,8,0:3:0:0:
230,136,32944,6,0,P|254:60|325:49,1,150.000005722046,8|8,0:0|0:0,0:0:0:0:
394,88,33430,2,0,P|427:104|467:103,1,75.0000028610231,8|0,0:0|0:0,0:0:0:0:
313,130,33755,2,0,P|310:180|326:214,1,75.0000028610231,8|0,0:0|0:0,0:0:0:0:
330,221,33998,1,0,0:0:0:0:
344,238,34079,2,0,P|362:300|341:358,1,112.500004291535,0|0,0:0|2:0,0:0:0:0:
364,361,34403,5,0,0:0:0:0:
263,310,34565,1,0,0:0:0:0:
161,260,34728,1,0,0:0:0:0:
263,310,34890,1,0,0:0:0:0:
261,197,35052,2,0,L|259:103,1,75.0000028610231
259,99,35295,1,0,0:0:0:0:
259,76,35376,2,2,P|313:99|380:77,1,112.500004291535,0|0,0:0|2:0,0:0:0:0:
380,103,35701,21,0,0:0:0:0:
319,16,35863,1,0,0:0:0:0:
181,125,36025,1,0,0:0:0:0:
341,184,36187,1,0,0:0:0:0:
193,41,36349,2,0,L|89:39,1,75.0000028610231
95,39,36592,1,0,0:0:0:0:
72,37,36673,2,0,P|101:106|90:143,1,112.500004291535,0|0,0:0|2:0,0:0:0:0:
64,210,36998,6,0,P|55:291|152:355,2,200,4|8|8,0:0|0:0|0:3,0:0:0:0:
152,257,37809,1,8,0:3:0:0:
226,190,37971,1,8,0:0:0:0:
446,237,38133,6,0,P|343:258|248:276,1,200,8|8,0:3|0:3,0:0:0:0:
145,168,38619,2,0,P|144:117|147:53,1,100,8|0,0:0|0:0,0:0:0:0:
66,229,38944,1,8,0:3:0:0:
86,326,39106,1,8,0:3:0:0:
226,190,39268,2,0,P|223:141|224:77,1,100,8|0,0:0|0:0,0:0:0:0:
157,246,39592,6,0,P|189:330|295:313,2,200,8|8|8,0:3|0:0|0:3,0:0:0:0:
220,168,40403,1,8,0:3:0:0:
174,79,40565,1,8,0:0:0:0:
58,221,40728,22,0,P|76:123|86:20,1,200,8|8,0:3|0:3,0:0:0:0:
220,168,41214,2,0,P|225:219|234:269,1,100,8|0,0:0|0:0,0:0:0:0:
174,79,41538,1,8,0:3:0:0:
279,65,41701,1,8,0:3:0:0:
154,315,41863,1,8,0:0:0:0:
129,312,41944,1,0,0:0:0:0:
104,309,42025,1,0,0:0:0:0:
79,307,42106,1,0,0:0:0:0:
54,305,42187,54,0,L|48:224,1,75,0|0,0:0|2:0,0:0:0:0:
46,170,42511,22,0,P|131:188|176:100,1,200,4|8,0:0|0:3,0:0:0:0:
220,9,42998,1,8,0:3:0:0:
272,93,43160,1,8,0:0:0:0:
100,109,43322,6,0,L|79:0,1,100,8|0,0:3|0:0,0:0:0:0:
236,179,43646,1,8,0:3:0:0:
309,15,43809,1,8,0:0:0:0:
422,159,43971,1,0,0:0:0:0:
392,16,44133,5,8,0:3:0:0:
363,111,44295,1,8,0:3:0:0:
335,207,44457,2,0,L|304:306,1,100,8|0,0:0|0:0,0:0:0:0:
280,284,44701,1,0,0:0:0:0:
250,284,44782,21,0,0:0:0:0:
224,299,44863,1,0,0:0:0:0:
210,325,44944,1,0,0:0:0:0:
156,244,45106,2,0,L|165:188,2,50
90,317,45430,2,0,L|-16:309,1,100
30,171,45755,54,2,P|95:149|130:94,1,112.500004291535,0|0,0:0|2:0,0:0:0:0:
136,142,46079,21,0,0:0:0:0:
159,161,46160,1,0,0:0:0:0:
188,165,46241,1,0,0:0:0:0:
117,239,46403,2,0,L|67:253,2,50
219,272,46728,2,0,L|242:377,1,100
255,343,46971,1,0,0:0:0:0:
276,321,47052,1,0,0:0:0:0:
303,308,47133,1,0,0:0:0:0:
332,305,47214,1,0,0:0:0:0:
361,310,47295,1,0,0:0:0:0:
390,315,47376,6,0,P|455:320|490:195,2,200,8|8|8,0:0|0:0|0:0,0:0:0:0:
334,231,48187,1,0,0:0:0:0:
366,136,48349,2,0,P|418:123|470:144,1,100,8|0,0:0|0:0,0:0:0:0:
334,231,48673,6,0,P|275:160|312:56,1,200,8|8,0:0|0:0,0:0:0:0:
403,43,49160,2,0,P|462:114|425:218,1,200,0|8,0:0|0:0,0:0:0:0:
365,137,49646,1,8,0:0:0:0:
402,308,49809,1,8,0:0:0:0:
365,137,49971,22,0,L|255:123,1,100,8|0,0:0|0:0,0:0:0:0:
239,34,50295,2,0,L|135:89,1,100,8|0,0:0|0:0,0:0:0:0:
71,35,50619,2,0,P|30:125|95:218,1,200,8|8,0:0|0:0,0:0:0:0:
173,182,51106,1,0,0:0:0:0:
271,168,51268,6,0,P|300:218|295:267,1,100,8|0,0:0|0:0,0:0:0:0:
216,316,51592,1,8,0:0:0:0:
271,168,51755,2,0,P|361:179|424:89,1,200,8|8,0:0|0:0,0:0:0:0:
423,99,52241,1,8,0:0:0:0:
480,357,52565,6,0,L|469:249,1,100,8|0,0:0|0:0,0:0:0:0:
494,160,52890,1,8,0:0:0:0:
267,72,53052,2,0,L|467:59,1,200
406,154,53538,2,0,L|301:162,1,100,8|0,0:0|0:0,0:0:0:0:
191,38,53863,6,0,P|83:29|45:123,1,200,8|8,0:0|0:0,0:0:0:0:
85,188,54349,2,0,L|210:203,1,100,0|8,0:0|0:0,0:0:0:0:
282,215,54673,1,0,0:0:0:0:
35,248,54836,21,8,0:0:0:0:
311,292,54998,1,0,0:0:0:0:
311,292,55079,1,0,0:0:0:0:
311,292,55160,1,0,0:0:0:0:
0,316,55484,5,8,0:0:0:0:
160,157,55646,2,0,P|217:156|263:173,1,100,8|0,0:3|0:0,0:0:0:0:
85,116,55971,5,8,0:3:0:0:
78,313,56133,1,8,0:0:0:0:
85,116,56295,2,0,B|158:34|192:109|261:24,1,200,8|0,0:3|0:0,0:0:0:0:
272,54,56701,1,0,0:0:0:0:
296,71,56782,1,8,0:0:0:0:
394,29,56944,5,8,0:3:0:0:
379,133,57106,2,0,L|385:239,1,100,8|8,0:0|0:3,0:0:0:0:
467,98,57430,1,0,0:0:0:0:
468,127,57511,1,0,0:0:0:0:
470,156,57592,1,0,0:0:0:0:
472,185,57673,1,0,0:0:0:0:
474,215,57755,21,0,0:0:0:0:
308,279,57917,1,0,0:0:0:0:
150,335,58079,1,0,0:0:0:0:
219,287,58241,1,0,0:0:0:0:
405,290,58403,54,0,L|400:171,1,100,2|0,0:3|2:0,0:0:0:0:
400,190,59052,21,0,0:0:0:0:
268,120,59214,1,0,0:0:0:0:
133,51,59376,1,0,0:0:0:0:
224,47,59538,1,0,0:0:0:0:
312,199,59701,2,0,P|264:207|205:187,1,100,0|2,0:0|0:3,0:0:0:0:
312,199,60025,2,0,P|290:286|318:343,1,150,2|0,0:2|2:0,0:0:0:0:
284,345,60349,5,0,0:0:0:0:
392,241,60511,1,0,0:0:0:0:
371,95,60674,1,0,0:0:0:0:
323,169,60836,1,0,0:0:0:0:
373,327,60998,22,0,P|425:322|460:283,1,100,2|0,0:3|2:0,0:0:0:0:
457,289,61646,53,0,0:0:0:0:
323,169,61809,1,0,0:0:0:0:
202,282,61971,1,0,0:0:0:0:
293,261,62133,1,0,0:0:0:0:
352,82,62295,1,0,0:0:0:0:
324,71,62376,1,0,0:0:0:0:
294,68,62457,1,0,0:0:0:0:
264,70,62538,1,0,0:0:0:0:
235,80,62619,2,0,P|181:98|130:98,1,100
12,53,62944,21,8,0:3:0:0:
128,21,63106,1,0,0:0:0:0:
56,213,63268,2,0,P|34:158|48:116,1,100,8|0,0:3|0:0,0:0:0:0:
168,183,63592,5,8,0:3:0:0:
307,334,63917,1,8,0:3:0:0:
399,296,64079,1,0,0:0:0:0:
402,196,64241,5,8,0:3:0:0:
229,268,64403,1,0,0:0:0:0:
399,296,64565,2,0,P|451:285|483:243,1,100,8|0,0:3|0:0,0:0:0:0:
326,243,64890,5,8,0:3:0:0:
326,243,65052,1,0,0:0:0:0:
326,243,65214,1,8,0:3:0:0:
95,58,65538,21,8,0:3:0:0:
439,109,65863,1,8,0:0:0:0:
72,191,66187,1,8,0:3:0:0:
456,241,66511,1,8,0:0:0:0:
43,318,66836,5,0,0:0:0:0:
133,260,66998,2,0,P|191:244|245:250,1,100
308,308,67322,1,0,0:0:0:0:
203,345,67484,5,0,0:0:0:0:
133,260,67646,2,0,P|158:164|90:97,2,200,0|4|0,0:0|0:3|0:0,0:0:0:0:
133,260,68376,1,0,0:0:0:0:
133,260,68457,5,0,0:0:0:0:
159,273,68538,1,0,0:0:0:0:
188,277,68619,1,0,0:0:0:0:
217,271,68701,1,0,0:0:0:0:
243,256,68782,1,0,0:0:0:0:
267,238,68863,1,0,0:0:0:0:
295,229,68944,1,0,0:0:0:0:
324,233,69025,1,0,0:0:0:0:
350,246,69106,1,0,0:0:0:0:
373,264,69187,1,0,0:0:0:0:
402,270,69268,1,0,0:0:0:0:
431,264,69349,1,0,0:0:0:0:
456,249,69430,22,0,L|472:194,1,50
470,93,69592,2,0,L|395:112,1,50
391,183,69755,1,0,0:0:0:0:
366,44,69917,6,0,L|315:27,1,50
187,68,70079,2,0,L|240:35,1,50
286,140,70241,1,0,0:0:0:0:
286,140,70322,1,0,0:0:0:0:
286,140,70403,2,0,L|186:149,1,100
87,221,70728,38,0,L|63:145,1,75,0|0,0:0|2:0,0:0:0:0:
87,221,71052,6,0,P|99:280|182:308,1,150,4|0,0:0|0:0,0:0:0:0:
186,280,71376,2,0,P|229:267|285:291,1,100,8|8,0:3|0:3,0:0:0:0:
384,337,71701,1,8,0:0:0:0:
474,284,71863,1,0,0:0:0:0:
384,337,72025,6,0,P|374:289|395:240,1,100,8|8,0:3|0:3,0:0:0:0:
460,173,72349,1,8,0:0:0:0:
384,337,72511,2,0,B|366:239|298:268|299:149,1,200,0|8,0:0|0:3,0:0:0:0:
365,24,72998,2,0,P|384:78|372:128,1,100,8|0,0:0|0:0,0:0:0:0:
176,80,73322,38,0,P|180:46|202:5,1,75,0|0,0:0|2:0,0:0:0:0:
176,80,73646,38,0,P|170:140|96:191,1,150,4|0,0:0|0:0,0:0:0:0:
72,199,73971,2,0,P|128:238|138:276,1,100,8|8,0:3|0:3,0:0:0:0:
51,298,74295,1,8,0:0:0:0:
208,214,74457,1,0,0:0:0:0:
303,346,74619,6,0,P|345:360|415:361,1,100,8|8,0:3|0:3,0:0:0:0:
508,309,74944,1,8,0:0:0:0:
303,346,75106,2,0,B|207:312|184:369|103:332,1,200,0|8,0:0|0:3,0:0:0:0:
106,333,75592,1,8,0:0:0:0:
47,106,75917,22,0,L|149:96,1,100,8|8,0:3|0:3,0:0:0:0:
262,22,76241,1,8,0:0:0:0:
317,157,76403,1,0,0:0:0:0:
465,106,76565,2,0,L|363:96,1,100,8|8,0:3|0:3,0:0:0:0:
195,153,76890,1,8,0:0:0:0:
195,153,77214,5,8,0:3:0:0:
262,22,77376,1,8,0:3:0:0:
317,157,77538,1,8,0:0:0:0:
262,22,77701,2,0,P|339:66|435:20,1,200,0|8,0:0|0:3,0:0:0:0:
449,140,78187,2,0,P|441:194|448:251,1,100,8|0,0:0|0:0,0:0:0:0:
484,331,78511,5,8,0:3:0:0:
384,343,78673,1,8,0:3:0:0:
213,207,78836,5,8,0:0:0:0:
311,222,78998,1,0,0:0:0:0:
158,350,79160,22,0,L|36:371,1,100,8|8,0:3|0:3,0:0:0:0:
42,192,79484,2,0,P|102:189|147:162,1,100,8|0,0:0|0:0,0:0:0:0:
42,192,79809,6,0,B|130:209|106:279|218:285,1,200,8|8,0:0|0:0,0:0:0:0:
310,362,80295,1,0,0:0:0:0:
378,268,80457,2,0,P|432:266|477:293,1,100,8|0,0:0|0:0,0:0:0:0:
310,362,80782,1,8,0:0:0:0:
304,332,80863,1,0,0:0:0:0:
298,302,80944,1,0,0:0:0:0:
292,272,81025,1,0,0:0:0:0:
286,242,81106,38,0,P|256:212|211:201,1,75,0|0,0:0|2:0,0:0:0:0:
286,242,81430,38,0,P|288:160|363:117,1,150,4|0,0:0|0:0,0:0:0:0:
290,102,81755,2,0,P|234:130|188:121,1,100,8|8,0:3|0:3,0:0:0:0:
103,95,82079,1,8,0:0:0:0:
18,41,82241,1,0,0:0:0:0:
103,95,82403,6,0,L|85:203,1,100,8|8,0:3|0:3,0:0:0:0:
67,292,82728,1,8,0:0:0:0:
103,95,82890,2,0,P|160:169|269:127,1,200,0|8,0:0|0:3,0:0:0:0:
333,79,83376,2,0,P|381:56|440:65,1,100,8|0,0:0|0:0,0:0:0:0:
333,79,83701,6,0,P|305:49|294:12,1,75,0|0,0:0|2:0,0:0:0:0:
333,79,84025,6,0,P|312:155|228:171,1,150,4|0,0:0|0:0,0:0:0:0:
234,202,84349,2,0,P|178:205|135:232,2,100,8|8|8,0:3|0:3|0:0,0:0:0:0:
300,277,84836,1,0,0:0:0:0:
234,202,84998,6,0,L|171:121,1,100,8|8,0:3|0:3,0:0:0:0:
108,53,85322,1,8,0:0:0:0:
234,202,85484,2,0,P|281:114|382:99,1,200,0|8,0:0|0:3,0:0:0:0:
373,96,85971,1,8,0:0:0:0:
370,327,86295,6,0,P|410:340|463:324,1,100,8|8,0:3|0:3,0:0:0:0:
306,206,86619,2,0,L|295:312,1,100,8|0,0:0|0:0,0:0:0:0:
42,277,86944,1,8,0:3:0:0:
42,277,87106,2,0,P|138:232|230:274,1,200,8|0,0:3|0:0,0:0:0:0:
175,353,87592,5,8,0:3:0:0:
220,264,87755,1,8,0:3:0:0:
267,176,87917,2,0,L|318:79,1,100,8|0,0:0|0:0,0:0:0:0:
309,257,88241,21,8,0:3:0:0:
183,184,88403,1,8,0:3:0:0:
19,90,88565,2,0,L|120:146,1,100,8|0,0:0|0:0,0:0:0:0:
265,228,88890,5,8,0:3:0:0:
362,181,89052,1,8,0:3:0:0:
239,306,89214,2,0,P|192:277|183:223,1,100,8|0,0:0|0:0,0:0:0:0:
401,260,89538,2,0,L|391:361,1,100,8|0,0:0|0:0,0:0:0:0:
289,144,89863,2,0,L|299:43,1,100,8|0,0:0|0:0,0:0:0:0:
362,180,90187,5,8,0:3:0:0:
265,227,90349,1,8,0:3:0:0:
388,102,90511,2,0,P|435:131|444:185,1,100,8|0,0:0|0:0,0:0:0:0:
226,148,90835,2,0,L|236:47,1,100,8|0,0:0|0:0,0:0:0:0:
338,264,91160,2,0,L|328:365,1,100,8|0,0:0|0:0,0:0:0:0:
174,83,91484,6,0,P|239:67|280:89,1,100,8|2,0:0|0:3,0:0:0:0:
418,193,91809,2,0,L|325:130,1,100,8|2,0:0|0:3,0:0:0:0:
172,4,92133,1,8,0:0:0:0:
226,148,92295,1,2,0:3:0:0:
226,148,92376,1,0,0:0:0:0:
226,148,92457,1,8,0:0:0:0:
358,51,92619,1,2,0:3:0:0:
418,193,92782,22,0,P|353:209|312:187,1,100,8|2,0:0|0:3,0:0:0:0:
174,83,93107,2,0,L|267:146,1,100,8|2,0:0|0:3,0:0:0:0:
420,272,93431,1,8,0:0:0:0:
366,128,93593,1,2,0:3:0:0:
366,128,93674,1,0,0:0:0:0:
366,128,93755,1,8,0:0:0:0:
234,225,93917,1,2,0:3:0:0:
174,83,94079,6,0,P|239:67|280:89,1,100,8|2,0:0|0:3,0:0:0:0:
418,193,94404,2,0,L|325:130,1,100,8|2,0:0|0:3,0:0:0:0:
172,4,94728,1,8,0:0:0:0:
226,148,94890,1,2,0:3:0:0:
226,148,94971,1,0,0:0:0:0:
226,148,95052,1,8,0:0:0:0:
358,51,95214,1,2,0:3:0:0:
418,193,95376,6,0,L|410:295,1,100,8|0,0:0|0:0,0:0:0:0:
425,110,95701,1,8,0:0:0:0:
418,193,95863,2,0,P|337:248|242:192,1,200,8|0,0:0|0:0,0:0:0:0:
236,234,96268,1,0,0:0:0:0:
214,254,96349,1,8,0:0:0:0:
147,168,96511,1,0,0:0:0:0:
61,310,96673,6,0,P|115:308|168:312,1,100
339,139,96998,2,0,P|281:138|223:145,1,100
128,249,97322,21,0,0:0:0:0:
158,83,97484,1,0,0:0:0:0:
65,186,97646,1,0,0:0:0:0:
147,168,97809,1,0,0:0:0:0:
8,122,97971,5,0,0:0:0:0:
43,269,98133,1,0,0:0:0:0:
209,236,98295,1,0,0:0:0:0:
158,83,98457,1,0,0:0:0:0:
256,192,98619,12,0,99268,0:0:0:0:
201,105,109646,22,0,B|127:88|123:136|54:120,2,150.000005722046,0|0|0,1:0|0:0|1:0,0:0:0:0:
242,177,110457,1,0,0:0:0:0:
315,140,110619,21,2,0:0:0:0:
394,116,110782,2,0,P|415:194|376:258,1,150.000005722046,2|0,0:0|0:0,0:0:0:0:
308,218,111268,1,0,0:0:0:0:
315,140,111430,1,0,0:0:0:0:
315,140,111592,2,0,L|289:50,1,75.0000028610231,0|0,1:0|0:0,0:0:0:0:
216,38,111917,1,0,0:0:0:0:
216,38,112241,6,0,P|159:106|183:166,1,150.000005722046,2|0,0:0|0:0,0:0:0:0:
180,240,112728,1,0,1:0:0:0:
158,232,112809,1,0,1:0:0:0:
136,224,112890,2,0,L|46:197,1,75.0000028610231,0|0,1:0|0:0,0:0:0:0:
139,317,113214,5,2,0:0:0:0:
227,310,113376,2,0,P|307:335|368:301,1,150.000005722046,2|0,0:0|0:0,0:0:0:0:
449,311,113863,1,0,0:0:0:0:
139,317,114187,1,0,1:0:0:0:
180,245,114349,1,0,0:0:0:0:
221,173,114511,2,2,L|261:102,1,75.0000028610231,2|0,0:0|0:0,0:0:0:0:
180,245,114836,6,0,L|71:137,2,150.000005722046,2|0|0,0:0|0:0|1:0,0:0:0:0:
219,317,115646,1,0,0:0:0:0:
295,285,115809,21,2,0:0:0:0:
376,297,115971,2,0,L|456:297,1,75.0000028610231,2|0,0:0|0:0,0:0:0:0:
349,217,116295,5,0,0:0:0:0:
406,158,116457,2,0,L|395:77,1,75.0000028610231
314,102,116782,2,0,L|305:10,1,75.0000028610231,0|0,1:0|0:0,0:0:0:0:
314,102,117106,6,2,L|329:222,1,112.500004291535,2|0,0:0|0:0,0:0:0:0:
347,236,117430,6,0,P|298:231|252:254,1,100,8|8,0:0|0:0,0:0:0:0:
275,367,117755,2,0,P|324:372|370:349,1,100,8|8,0:0|0:0,0:0:0:0:
263,164,118079,2,0,P|181:227|190:325,1,200,8|0,0:0|0:0,0:0:0:0:
184,315,118565,1,0,0:0:0:0:
263,164,118728,22,0,P|245:105|216:75,1,100,8|8,0:0|0:0,0:0:0:0:
58,202,119052,2,0,P|76:261|105:291,1,100,8|8,0:0|0:0,0:0:0:0:
129,299,119295,1,0,0:0:0:0:
157,306,119376,2,0,L|277:313,1,100,8|0,0:0|0:0,0:0:0:0:
354,337,119701,1,0,0:0:0:0:
450,310,119863,1,0,0:0:0:0:
327,251,120025,6,0,P|365:224|418:193,1,100
250,204,120349,2,0,P|265:152|277:97,1,100
160,209,120673,1,8,0:0:0:0:
146,109,120836,1,0,0:0:0:0:
133,9,120998,1,0,0:0:0:0:
146,109,121160,6,0,P|67:163|76:260,1,200
253,204,121646,2,0,P|243:155|236:97,1,100
180,300,121971,2,0,P|230:304|291:315,1,100,8|0,0:0|0:0,0:0:0:0:
432,359,122295,1,0,0:0:0:0:
90,349,122619,6,0,P|66:300|32:235,1,100
135,223,122944,2,0,P|126:174|119:114,1,100
308,102,123268,1,8,0:0:0:0:
216,135,123430,1,0,0:0:0:0:
234,36,123592,1,0,0:0:0:0:
234,224,123755,22,0,P|151:196|138:88,1,200
234,224,124241,2,0,P|244:282|230:326,1,100
217,345,124484,1,0,0:0:0:0:
192,360,124565,2,0,L|306:367,1,100,8|0,0:0|0:0,0:0:0:0:
104,352,124890,1,0,0:0:0:0:
482,268,125214,6,0,L|273:288,2,200,0|0|8,0:0|0:0|0:0,0:0:0:0:
408,192,126025,2,0,L|306:182,1,100
322,384,126349,6,0,L|428:356,1,100
241,346,126673,1,0,0:0:0:0:
187,266,126836,2,0,L|72:262,1,100
212,176,127160,1,8,0:0:0:0:
277,252,127322,1,0,0:0:0:0:
241,346,127484,1,0,0:0:0:0:
236,131,127646,5,0,0:0:0:0:
236,131,127728,1,0,0:0:0:0:
236,131,127809,2,0,L|336:123,1,100,8|8,0:0|0:0,0:0:0:0:
194,216,128133,2,0,L|94:208,1,100,8|8,0:0|0:0,0:0:0:0:
368,214,128457,21,8,0:0:0:0:
432,137,128619,1,2,0:3:0:0:
497,61,128782,1,0,0:0:0:0:
497,61,128944,1,2,0:2:0:0:
479,238,129106,6,0,P|422:233|368:236,1,100,8|8,0:0|0:0,0:0:0:0:
221,155,129430,2,0,P|281:156|338:143,1,100,8|8,0:0|0:0,0:0:0:0:
158,82,129755,5,0,0:0:0:0:
134,100,129836,1,0,0:0:0:0:
119,126,129917,1,0,0:0:0:0:
112,155,129998,1,0,0:0:0:0:
115,184,130079,2,0,L|131:238,1,50
69,340,130241,2,0,L|116:301,1,50
219,292,130403,6,0,L|107:267,1,100,8|0,0:3|0:0,0:0:0:0:
301,205,130728,2,0,P|312:255|297:301,1,100,8|0,0:0|0:0,0:0:0:0:
357,134,131052,2,0,L|469:159,1,100,8|8,0:3|0:3,0:0:0:0:
273,123,131376,2,0,P|262:73|277:27,1,100,8|0,0:0|0:0,0:0:0:0:
302,205,131701,22,0,B|212:243|202:171|103:204,1,200,8|8,0:3|0:0,0:0:0:0:
152,297,132187,1,0,0:0:0:0:
273,123,132349,5,2,0:3:0:0:
302,205,132511,1,2,0:3:0:0:
339,285,132673,2,0,L|376:380,1,100,2|0,0:2|0:0,0:0:0:0:
454,143,132998,6,0,P|399:131|355:144,1,100,8|0,0:3|0:0,0:0:0:0:
273,123,133322,2,0,L|288:18,1,100,8|0,0:0|0:0,0:0:0:0:
231,249,133646,2,0,L|216:354,1,100,8|8,0:3|0:3,0:0:0:0:
57,204,133971,2,0,P|112:216|156:203,1,100,8|0,0:0|0:0,0:0:0:0:
57,204,134295,6,0,P|126:283|98:372,1,200,8|8,0:3|0:0,0:0:0:0:
31,300,134782,21,0,0:0:0:0:
31,300,134863,1,0,0:0:0:0:
31,300,134944,1,8,0:3:0:0:
57,204,135106,1,8,0:3:0:0:
166,41,135268,2,0,L|141:143,1,100,4|4,0:3|0:3,0:0:0:0:
120,120,135511,1,0,0:0:0:0:
92,107,135592,6,0,P|39:100|-6:120,2,100,8|0|8,0:3|0:0|0:0,0:0:0:0:
209,163,136079,2,0,P|270:212|398:181,1,200,0|8,0:0|0:3,0:0:0:0:
431,90,136565,2,0,P|424:37|397:-1,1,100,8|0,0:0|0:0,0:0:0:0:
383,194,136890,6,0,L|482:208,1,100,8|0,0:3|0:0,0:0:0:0:
325,121,137214,1,8,0:0:0:0:
302,220,137376,2,0,L|322:334,1,100,0|8,0:0|0:3,0:0:0:0:
414,111,137701,1,8,0:3:0:0:
262,60,137863,1,8,0:0:0:0:
221,181,138025,5,0,0:0:0:0:
221,181,138106,1,0,0:0:0:0:
221,181,138187,6,0,L|183:285,1,100,0|8,0:0|0:0,0:0:0:0:
302,220,138673,2,0,L|322:334,1,100
319,318,139160,1,8,0:0:0:0:
383,194,139322,2,0,L|482:208,1,100
482,208,139728,1,0,0:0:0:0:
482,208,139809,1,8,0:0:0:0:
327,133,139971,5,0,0:0:0:0:
235,286,140133,1,0,0:0:0:0:
220,284,140214,1,0,0:0:0:0:
205,283,140295,1,0,0:0:0:0:
190,282,140376,1,0,0:0:0:0:
175,281,140457,1,8,0:3:0:0:
160,280,140538,1,8,0:3:0:0:
145,279,140619,1,4,0:3:0:0:
129,278,140701,1,4,0:3:0:0:
114,277,140782,5,4,0:3:0:0:
135,119,140944,1,0,0:0:0:0:
266,200,141106,1,0,0:0:0:0:
80,197,141268,1,0,0:0:0:0:
220,132,141430,38,0,P|266:86|273:33,1,100,2|0,0:3|2:0,0:0:0:0:
273,53,142079,37,0,0:0:0:0:
135,119,142241,1,0,0:0:0:0:
258,212,142403,1,0,0:0:0:0:
258,212,142484,1,0,0:0:0:0:
258,212,142565,1,0,0:0:0:0:
190,46,142728,5,0,0:0:0:0:
167,209,142890,1,2,0:3:0:0:
135,119,143052,2,0,L|118:246,1,100,2|0,0:2|0:0,0:0:0:0:
67,52,143376,21,0,0:0:0:0:
42,264,143538,1,0,0:0:0:0:
227,325,143701,1,0,0:0:0:0:
55,156,143863,1,0,0:0:0:0:
137,296,144025,54,0,L|34:261,1,100,2|0,0:3|2:0,0:0:0:0:
42,264,144673,21,0,0:0:0:0:
192,155,144836,1,0,0:0:0:0:
86,365,144998,1,0,0:0:0:0:
86,365,145079,1,0,0:0:0:0:
86,365,145160,1,0,0:0:0:0:
96,176,145322,5,0,0:0:0:0:
128,214,145403,1,0,0:0:0:0:
174,231,145484,1,0,0:0:0:0:
266,193,145646,1,0,0:0:0:0:
250,93,145809,1,0,0:0:0:0:
333,37,145971,5,8,0:3:0:0:
266,193,146133,1,0,0:0:0:0:
149,65,146295,1,8,0:3:0:0:
336,129,146457,1,0,0:0:0:0:
180,154,146619,21,8,0:3:0:0:
428,317,146944,1,8,0:3:0:0:
127,309,147268,5,8,0:3:0:0:
181,136,147430,1,0,0:0:0:0:
233,306,147592,1,8,0:3:0:0:
90,207,147755,1,0,0:0:0:0:
267,208,147917,6,0,L|377:188,1,100,8|0,0:3|0:0,0:0:0:0:
478,169,148241,1,8,0:3:0:0:
216,333,148565,6,0,P|161:334|112:340,1,100,8|0,0:3|0:0,0:0:0:0:
29,242,148890,2,0,P|80:248|134:262,1,100,8|0,0:0|0:0,0:0:0:0:
207,201,149214,21,8,0:3:0:0:
11,329,149538,1,8,0:0:0:0:
207,201,149863,6,0,L|321:203,1,100
405,67,150187,2,0,L|291:69,1,100
407,258,150511,5,0,0:0:0:0:
398,158,150673,1,0,0:0:0:0:
198,301,150836,1,0,0:0:0:0:
207,201,150998,6,0,P|294:230|311:336,1,200
334,305,151403,1,0,0:0:0:0:
355,283,151484,1,0,0:0:0:0:
381,268,151565,1,0,0:0:0:0:
408,256,151646,1,0,0:0:0:0:
428,233,151728,1,0,0:0:0:0:
433,203,151809,22,0,L|436:141,3,50
437,123,152133,1,0,0:0:0:0:
427,94,152214,1,0,0:0:0:0:
405,73,152295,1,0,0:0:0:0:
377,60,152376,1,0,0:0:0:0:
347,58,152457,6,0,L|292:65,1,50
184,15,152619,2,0,L|228:57,1,50
234,167,152782,2,0,L|248:100,1,50
144,152,152944,6,0,L|130:209,1,50
215,294,153106,2,0,L|195:236,1,50
75,280,153268,2,0,L|149:280,1,50
53,140,153430,6,0,L|58:197,1,50,0|0,0:0|0:0,0:0:0:0:
16,368,153592,2,0,L|11:306,1,50
15,87,153755,6,0,L|20:164,1,75,0|0,0:0|2:0,0:0:0:0:
83,43,154079,6,0,P|89:111|93:203,1,150,4|0,0:0|0:0,0:0:0:0:
163,170,154403,2,0,P|165:221|171:273,1,100,8|8,0:3|0:3,0:0:0:0:
231,83,154728,2,0,P|237:139|239:189,1,100,8|0,0:0|0:0,0:0:0:0:
360,337,155052,6,0,L|349:222,1,100,8|8,0:3|0:3,0:0:0:0:
342,137,155376,1,8,0:0:0:0:
360,337,155538,2,0,P|292:372|216:278,1,200,0|8,0:0|0:3,0:0:0:0:
252,201,156025,1,8,0:0:0:0:
220,106,156187,1,0,0:0:0:0:
321,353,156349,38,0,L|397:315,1,75,0|0,0:0|2:0,0:0:0:0:
297,282,156673,38,0,P|362:246|439:209,1,150,4|0,0:0|0:0,0:0:0:0:
456,109,156998,2,0,P|416:135|364:158,1,100,8|8,0:3|0:3,0:0:0:0:
246,160,157322,1,8,0:0:0:0:
322,70,157484,1,0,0:0:0:0:
331,185,157646,6,0,L|357:296,1,100,8|8,0:3|0:3,0:0:0:0:
377,367,157971,1,8,0:0:0:0:
331,185,158133,2,0,P|258:264|161:232,1,200,0|8,0:0|0:3,0:0:0:0:
78,226,158619,1,8,0:0:0:0:
10,300,158782,1,0,0:0:0:0:
144,156,158944,21,8,0:3:0:0:
47,131,159106,1,8,0:3:0:0:
222,200,159268,5,8,0:0:0:0:
229,100,159430,1,0,0:0:0:0:
158,247,159592,5,8,0:3:0:0:
70,349,159755,2,0,L|83:245,2,100,8|8|0,0:3|0:0|0:0,0:0:0:0:
144,156,160241,5,8,0:3:0:0:
231,205,160403,1,8,0:3:0:0:
317,254,160565,1,8,0:0:0:0:
403,304,160728,1,0,0:0:0:0:
408,205,160890,2,0,L|395:101,2,100,8|8|8,0:3|0:3|0:0,0:0:0:0:
151,40,161538,22,0,P|124:81|72:120,1,100,8|8,0:3|0:3,0:0:0:0:
40,210,161863,2,0,P|58:264|57:327,1,100,8|0,0:0|0:0,0:0:0:0:
228,202,162187,5,8,0:3:0:0:
384,244,162349,1,8,0:3:0:0:
142,178,162511,2,0,L|46:153,1,100,8|0,0:0|0:0,0:0:0:0:
292,143,162836,6,0,P|313:193|302:243,1,100
175,356,163160,2,0,P|154:306|165:256,1,100
325,326,163484,6,0,L|269:314,1,50
228,202,163646,2,0,L|237:253,1,50
142,177,163809,2,0,L|135:120,1,50
33,40,163971,2,0,L|92:70,1,50
153,55,164133,6,0,L|226:38,1,75,0|0,0:0|2:0,0:0:0:0:
231,24,164457,6,0,L|79:58,1,150,4|0,0:0|0:0,0:0:0:0:
32,176,164782,2,0,L|138:152,1,100,8|8,0:3|0:3,0:0:0:0:
273,208,165106,1,8,0:0:0:0:
160,290,165268,5,0,0:0:0:0:
220,110,165430,2,0,L|186:215,1,100,8|8,0:3|0:3,0:0:0:0:
372,252,165755,5,8,0:0:0:0:
324,69,165917,2,0,L|349:175,1,100,0|8,0:0|0:3,0:0:0:0:
411,68,166241,5,8,0:3:0:0:
243,28,166403,1,8,0:0:0:0:
273,208,166565,1,0,0:0:0:0:
111,258,166728,6,0,P|100:221|116:172,1,75,0|0,0:0|2:0,0:0:0:0:
101,171,167052,6,0,P|93:254|146:317,1,150,4|0,0:0|0:0,0:0:0:0:
208,324,167376,2,0,P|262:319|317:342,1,100,8|8,0:3|0:3,0:0:0:0:
428,345,167701,1,8,0:0:0:0:
286,204,167863,5,0,0:0:0:0:
410,225,168025,2,0,P|394:174|404:114,1,100,8|8,0:3|0:3,0:0:0:0:
305,286,168349,5,8,0:0:0:0:
318,103,168511,2,0,P|272:123|225:115,1,100,0|8,0:0|0:3,0:0:0:0:
365,194,168836,5,8,0:3:0:0:
186,301,168998,1,8,0:0:0:0:
191,101,169160,1,0,0:0:0:0:
137,180,169322,22,0,L|142:72,1,100,8|8,0:3|0:3,0:0:0:0:
83,250,169646,1,8,0:0:0:0:
90,20,169809,1,0,0:0:0:0:
32,127,169971,5,8,0:3:0:0:
223,176,170133,2,0,L|329:200,2,100,8|8|0,0:3|0:0|0:0,0:0:0:0:
32,127,170619,5,8,0:3:0:0:
191,101,170782,2,0,P|251:67|370:109,1,200,8|0,0:3|0:0,0:0:0:0:
319,297,171268,2,0,P|267:305|213:283,1,100,8|8,0:3|0:3,0:0:0:0:
399,256,171592,2,0,L|406:362,1,100,8|0,0:0|0:0,0:0:0:0:
390,166,171917,5,8,0:3:0:0:
490,276,172079,1,0,0:0:0:0:
309,201,172241,1,8,0:0:0:0:
468,139,172403,1,0,0:0:0:0:
399,257,172565,21,8,0:0:0:0:
390,166,172728,1,0,0:0:0:0:
383,74,172890,1,8,0:0:0:0:
383,74,173052,1,0,0:0:0:0:
479,224,173214,5,8,0:3:0:0:
227,211,173376,1,8,0:3:0:0:
390,166,173538,1,8,0:3:0:0:
189,305,173701,1,8,0:3:0:0:
284,108,173863,5,8,0:0:0:0:
173,127,174025,1,0,0:0:0:0:
2,150,174187,2,0,L|119:136,1,100,8|0,0:0|0:0,0:0:0:0:
2,150,174511,6,0,L|89:221,1,100,8|2,0:0|0:3,0:0:0:0:
140,351,174836,2,0,L|58:286,1,100,8|2,0:0|0:3,0:0:0:0:
154,184,175160,1,8,0:0:0:0:
0,336,175322,1,2,0:3:0:0:
0,336,175403,1,0,0:0:0:0:
0,336,175484,1,8,0:0:0:0:
154,184,175646,1,2,0:3:0:0:
140,351,175809,22,0,L|227:280,1,100,8|2,0:0|0:3,0:0:0:0:
278,150,176134,2,0,L|196:215,1,100,8|2,0:0|0:3,0:0:0:0:
292,317,176458,1,8,0:0:0:0:
138,165,176620,1,2,0:3:0:0:
138,165,176701,1,0,0:0:0:0:
138,165,176782,1,8,0:0:0:0:
292,317,176944,1,2,0:3:0:0:
278,150,177106,6,0,L|365:221,1,100,8|2,0:0|0:3,0:0:0:0:
416,351,177431,2,0,L|334:286,1,100,8|2,0:0|0:3,0:0:0:0:
430,184,177755,1,8,0:0:0:0:
276,336,177917,1,2,0:3:0:0:
276,336,177998,1,0,0:0:0:0:
276,336,178079,1,8,0:0:0:0:
430,184,178241,1,2,0:3:0:0:
231,120,178403,6,0,L|314:198,1,100,8|0,0:0|0:0,0:0:0:0:
371,250,178728,1,8,0:0:0:0:
117,113,178890,2,0,L|264:255,1,200,8|0,0:0|0:0,0:0:0:0:
282,272,179295,1,0,0:0:0:0:
303,292,179376,1,0,0:0:0:0:
208,333,179538,1,0,0:0:0:0:
127,255,179701,6,0,P|66:251|25:270,1,100
232,200,180025,2,0,P|293:196|334:215,1,100
208,283,180349,21,0,0:0:0:0:
145,162,180511,1,0,0:0:0:0:
287,359,180673,2,0,L|290:249,1,100
124,255,180998,5,0,0:0:0:0:
225,117,181160,1,0,0:0:0:0:
128,338,181322,2,0,L|239:313,1,100
53,186,181646,5,0,0:0:0:0:
83,188,181728,1,0,0:0:0:0:
112,190,181809,1,0,0:0:0:0:
141,192,181890,1,0,0:0:0:0:
170,194,181971,2,0,L|228:170,1,50,2|0,2:0|0:0,0:0:0:0:
341,262,182133,2,0,L|289:248,1,50,2|0,0:2|0:0,0:0:0:0:
451,207,182295,1,4,0:0:0:0:
73,60,190079,5,0,0:0:0:0:
454,330,191376,21,0,0:0:0:0:
367,164,192025,1,0,0:0:0:0:
265,316,192673,1,4,0:0:0:0:
413,66,196565,5,0,0:0:0:0:
300,71,197052,1,0,0:0:0:0:
285,73,197133,1,0,0:0:0:0:
270,76,197214,2,0,L|186:82,1,75.0000028610231
121,39,197538,2,0,L|42:45,1,75.0000028610231
92,154,197863,38,0,L|210:164,1,100,8|8,0:3|0:3,0:0:0:0:
92,154,198349,2,0,L|163:231,1,100
241,226,198836,37,8,0:3:0:0:
355,111,199160,22,0,P|296:131|250:124,1,100,8|8,0:3|0:3,0:0:0:0:
355,111,199646,2,0,P|333:169|342:210,1,100
241,226,200133,53,8,0:3:0:0:
331,349,200457,6,0,P|344:298|335:250,1,100,8|8,0:3|0:3,0:0:0:0:
331,349,200944,2,0,P|271:346|230:316,1,100
241,226,201430,5,8,0:3:0:0:
74,219,201755,5,8,0:3:0:0:
241,226,202079,1,8,0:3:0:0:
74,219,202403,38,0,L|138:201,1,50,8|0,0:3|0:0,0:0:0:0:
241,226,202728,2,0,L|187:240,1,50,8|0,0:3|0:0,0:0:0:0:
74,219,203052,2,0,L|63:133,1,75,0|0,0:0|2:0,0:0:0:0:
74,219,203376,38,0,P|80:269|84:321,1,100
297,154,203701,2,0,P|300:104|307:52,1,100
256,275,204025,2,0,L|144:257,1,100
117,152,204349,6,0,L|151:115,1,50
217,28,204511,2,0,L|253:64,1,50
284,202,204673,2,0,L|332:187,3,50
399,257,204998,22,0,L|349:259,1,50
362,113,205160,2,0,L|336:69,1,50
243,143,205322,2,0,L|201:170,1,50
139,36,205484,2,0,L|90:8,1,50
38,92,205646,5,8,0:3:0:0:
163,249,205809,1,0,0:0:0:0:
215,62,205971,1,8,0:0:0:0:
42,222,206133,1,0,0:0:0:0:
236,195,206295,1,8,0:3:0:0:
42,222,206457,1,8,0:3:0:0:
239,295,206619,1,8,0:0:0:0:
42,222,206782,6,2,P|117:204|143:91,1,200,0|2,0:0|0:0,0:0:0:0:
42,222,207268,2,0,L|47:344,1,100,8|0,0:0|0:0,0:0:0:0:
236,195,207592,2,0,L|241:73,1,100,8|8,0:3|0:3,0:0:0:0:
60,129,207917,1,8,0:0:0:0:
166,262,208079,1,0,0:0:0:0:
327,81,208241,6,0,P|211:110|130:61,2,200,8|8|8,0:3|0:0|0:3,0:0:0:0:
475,181,209052,1,8,0:3:0:0:
306,218,209214,1,8,0:0:0:0:
418,68,209376,22,2,L|378:279,1,200,0|2,0:0|0:0,0:0:0:0:
411,262,209782,1,0,0:0:0:0:
437,276,209863,2,0,P|475:308|476:362,1,100,8|0,0:0|0:0,0:0:0:0:
306,218,210187,2,0,L|308:165,1,50,8|0,0:3|0:0,0:0:0:0:
253,46,210349,2,0,L|246:113,1,50,8|0,0:3|0:0,0:0:0:0:
197,182,210511,1,8,0:3:0:0:
359,94,210673,1,4,0:3:0:0:
171,61,210836,5,8,0:3:0:0:
131,253,210998,1,0,0:0:0:0:
171,61,211160,1,8,0:0:0:0:
114,167,211322,5,0,0:0:0:0:
271,142,211484,1,8,0:3:0:0:
218,301,211646,2,2,P|139:345|48:277,2,200,0|0|2,0:0|0:0|0:0,0:0:0:0:
299,211,212457,6,0,P|338:176|384:162,1,100,8|0,0:0|0:0,0:0:0:0:
310,302,212782,1,8,0:3:0:0:
195,210,212944,1,8,0:3:0:0:
380,251,213106,1,8,0:0:0:0:
130,262,213268,22,0,L|245:260,1,100,0|8,0:0|0:3,0:0:0:0:
62,196,213592,1,0,0:0:0:0:
48,344,213755,2,0,L|251:340,1,200,8|8,0:0|0:3,0:0:0:0:
380,251,214241,1,8,0:3:0:0:
336,363,214403,1,8,0:0:0:0:
298,229,214565,6,0,L|274:123,1,100,2|0,0:0|0:0,0:0:0:0:
331,32,214890,2,0,L|389:29,2,50
194,101,215214,2,0,L|136:98,2,50
404,179,215538,1,0,0:0:0:0:
168,258,215701,2,0,L|164:311,1,50
129,179,215863,2,0,L|68:203,1,50
210,187,216025,5,8,0:3:0:0:
469,104,216349,1,8,0:0:0:0:
210,187,216673,1,8,0:3:0:0:
290,247,216836,1,8,0:3:0:0:
253,339,216998,1,8,0:0:0:0:
175,276,217160,6,2,L|75:314,1,100,0|2,0:0|0:0,0:0:0:0:
253,339,217484,1,0,0:0:0:0:
355,178,217646,2,0,P|381:226|350:311,1,150.000005722046,8|0,0:0|0:0,0:0:0:0:
283,107,217971,2,0,P|331:84|421:117,1,150.000005722046,8|8,0:3|0:3,0:0:0:0:
237,178,218295,2,0,L|158:83,1,75.0000028610231,8|0,0:0|0:0,0:0:0:0:
129,54,218619,21,8,0:3:0:0:
109,177,218782,1,8,0:3:0:0:
241,39,218944,2,0,P|293:27|343:46,1,100,8|0,0:0|0:0,0:0:0:0:
418,171,219268,2,0,P|366:183|304:114,1,150.000005722046,8|8,0:3|0:3,0:0:0:0:
486,113,219592,1,8,0:0:0:0:
486,113,219755,6,2,P|496:209|404:253,1,200,0|2,0:0|0:0,0:0:0:0:
425,282,220160,1,0,0:0:0:0:
435,310,220241,1,0,0:0:0:0:
418,171,220403,1,0,0:0:0:0:
336,221,220565,6,0,L|260:255,1,75.0000028610231
336,131,220728,2,0,L|346:50,1,75.0000028610231
418,171,220890,1,8,0:3:0:0:
252,159,221052,1,8,0:3:0:0:
418,171,221214,1,4,0:3:0:0:
56,54,221538,6,0,L|135:53,1,75.0000028610231
192,153,221863,2,0,L|90:153,1,75.0000028610231
230,58,222187,22,0,L|317:53,1,75.0000028610231
301,239,222511,2,0,L|197:234,1,100
344,119,222836,6,0,L|451:93,1,100
438,348,223160,2,0,L|323:326,1,100
296,47,223484,6,0,L|443:12,1,150.000005722046
210,66,223809,5,0,0:0:0:0:
303,240,223971,1,0,0:0:0:0:
147,15,224133,2,0,L|201:161,1,150.000005722046
381,354,224457,22,0,L|327:208,1,150.000005722046
218,345,224782,1,0,0:0:0:0:
366,139,224944,1,0,0:0:0:0:
100,121,225106,6,0,P|130:186|112:293,1,150.000005722046
34,68,225430,1,0,0:0:0:0:
215,207,225592,1,0,0:0:0:0:
24,285,225755,6,0,L|26:205,1,75.0000028610231
100,130,225917,2,0,L|105:222,1,75.0000028610231
165,349,226079,2,0,L|176:267,1,75.0000028610231
210,26,226241,2,0,L|213:108,1,75.0000028610231
277,279,226403,5,0,0:0:0:0:
277,279,228511,21,0,0:0:0:0:
277,279,228592,1,0,0:0:0:0:
277,279,228673,1,8,0:0:0:0:
277,279,228998,54,0,L|379:266,1,100,4|0,0:0|2:0,0:0:0:0:
193,344,229646,2,0,L|91:342,1,100,4|0,0:0|2:0,0:0:0:0:
406,45,230295,21,4,0:0:0:0:
386,133,230457,1,0,0:0:0:0:
463,99,230619,1,0,0:0:0:0:
325,72,230782,1,0,0:0:0:0:
395,233,230944,6,0,L|402:294,2,33.3333333333333
331,191,231268,1,8,0:3:0:0:
254,187,231376,1,8,0:3:0:0:
296,121,231484,1,4,0:3:0:0:
220,96,231592,22,0,P|160:89|108:110,2,100,4|0|8,0:3|0:0|0:0,0:0:0:0:
304,148,232565,1,0,0:0:0:0:
388,200,232890,2,0,P|448:207|500:186,2,100,0|0|8,0:0|0:0|0:0,0:0:0:0:
304,148,233863,1,0,0:0:0:0:
393,50,234187,54,0,L|297:54,1,75.0000028610231
292,68,234430,1,0,0:0:0:0:
266,82,234511,22,0,L|211:88,1,50
166,179,234673,2,0,L|231:145,1,50
304,148,234836,2,0,L|266:194,1,50
322,298,234998,2,0,L|330:233,1,50
380,154,235160,2,0,L|398:211,1,50
511,241,235322,2,0,L|471:199,1,50
442,99,235484,6,0,L|498:130,1,50
347,81,235646,2,0,L|282:54,1,50
368,235,235809,2,0,L|424:266,1,50
273,217,235971,2,0,L|208:190,1,50
115,47,236133,6,0,L|112:144,1,75.0000028610231
112,320,236295,2,0,L|116:234,1,75.0000028610231
160,33,236457,22,0,L|157:173,1,112.500004291535
53,309,236782,54,0,L|56:194,1,100,4|8,0:0|0:0,0:0:0:0:
289,112,237106,2,0,L|300:183,1,50,8|8,0:3|0:3,0:0:0:0:
311,235,237268,1,8,0:0:0:0:
443,187,237430,21,8,0:3:0:0:
419,336,237592,1,8,0:0:0:0:
372,184,237755,2,0,L|376:118,1,50,8|8,0:3|0:3,0:0:0:0:
386,59,237917,1,8,0:0:0:0:
207,93,238079,5,8,0:3:0:0:
54,39,238241,1,8,0:0:0:0:
207,93,238403,2,0,L|143:106,1,50,8|8,0:3|0:3,0:0:0:0:
48,131,238565,1,8,0:0:0:0:
279,37,238728,6,0,P|294:89|279:143,1,100,8|8,0:3|0:0,0:0:0:0:
135,147,239052,1,8,0:3:0:0:
126,118,239133,1,8,0:3:0:0:
122,88,239214,1,8,0:0:0:0:
131,59,239295,1,0,0:0:0:0:
147,33,239376,5,4,0:0:0:0:
217,194,239538,1,8,0:0:0:0:
76,210,239701,2,0,L|102:277,1,50,8|8,0:3|0:3,0:0:0:0:
128,329,239863,1,8,0:0:0:0:
312,324,240025,21,8,0:3:0:0:
217,194,240187,1,8,0:0:0:0:
204,369,240349,2,0,L|245:304,1,50,8|8,0:3|0:3,0:0:0:0:
271,260,240511,1,8,0:0:0:0:
489,307,240673,5,8,0:3:0:0:
313,324,240836,1,8,0:0:0:0:
489,307,240998,2,0,L|426:279,1,50,8|8,0:3|0:3,0:0:0:0:
349,250,241160,1,8,0:0:0:0:
217,194,241322,6,0,P|257:173|317:189,1,100,8|8,0:3|0:0,0:0:0:0:
192,273,241646,1,8,0:3:0:0:
166,256,241728,1,8,0:3:0:0:
147,232,241809,1,8,0:0:0:0:
140,202,241890,1,0,0:0:0:0:
143,172,241971,5,4,0:0:0:0:
94,331,242133,1,8,0:0:0:0:
69,91,242295,21,8,0:3:0:0:
65,250,242457,1,8,0:0:0:0:
160,71,242619,5,8,0:3:0:0:
181,335,242782,1,8,0:0:0:0:
225,137,242944,5,8,0:3:0:0:
225,137,243025,1,8,0:3:0:0:
225,137,243106,1,8,0:0:0:0:
326,279,243268,5,4,0:0:0:0:
179,225,243430,1,8,0:0:0:0:
326,279,243592,2,0,L|346:227,1,50,8|8,0:3|0:3,0:0:0:0:
370,143,243755,1,8,0:0:0:0:
442,338,243917,21,8,0:3:0:0:
232,314,244079,1,8,0:0:0:0:
472,218,244241,2,0,L|406:238,1,50,8|8,0:3|0:3,0:0:0:0:
353,260,244403,1,8,0:0:0:0:
466,125,244565,5,4,0:0:0:0:
274,125,244728,1,8,0:0:0:0:
426,52,244890,1,8,0:3:0:0:
320,195,245052,1,8,0:0:0:0:
244,48,245214,5,8,0:3:0:0:
359,124,245376,1,8,0:0:0:0:
194,115,245538,1,8,0:3:0:0:
322,54,245701,1,8,0:0:0:0:
224,197,245863,6,0,L|113:205,1,100,4|0,0:0|0:0,0:0:0:0:
50,38,246187,2,0,L|161:46,1,100
322,54,246511,22,0,L|336:127,1,50
418,243,246673,2,0,L|402:178,1,50
414,54,246836,2,0,L|400:127,1,50
318,243,246998,2,0,L|334:178,1,50
489,151,247160,6,0,L|367:149,1,100,4|0,0:0|0:0,0:0:0:0:
289,143,247484,1,8,0:3:0:0:
189,142,247646,1,8,0:0:0:0:
289,143,247809,6,0,P|272:199|229:226,1,100,8|0,0:0|0:0,0:0:0:0:
205,230,248052,1,0,0:0:0:0:
170,235,248133,2,0,L|61:254,1,100
237,363,248457,6,0,P|254:307|297:280,1,100
466,256,248782,2,0,L|347:244,1,100,8|8,0:3|0:0,0:0:0:0:
345,162,249106,21,8,0:0:0:0:
393,332,249268,1,0,0:0:0:0:
393,332,249349,1,0,0:0:0:0:
393,332,249430,1,0,0:0:0:0:
484,171,249592,1,0,0:0:0:0:
345,162,249755,6,0,P|277:167|232:162,1,100
28,113,250079,2,0,P|96:118|141:113,1,100,8|8,0:3|0:0,0:0:0:0:
255,71,250403,5,8,0:0:0:0:
112,210,250565,1,0,0:0:0:0:
112,210,250646,1,0,0:0:0:0:
112,210,250728,1,0,0:0:0:0:
134,36,250890,1,0,0:0:0:0:
236,226,251052,6,0,P|241:294|232:338,1,100
133,351,251376,1,0,0:0:0:0:
236,226,251538,2,0,B|333:186|331:288|433:225,1,200
456,211,251944,1,0,0:0:0:0:
472,180,252025,1,0,0:0:0:0:
281,304,252187,1,0,0:0:0:0:
355,160,252349,22,0,P|302:138|246:148,1,100,4|8,0:0|0:3,0:0:0:0:
92,310,252673,2,0,P|137:275|156:221,1,100,8|8,0:3|0:3,0:0:0:0:
97,19,252998,2,0,P|104:75|141:119,1,100,4|4,0:3|0:3,0:0:0:0:
292,218,253322,1,4,0:3:0:0:
291,28,253484,1,4,0:3:0:0:
456,163,253646,5,4,0:0:0:0:
456,163,253728,1,0,0:0:0:0:
456,163,253809,2,0,P|424:207|361:223,1,100,8|8,0:3|0:3,0:0:0:0:
175,109,254133,1,8,0:3:0:0:
175,109,254215,1,0,0:3:0:0:
175,109,254296,2,0,P|229:114|274:161,1,100,4|4,0:3|0:3,0:0:0:0:
262,339,254619,1,4,0:3:0:0:
262,339,254701,1,0,0:0:0:0:
262,339,254782,2,0,L|242:273,1,50,4|0,0:3|0:0,0:0:0:0:
197,221,254944,6,0,L|138:254,1,50
53,202,255106,2,0,L|114:169,1,50
173,328,255268,2,0,L|114:361,1,50,8|8,0:3|0:3,0:0:0:0:
29,309,255430,2,0,L|90:276,1,50,8|8,0:3|0:3,0:0:0:0:
245,146,255592,6,0,L|289:171,1,50,4|4,0:3|0:3,0:0:0:0:
388,127,255754,2,0,L|345:104,1,50,4|4,0:3|0:3,0:0:0:0:
269,254,255917,2,0,L|313:279,1,50,8|8,0:0|0:0,0:0:0:0:
412,234,256078,2,0,L|369:211,1,50,8|8,0:0|0:0,0:0:0:0:
268,160,256241,22,0,P|213:133|160:143,1,100,8|8,0:0|0:3,0:0:0:0:
31,242,256565,2,0,P|86:269|139:259,1,100,8|8,0:0|0:3,0:0:0:0:
17,161,256890,1,8,0:0:0:0:
306,232,257214,1,8,0:3:0:0:
256,192,257538,12,0,263376,0:0:0:0:
