osu file format v12

[General]
AudioFilename: shinryaku.mp3
AudioLeadIn: 0
PreviewTime: 70728
Countdown: 0
SampleSet: None
StackLeniency: 0.7
Mode: 0
LetterboxInBreaks: 0
EpilepsyWarning: 1

[Editor]
DistanceSpacing: 1
BeatDivisor: 4
GridSize: 32

[Metadata]
Title:Shinryaku! (Furious ver.)
TitleUnicode:侵略ノススメ☆ - 激烈大侵略 ver. -
Artist:Yuyoyuppe
ArtistUnicode:ゆよゆっぺ
Creator:RLC
Version:Normal
Source:Shinryaku! Ika Musume
Tags:Hatsune Miku vocaloud 00
BeatmapID:271267
BeatmapSetID:102750

[Difficulty]
HPDrainRate:3
CircleSize:3
OverallDifficulty:3
ApproachRate:3
SliderMultiplier:0.999999999999999
SliderTickRate:1

[Events]
//Background and Video events
0,0,"bg.jpg",0,0
//Break Periods
2,26819,30369
2,99468,108206
2,182495,188639
2,192873,195125
//Storyboard Layer 0 (Background)
//Storyboard Layer 1 (Fail)
//Storyboard Layer 2 (Pass)
//Storyboard Layer 3 (Foreground)
//Storyboard Sound Samples
//Background Colour Transformations
3,100,163,162,255

[TimingPoints]
674,324.324324324324,4,1,1,80,1,0
31809,-100,4,1,1,60,0,0
34403,-100,4,1,1,80,0,0
36349,-100,4,1,0,80,0,0
36836,-100,4,1,1,80,0,0
71052,-100,4,1,1,80,0,1
73322,-100,4,1,1,80,0,0
73646,-100,4,1,1,80,0,1
81106,-100,4,1,1,80,0,0
81430,-100,4,1,1,80,0,1
83701,-100,4,1,1,80,0,0
84025,-100,4,1,1,80,0,1
91484,-100,4,1,1,80,0,0
98295,-100,4,1,0,80,0,0
99430,-100,4,1,1,80,0,0
129755,-100,4,1,0,80,0,0
130241,-100,4,1,1,80,0,0
154079,-100,4,1,1,80,0,1
156349,-100,4,1,1,80,0,0
156673,-100,4,1,1,80,0,1
163484,-100,4,1,0,80,0,1
164133,-100,4,1,1,80,0,0
164457,-100,4,1,1,80,0,1
166728,-100,4,1,1,80,0,0
167052,-100,4,1,1,80,0,1
174511,-100,4,1,1,80,0,0
190079,-100,4,2,1,60,0,0
192836,-100,4,1,1,80,0,0
236782,-100,4,1,2,80,0,1
247160,-100,4,1,1,80,0,0
254944,-100,4,1,2,80,0,0

[Colours]
Combo1 : 123,205,0
Combo2 : 0,191,244
Combo3 : 240,229,0
Combo4 : 239,96,0

[HitObjects]
115,50,16241,2,0,P|71:153|103:288,1,250,8|0,0:3|0:0,0:0:0:0:
186,233,17376,2,0,P|288:198|300:301|438:228,1,250,8|0,0:3|0:0,0:0:0:0:
359,159,18511,1,8,0:3:0:0:
457,138,18836,6,0,P|392:70|263:128,1,250,8|0,0:3|0:0,0:0:0:0:
177,74,19971,2,0,P|129:183|228:195|171:329,1,250,8|0,0:3|0:0,0:0:0:0:
96,256,21106,1,8,0:3:0:0:
18,318,21430,5,8,0:3:0:0:
184,206,22079,1,8,0:0:0:0:
25,83,22728,1,8,0:3:0:0:
184,206,23376,2,0,P|287:175,1,99.9999999999999,8|0,0:0|0:0,0:0:0:0:
374,145,24025,6,0,P|416:218|380:339,2,200,8|8|8,0:3|0:0|0:3,0:0:0:0:
288,92,25646,2,0,P|318:54|382:43,2,99.9999999999999,0|8|0,0:0|0:0|0:0,0:0:0:0:
265,189,26619,1,8,0:3:0:0:
110,315,31809,6,0,P|217:356|242:270|358:321,1,250
442,273,32944,2,0,P|414:183|425:98,1,150
318,148,33755,2,0,P|202:134,1,99.9999999999999
121,160,34403,5,8,0:3:0:0:
201,232,34728,1,0,0:0:0:0:
304,239,35052,2,2,P|357:226|393:189,1,99.9999999999999,0|2,0:0|0:0,0:0:0:0:
383,95,35701,5,8,0:3:0:0:
272,110,36025,1,0,0:0:0:0:
217,206,36349,2,0,P|210:270|233:311,1,99.9999999999999,8|4,0:3|0:3,0:0:0:0:
322,323,36998,6,0,P|358:253|515:247,1,250,8|0,0:3|0:0,0:0:0:0:
512,144,38133,2,0,P|395:98|386:177|250:122,1,250,8|0,0:3|0:0,0:0:0:0:
190,63,39268,1,8,0:3:0:0:
105,116,39592,6,0,P|128:201|20:306,1,250,8|0,0:3|0:0,0:0:0:0:
106,361,40728,2,0,P|372:334,1,250,8|0,0:3|0:0,0:0:0:0:
418,258,41863,1,8,0:3:0:0:
318,244,42187,5,8,0:3:0:0:
385,170,42511,2,0,P|411:93|375:17,1,150,8|0,0:0|0:0,0:0:0:0:
318,103,43322,2,0,P|245:61|100:118,1,250,0|8,0:0|0:3,0:0:0:0:
89,216,44457,1,8,0:0:0:0:
184,186,44782,6,0,P|194:254|188:301,2,99.9999999999999,8|0|0,0:3|0:0|0:0,0:0:0:0:
226,95,45755,1,2,0:0:0:0:
313,143,46079,2,0,P|331:197|336:253,2,99.9999999999999,8|0|0,0:3|0:0|0:0,0:0:0:0:
226,95,47052,1,0,0:0:0:0:
127,79,47376,6,0,P|16:73,2,99.9999999999999,8|0|8,0:3|0:0|0:3,0:0:0:0:
210,133,48349,1,0,0:0:0:0:
302,94,48673,2,0,P|367:126|455:79,2,150,8|8|8,0:3|0:3|0:3,0:0:0:0:
209,133,49971,6,0,P|195:23,2,99.9999999999999,8|0|8,0:3|0:0|0:3,0:0:0:0:
145,210,50944,1,0,0:0:0:0:
243,229,51268,2,0,P|298:192|400:198,2,150,8|8|8,0:3|0:3|0:3,0:0:0:0:
169,297,52565,6,0,P|19:291,2,150,8|8|8,0:3|0:3|0:3,0:0:0:0:
266,321,53863,2,0,P|418:326,2,150,8|8|8,0:3|0:3|0:3,0:0:0:0:
225,229,55160,6,0,P|234:162|208:82,1,150
303,50,55971,2,0,P|442:50,2,99.9999999999999,0|2|0,0:0|0:0|0:0,0:0:0:0:
351,137,56944,2,2,P|333:201|364:287,1,150,2|0,0:0|0:0,0:0:0:0:
456,295,57755,5,0,0:0:0:0:
387,368,58079,1,0,0:0:0:0:
293,331,58403,2,2,P|241:319|173:331,2,99.9999999999999,0|0|0,0:0|0:0|0:0,0:0:0:0:
369,266,59376,1,0,0:0:0:0:
438,194,59701,2,0,P|444:81,2,99.9999999999999,2|0|0,0:0|0:0|0:0,0:0:0:0:
344,229,60673,5,0,0:0:0:0:
250,194,60998,2,2,P|186:194|146:205,2,99.9999999999999,0|0|0,0:0|0:0|0:0,0:0:0:0:
342,156,61971,1,0,0:0:0:0:
427,103,62295,2,0,P|434:4,2,99.9999999999999,2|0|0,0:0|0:0|0:0,0:0:0:0:
342,156,63268,6,0,P|217:156,2,99.9999999999999
432,198,64241,6,0,P|453:268|367:355,1,200
286,305,65214,1,0,0:0:0:0:
196,349,65538,6,0,P|86:346,2,99.9999999999999,8|8|8,0:3|0:0|0:3,0:0:0:0:
286,305,66511,1,8,0:0:0:0:
362,240,66836,6,0,P|386:139|236:85,1,250
241,164,67971,2,0,P|182:173|98:93,1,150
54,41,68782,6,0,P|83:120|77:186,2,150
153,51,70079,2,0,P|258:48,2,99.9999999999999,8|8|0,0:0|0:0|2:0,0:0:0:0:
211,132,71052,6,0,P|299:114|347:59,2,150,8|8|8,0:0|0:3|0:3,0:0:0:0:
279,205,72349,1,0,0:0:0:0:
279,205,72511,2,0,P|308:278|281:356,1,150,8|8,0:0|0:3,0:0:0:0:
215,276,73322,5,0,2:0:0:0:
149,351,73646,2,0,P|120:278|147:200,2,150,8|8|8,0:0|0:3|0:3,0:0:0:0:
216,276,74944,1,0,0:0:0:0:
216,276,75106,2,0,P|239:203|187:132,1,150,8|8,0:0|0:3,0:0:0:0:
105,129,75917,5,8,0:3:0:0:
291,57,76565,1,8,0:0:0:0:
268,256,77214,5,8,0:3:0:0:
86,171,77863,1,8,0:0:0:0:
284,147,78511,5,8,0:3:0:0:
97,74,79160,1,8,0:0:0:0:
136,270,79809,6,0,P|136:214|142:162,1,99.9999999999999
237,145,80457,2,0,P|239:195|235:255,1,99.9999999999999
208,341,81106,1,0,2:0:0:0:
305,317,81430,6,0,P|367:267|413:316|490:257,2,150,8|8|8,0:0|0:3|0:3,0:0:0:0:
269,223,82728,2,0,P|268:177|278:116,1,99.9999999999999,8|8,0:0|0:3,0:0:0:0:
371,93,83376,2,0,P|374:147|363:195,1,99.9999999999999,8|0,0:0|2:0,0:0:0:0:
340,288,84025,6,0,P|256:268|170:310,2,150,8|8|8,0:0|0:3|0:3,0:0:0:0:
437,264,85322,2,0,P|442:191|418:148,1,99.9999999999999,8|8,0:0|0:3,0:0:0:0:
354,105,85971,1,8,0:0:0:0:
261,66,86295,6,0,P|53:87,2,200
241,164,87917,2,0,P|230:265,1,99.9999999999999,8|8,0:0|0:3,0:0:0:0:
264,357,88565,1,8,0:0:0:0:
344,296,88890,6,0,P|426:296|513:376,2,200
244,307,90511,1,8,0:0:0:0:
159,253,90836,2,0,P|48:256,1,99.9999999999999,8|8,0:3|0:0,0:0:0:0:
88,160,91484,6,0,P|40:124|23:75,2,99.9999999999999
184,131,92457,1,0,0:0:0:0:
279,101,92782,6,0,P|327:137|344:186,2,99.9999999999999
249,196,93755,1,0,0:0:0:0:
214,289,94079,6,0,P|166:253|149:204,2,99.9999999999999
312,270,95052,1,0,0:0:0:0:
408,245,95376,6,0,P|442:181|431:99,2,150
342,169,96673,6,0,P|238:146,2,99.9999999999999
311,264,97646,1,0,0:0:0:0:
385,330,97971,2,0,P|484:361,2,99.9999999999999,0|8|4,0:0|0:3|0:3,0:0:0:0:
286,310,98944,1,0,0:0:0:0:
191,341,99268,1,4,0:3:0:0:
44,80,109646,6,0,P|141:43|137:112|248:74,1,200
337,65,110619,1,0,0:0:0:0:
337,65,110782,2,0,P|349:137|418:178,1,150
437,80,111592,1,8,0:0:0:0:
505,153,111917,1,8,0:3:0:0:
474,248,112241,6,0,P|412:318|298:283,1,200
230,248,113214,1,0,0:0:0:0:
230,248,113376,2,0,P|176:280|79:247,1,150
28,186,114187,1,8,0:0:0:0:
88,106,114511,1,8,0:0:0:0:
183,137,114836,6,0,P|290:185|293:112|388:152,1,200
469,99,115809,1,0,0:0:0:0:
469,99,115971,2,0,P|421:52|315:62,1,150
243,69,116782,1,8,0:0:0:0:
149,50,117106,1,8,0:3:0:0:
93,133,117430,5,0,0:0:0:0:
153,211,117755,2,0,P|217:289,2,99.9999999999999,0|0|2,0:0|0:0|0:0,0:0:0:0:
187,117,118728,5,0,0:0:0:0:
250,192,119052,2,0,P|314:270,2,99.9999999999999,0|2|0,0:0|0:0|0:0,0:0:0:0:
281,97,120025,6,0,P|377:78|451:210,1,250,8|0,0:3|0:0,0:0:0:0:
439,290,121160,2,0,P|369:241|368:170,1,150,8|0,0:3|0:0,0:0:0:0:
271,220,121971,2,0,P|166:218,1,99.9999999999999,8|8,0:3|0:0,0:0:0:0:
96,284,122619,6,0,P|41:173|151:153|95:32,1,250,8|0,0:3|0:0,0:0:0:0:
197,64,123755,2,0,P|275:99|353:72,1,150,8|0,0:3|0:0,0:0:0:0:
424,39,124565,2,0,P|448:148,1,99.9999999999999,8|8,0:3|0:0,0:0:0:0:
389,219,125214,6,0,P|276:182|265:275|139:192,1,250,8|0,0:3|0:0,0:0:0:0:
69,135,126349,2,0,P|50:213|114:287,1,150,8|0,0:3|0:0,0:0:0:0:
84,369,127160,2,0,P|142:355|174:312,1,99.9999999999999,8|8,0:3|0:0,0:0:0:0:
214,237,127809,5,0,0:0:0:0:
229,335,128133,1,0,0:0:0:0:
316,295,128457,2,2,P|348:297|410:271,1,99.9999999999999,0|2,0:0|0:0,0:0:0:0:
474,347,129106,5,0,0:0:0:0:
508,253,129430,1,0,0:0:0:0:
497,159,129755,2,0,P|450:178|396:165,1,99.9999999999999,8|4,0:3|0:3,0:0:0:0:
346,86,130403,6,0,P|302:166|387:263,1,200,8|8,0:3|0:3,0:0:0:0:
450,276,131376,1,8,0:0:0:0:
474,178,131701,2,0,P|453:19,2,150,8|8|8,0:3|0:3|0:0,0:0:0:0:
450,276,132998,6,0,P|361:252|351:328|237:278,1,200,8|8,0:3|0:3,0:0:0:0:
304,198,133971,1,8,0:0:0:0:
238,124,134295,2,0,P|310:100|375:128,2,150,8|8|8,0:3|0:3|0:0,0:0:0:0:
156,182,135592,6,0,P|4:160,2,150,8|8|8,0:3|0:3|0:0,0:0:0:0:
241,234,136890,2,0,P|401:222,2,150,8|8|8,0:3|0:3|0:0,0:0:0:0:
147,269,138187,6,0,P|156:202|130:122,1,150
225,90,138998,2,0,P|364:90,2,99.9999999999999,0|2|0,0:0|0:0|0:0,0:0:0:0:
273,177,139971,2,2,P|255:241|286:327,1,150,2|0,0:0|0:0,0:0:0:0:
371,279,140782,5,0,0:0:0:0:
373,179,141106,1,0,0:0:0:0:
374,79,141430,2,2,P|474:38,2,99.9999999999999,0|0|0,0:0|0:0|0:0,0:0:0:0:
276,55,142403,1,0,0:0:0:0:
182,92,142728,2,0,P|133:78|49:81,2,99.9999999999999,2|0|0,0:0|0:0|0:0,0:0:0:0:
263,149,143701,5,0,0:0:0:0:
361,163,144025,2,2,P|473:149,2,99.9999999999999,0|0|0,0:0|0:0|0:0,0:0:0:0:
288,232,144998,1,0,0:0:0:0:
191,205,145322,2,0,P|144:218|96:249,2,99.9999999999999,2|0|0,0:0|0:0|0:0,0:0:0:0:
288,232,146295,6,0,P|399:286,2,99.9999999999999
221,157,147268,6,0,P|149:146|46:217,1,200
100,298,148241,1,0,0:0:0:0:
189,343,148565,6,0,P|300:328,2,99.9999999999999,8|8|8,0:3|0:0|0:3,0:0:0:0:
100,298,149538,1,8,0:0:0:0:
185,245,149863,6,0,P|303:190|312:282|440:222,1,250,8|0,0:3|0:0,0:0:0:0:
426,127,150998,2,0,P|359:147|276:109,1,150,8|8,0:3|0:0,0:0:0:0:
208,56,151809,6,0,P|142:45|61:71,2,150,8|8|8,0:3|0:3|0:0,0:0:0:0:
306,37,153106,2,0,P|359:55|405:45,2,99.9999999999999,8|8|0,0:3|0:0|2:0,0:0:0:0:
265,128,154079,6,0,P|276:279,2,150,8|8|8,0:0|0:3|0:3,0:0:0:0:
359,161,155376,1,0,0:0:0:0:
359,161,155538,2,0,P|419:98|414:13,1,150,8|8,0:0|0:3,0:0:0:0:
325,63,156349,1,0,2:0:0:0:
227,86,156673,6,0,P|57:69,2,150,8|8|8,0:0|0:3|0:3,0:0:0:0:
230,186,157971,1,0,0:0:0:0:
230,186,158133,2,0,P|209:271|134:286,1,150,8|8,0:0|0:3,0:0:0:0:
55,282,158944,5,8,0:3:0:0:
170,119,159592,1,8,0:0:0:0:
317,254,160241,5,8,0:3:0:0:
170,119,160890,2,0,P|227:114|276:88,1,99.9999999999999,8|0,0:0|0:0,0:0:0:0:
355,53,161538,6,0,P|397:91|427:133,1,99.9999999999999,8|8,0:3|0:0,0:0:0:0:
331,167,162187,2,0,P|360:223|369:272,1,99.9999999999999,8|8,0:3|0:0,0:0:0:0:
268,249,162836,6,0,P|272:315|266:354,1,99.9999999999999,8|8,0:3|0:0,0:0:0:0:
173,301,163484,2,0,P|169:235|175:197,1,99.9999999999999,8|4,0:3|0:3,0:0:0:0:
269,161,164133,1,0,2:0:0:0:
187,103,164457,6,0,P|113:122|80:223,2,150,8|8|8,0:0|0:3|0:3,0:0:0:0:
269,161,165755,2,0,P|327:167|379:151,1,99.9999999999999,8|8,0:0|0:3,0:0:0:0:
450,101,166403,2,0,P|478:209,1,99.9999999999999,8|0,0:0|2:0,0:0:0:0:
432,288,167052,6,0,P|366:257|252:282,2,150,8|8|8,0:0|0:3|0:3,0:0:0:0:
427,187,168349,2,0,P|412:138|416:79,1,99.9999999999999,8|8,0:0|0:3,0:0:0:0:
317,62,168998,1,8,0:0:0:0:
233,116,169322,6,0,P|153:142|137:72|27:110,2,200,8|8|8,0:3|0:0|0:3,0:0:0:0:
313,56,170944,2,0,P|336:105|325:157,1,99.9999999999999,8|0,0:0|0:0,0:0:0:0:
257,217,171592,1,8,0:0:0:0:
353,242,171917,6,0,P|455:265|403:325|517:357,2,200,8|8|8,0:3|0:0|0:3,0:0:0:0:
265,289,173538,1,8,0:0:0:0:
168,260,173863,2,0,P|103:271|63:301,1,99.9999999999999,0|8,0:0|0:0,0:0:0:0:
62,189,174511,6,0,P|48:76,2,99.9999999999999
75,288,175484,1,0,0:0:0:0:
151,223,175809,6,0,P|227:148,2,99.9999999999999
75,288,176782,1,0,0:0:0:0:
171,313,177106,6,0,P|279:336,2,99.9999999999999
75,288,178079,1,0,0:0:0:0:
142,214,178403,6,0,P|211:175|229:97,2,150
256,192,179701,12,0,182295,0:0:0:0:
62,84,190079,6,0,P|268:163|268:19|458:112,1,400,8|8,0:1|0:1,0:0:0:0:
355,284,192025,2,0,P|258:263|257:318|149:285,1,200,8|8,0:1|0:1,0:0:0:0:
255,58,196565,5,0,0:0:0:0:
192,247,197214,2,0,P|194:129,1,99.9999999999999
285,186,197863,6,0,P|379:212|439:188,2,150,8|8|8,0:3|0:3|0:0,0:0:0:0:
193,147,199160,2,0,P|113:115|33:133,2,150,8|8|8,0:3|0:3|0:0,0:0:0:0:
276,90,200457,6,0,P|429:55,2,150,8|8|8,0:3|0:3|0:0,0:0:0:0:
177,68,201755,2,0,P|108:133|119:264,1,200,8|8,0:3|0:3,0:0:0:0:
180,296,202728,1,8,0:0:0:0:
277,317,203052,6,0,P|346:252|335:121,2,200
180,296,204673,1,0,0:0:0:0:
125,211,204998,2,0,P|20:219,1,99.9999999999999
47,121,205646,6,0,P|167:63|174:163|292:85,1,250,0|0,0:0|0:0,0:0:0:0:
382,57,206782,2,2,P|380:131|316:181,1,150,0|0,0:0|0:0,0:0:0:0:
231,210,207592,1,0,0:0:0:0:
318,259,207917,6,0,P|360:285|385:344,2,99.9999999999999,8|0|8,0:0|0:0|0:0,0:0:0:0:
225,298,208890,2,0,P|120:300,1,99.9999999999999,0|8,0:0|0:0,0:0:0:0:
88,333,209376,2,2,P|66:241|95:171,1,150,0|8,0:0|0:0,0:0:0:0:
138,107,210187,2,0,P|251:125,1,99.9999999999999,0|8,0:0|0:0,0:0:0:0:
273,29,210836,6,0,P|341:100|299:202,1,200
226,235,211809,1,8,0:0:0:0:
194,140,212133,2,2,P|126:211|168:313,1,200,0|0,0:0|0:0,0:0:0:0:
246,333,213106,1,8,0:0:0:0:
324,271,213430,6,2,P|436:265,1,99.9999999999999,0|8,0:0|0:0,0:0:0:0:
370,180,214079,2,0,P|522:175,2,150,0|0|8,0:0|0:0|0:0,0:0:0:0:
328,88,215376,2,2,P|288:121|276:180,1,99.9999999999999,0|8,0:0|0:0,0:0:0:0:
206,237,216025,6,0,P|169:159|242:73,1,200
274,166,216998,1,8,0:0:0:0:
342,91,217322,2,2,P|376:178|307:260,1,200,0|0,0:0|0:0,0:0:0:0:
235,313,218295,1,8,0:0:0:0:
142,350,218619,6,0,P|139:294|164:247,1,99.9999999999999,0|8,0:0|0:0,0:0:0:0:
236,194,219268,2,2,P|283:143|289:57,2,150,0|0|10,0:0|0:0|0:0,0:0:0:0:
319,250,220565,2,0,P|383:254|428:268,1,99.9999999999999,0|8,0:0|0:0,0:0:0:0:
494,327,221214,5,0,0:0:0:0:
410,145,221863,2,0,P|304:161,1,99.9999999999999
212,175,222511,5,0,0:0:0:0:
78,323,223160,2,0,P|201:330,1,99.9999999999999
256,192,223809,12,0,226403,2:0:0:0:
55,117,228998,5,0,0:0:0:0:
242,47,229646,1,0,0:0:0:0:
55,117,230295,2,0,P|147:109|151:197|260:184,2,200
65,216,231917,1,0,0:0:0:0:
36,311,232241,2,0,P|91:309|143:274,1,99.9999999999999,8|0,0:0|0:0,0:0:0:0:
226,313,232890,6,0,P|290:282|427:300,2,200,0|8|0,0:0|0:0|0:0,0:0:0:0:
182,223,234511,2,0,P|174:110,2,99.9999999999999,0|8|0,0:0|0:0|0:0,0:0:0:0:
95,273,235484,2,0,P|83:71,2,200,0|8|0,0:0|0:0|0:0,0:0:0:0:
188,309,237106,6,0,P|265:328|375:270,1,200
435,201,238079,2,0,P|423:115|484:24,2,200
339,171,239701,6,0,P|128:207,1,200
79,126,240673,2,0,P|43:213|125:299,2,200
270,66,242619,5,0,0:0:0:0:
137,216,243268,1,0,0:0:0:0:
177,19,243917,1,0,0:0:0:0:
210,112,244241,1,0,0:0:0:0:
249,205,244565,6,0,P|340:186|440:239,1,200
455,133,245538,2,0,P|451:82|464:30,2,99.9999999999999
432,231,246511,2,0,P|440:283|431:336,1,99.9999999999999
350,281,247160,6,0,P|258:236|167:255,1,200
92,323,248133,2,0,P|69:268|79:213,2,99.9999999999999
190,338,249106,2,0,P|243:326|308:348,1,99.9999999999999
387,342,249755,6,0,P|453:289|445:172,1,200
361,136,250728,1,0,0:0:0:0:
271,177,251052,2,0,P|120:177,2,150
229,86,252349,6,0,P|131:56|122:113|15:79,2,200
313,140,253971,2,0,P|330:87|317:40,2,99.9999999999999
341,235,254944,6,0,P|245:266|235:188|135:236,1,200
158,330,255917,1,0,0:0:0:0:
58,320,256241,2,0,P|34:199|108:119,1,200
256,192,257538,12,0,264025,0:0:0:0:
