osu file format v12

[General]
AudioFilename: Reon.mp3
AudioLeadIn: 0
PreviewTime: 75900
Countdown: 0
SampleSet: Soft
StackLeniency: 0.7
Mode: 0
LetterboxInBreaks: 0
WidescreenStoryboard: 0

[Editor]
DistanceSpacing: 1.1
BeatDivisor: 4
GridSize: 4

[Metadata]
Title:Reon
TitleUnicode:Reon
Artist:Yuyoyuppe
ArtistUnicode:ゆよゆっぺ
Creator:Irie Miyuki
Version:Insane
Source:
Tags:meola Leia Megurine Luka makar makar8000 sweet_serenitee haruka story of hope vocaloid
BeatmapID:244117
BeatmapSetID:55980

[Difficulty]
HPDrainRate:7
CircleSize:4
OverallDifficulty:8
ApproachRate:9
SliderMultiplier:1.7
SliderTickRate:1

[Events]
//Background and Video events
0,0,"Reon.jpg",0,0
Video,0,"Reon.flv"
//Break Periods
2,16100,20575
2,66210,70685
2,121595,125410
2,142694,152113
2,174342,175520
//Storyboard Layer 0 (Background)
//Storyboard Layer 1 (Fail)
//Storyboard Layer 2 (Pass)
//Storyboard Layer 3 (Foreground)
//Storyboard Sound Samples
//Background Colour Transformations
3,100,163,162,255

[TimingPoints]
6670,329.67032967033,4,2,1,66,1,0
10625,-100,4,1,1,72,0,0
21175,-100,4,2,1,48,0,0
21669,-100,4,2,1,54,0,0
22164,-100,4,2,1,63,0,0
22823,-133.333333333333,4,2,1,63,0,0
23812,-100,4,1,1,60,0,0
26450,-100,4,1,1,68,0,0
29087,-100,4,1,1,75,0,0
31724,-100,4,1,1,80,0,0
44169,-100,4,1,1,66,0,0
44417,-100,4,1,1,73,0,0
45241,-100,4,1,1,56,0,0
47878,-100,4,1,1,48,0,0
48043,-100,4,1,1,56,0,0
50186,-100,4,1,1,64,0,0
53647,-100,4,1,1,57,0,0
53812,-100,4,1,1,64,0,0
55790,-100,4,1,1,52,0,0
60076,-100,4,1,1,60,0,0
60241,-100,4,1,1,65,0,0
60735,-100,4,1,1,71,0,0
66010,-133.333333333333,4,2,1,60,0,0
75900,-100,4,1,1,48,0,0
76230,-100,4,1,1,55,0,0
76560,-100,4,1,1,71,0,1
79527,-100,4,1,1,80,0,1
81175,-100,4,1,1,64,0,1
81505,-100,4,1,1,71,0,1
81834,-100,4,1,1,79,0,1
84472,-100,4,1,1,84,0,1
86450,-100,4,1,1,68,0,1
86779,-100,4,1,1,75,0,1
87109,-100,4,1,1,82,0,1
92384,-100,4,1,1,86,0,1
96999,-100,4,1,1,64,0,1
97329,-100,4,1,1,72,0,1
98977,-100,4,1,1,72,0,0
100296,-133.333333333333,4,2,1,63,0,0
110186,-133.333333333333,4,2,1,49,0,0
111175,-100,4,2,1,77,0,0
112164,-100,4,2,1,71,0,0
112823,-100,4,2,1,76,0,0
114801,-100,4,2,1,81,0,0
118757,-100,4,2,1,85,0,0
120735,-100,4,1,1,85,0,0
126010,-100,4,1,1,77,0,0
128647,-100,4,1,1,83,0,0
130626,-100,4,1,1,51,0,0
130955,-100,4,1,1,59,0,0
131285,-100,4,1,1,65,0,0
131615,-100,4,1,1,74,0,0
134582,-133.333333333333,4,1,1,53,0,0
135076,-133.333333333333,4,1,1,62,0,0
135571,-133.333333333333,4,2,0,40,0,0
135818,-133.333333333333,4,1,1,73,0,0
137219,-133.333333333333,4,1,1,60,0,0
137713,-133.333333333333,4,1,1,68,0,0
138208,-133.333333333333,4,1,1,77,0,0
139856,-133.333333333333,4,1,1,80,0,0
141999,-133.333333333333,4,1,1,63,0,0
152713,-133.333333333333,4,2,1,68,0,0
155680,-133.333333333333,4,2,1,73,0,0
158153,-133.333333333333,4,2,1,80,0,0
162109,-133.333333333333,4,2,1,53,0,0
162274,-133.333333333333,4,2,1,81,0,0
162933,-100,4,1,1,57,0,0
163593,-100,4,2,1,81,0,0
166724,-100,4,2,1,91,0,0
171834,-100,4,1,1,57,0,0
172823,-100,4,1,1,65,0,0
173153,-100,4,1,1,74,0,0
173483,-100,4,1,1,82,0,0
173812,-100,4,1,1,90,0,0
176120,-100,4,2,1,64,0,0
176779,-133.333333333333,4,1,1,72,0,1
177109,-133.333333333333,4,2,1,76,0,0
179087,-133.333333333333,4,2,1,82,0,0
179417,-133.333333333333,4,1,1,82,0,1
179746,-133.333333333333,4,2,1,82,0,0
180571,-133.333333333333,4,2,1,56,0,0
180735,-133.333333333333,4,2,1,87,0,0
181395,-100,4,1,1,60,0,0
181724,-100,4,1,1,66,0,0
182219,-100,4,1,1,83,0,0
186669,-100,4,1,1,71,0,0
186834,-133.333333333333,4,1,1,71,0,0
186999,-100,4,2,1,28,0,0
187329,-100,4,1,1,83,0,1
189966,-100,4,1,1,89,0,1
191944,-100,4,1,1,72,0,1
192274,-100,4,1,1,79,0,1
192604,-100,4,1,1,87,0,1
196889,-100,4,1,1,80,0,1
197384,-100,4,1,1,90,0,1
200516,-100,4,1,1,81,0,1
202658,-100,4,1,1,90,0,1
208428,-100,4,2,1,90,0,0

[Colours]
Combo1 : 255,255,0
Combo2 : 255,0,128
Combo3 : 0,255,128
Combo4 : 255,128,64
Combo5 : 128,255,0

[HitObjects]
256,192,7988,12,4,10296,0:0:0:0:
140,96,10626,6,0,B|83:67,2,42.5,4|0|0,0:0|0:0|0:0,0:0:0:0:
342,240,10955,2,0,B|390:220,2,42.5,4|0|0,0:0|0:0|0:0,0:0:0:0:
83,230,11285,1,0,0:0:0:0:
83,230,11367,1,0,0:0:0:0:
83,230,11450,1,0,0:0:0:0:
294,76,11615,2,0,B|265:124,2,42.5,4|0|0,0:0|0:0|0:0,0:0:0:0:
208,326,11944,1,0,0:0:0:0:
208,326,12027,1,0,0:0:0:0:
208,326,12109,1,0,0:0:0:0:
390,184,12274,6,0,L|440:152,2,42.5
117,299,12604,2,0,B|64:313,2,42.5,4|0|0,0:0|0:0|0:0,0:0:0:0:
272,48,12933,1,0,0:0:0:0:
272,48,13016,1,0,0:0:0:0:
272,48,13098,1,0,0:0:0:0:
300,333,13263,2,0,L|320:376,2,42.5
91,127,13593,1,0,0:0:0:0:
91,127,13675,1,0,0:0:0:0:
91,127,13757,1,0,0:0:0:0:
256,192,13922,12,4,15900,0:0:0:0:
84,216,21175,5,4,0:0:0:0:
168,196,21340,1,0,0:0:0:0:
188,112,21505,1,2,0:0:0:0:
148,280,21670,5,2,0:0:0:0:
168,196,21835,1,0,0:0:0:0:
188,112,22000,1,0,0:0:0:0:
232,256,22164,5,2,0:0:0:0:
168,196,22329,1,0,0:0:0:0:
188,112,22494,1,2,0:0:0:0:
264,64,22658,1,2,0:0:0:0:
344,96,22823,2,0,B|416:96,1,63.749998100102,0|2,0:0|0:0,0:0:0:0:
488,208,23153,2,0,L|424:208,1,63.7500024318696
424,208,23483,1,2,0:0:0:0:
344,96,23647,1,4,0:0:0:0:
224,128,23812,6,0,B|200:176|232:240,1,85,4|0,0:0|0:0,0:0:0:0:
128,288,24142,2,0,B|144:240|112:192,1,85,8|0,0:0|0:0,0:0:0:0:
40,256,24472,1,0,0:0:0:0:
224,272,24637,1,0,0:0:0:0:
224,272,24719,1,0,0:0:0:0:
224,272,24801,2,0,B|240:332|324:356|380:308,1,170,8|0,0:0|0:0,0:0:0:0:
472,184,25296,6,0,B|428:180|384:184,1,85,0|8,0:0|0:0,0:0:0:0:
352,80,25626,1,0,0:0:0:0:
352,80,25708,1,0,0:0:0:0:
352,80,25790,1,0,0:0:0:0:
256,128,25955,2,0,B|232:168|256:232,1,85,0|8,0:0|0:0,0:0:0:0:
336,272,26285,2,0,B|352:232|336:184,1,85,0|0,0:0|0:0,0:0:0:0:
168,184,26615,5,0,0:0:0:0:
32,288,26779,1,8,0:0:0:0:
120,284,26944,2,0,B|112:236|72:212,1,85,0|0,0:0|0:0,0:0:0:0:
120,104,27274,1,0,0:0:0:0:
136,112,27356,1,0,0:0:0:0:
152,120,27439,2,0,B|216:136|272:80|264:24,1,170,8|0,0:0|0:0,0:0:0:0:
368,88,27933,6,0,B|352:136|368:184,1,85,0|8,0:0|0:0,0:0:0:0:
448,136,28263,1,0,0:0:0:0:
448,136,28345,1,0,0:0:0:0:
448,136,28428,1,0,0:0:0:0:
272,160,28593,2,0,B|272:208|296:248,2,85,0|8|0,0:0|0:0|0:0,0:0:0:0:
176,312,29087,6,0,B|184:264|152:224,1,85,0|0,0:0|0:0,0:0:0:0:
256,248,29417,1,8,0:0:0:0:
96,288,29582,2,0,B|64:248|80:200,1,85,0|0,0:0|0:0,0:0:0:0:
148,36,29911,1,0,0:0:0:0:
164,52,29994,1,0,0:0:0:0:
180,68,30076,2,0,B|220:108|220:188|172:228,1,170,8|0,0:0|0:0,0:0:0:0:
104,136,30571,5,0,0:0:0:0:
296,104,30735,1,8,0:0:0:0:
392,264,30900,1,0,0:0:0:0:
392,264,30983,1,0,0:0:0:0:
392,264,31065,2,0,B|432:232|424:176,1,85,0|0,0:0|0:0,0:0:0:0:
320,72,31395,2,0,B|320:120|352:152,1,85,8|0,0:0|0:0,0:0:0:0:
408,80,31724,5,4,0:0:0:0:
280,248,31889,2,0,B|280:200|232:168,1,85,0|8,0:0|0:0,0:0:0:0:
92,96,32219,1,0,0:0:0:0:
136,208,32384,1,0,0:0:0:0:
192,56,32549,1,0,0:0:0:0:
192,56,32631,1,0,0:0:0:0:
192,56,32713,2,0,P|200:100|192:144,1,85,8|0,0:0|0:0,0:0:0:0:
72,256,33043,6,0,B|48:208|72:160,2,85,0|0|8,0:0|0:0|0:0,0:0:0:0:
176,216,33538,1,0,0:0:0:0:
176,216,33620,1,0,0:0:0:0:
176,216,33702,2,0,B|216:224|264:216,1,85,8|0,0:0|0:0,0:0:0:0:
392,64,34032,2,0,B|348:56|304:64,1,85,8|8,0:0|0:0,0:0:0:0:
309,315,34362,6,0,B|364:292|372:204|334:168,1,170,4|8,0:0|0:0,0:0:0:0:
240,144,34856,1,0,0:0:0:0:
80,224,35021,2,0,B|88:272|123:294,1,85,0|0,0:0|0:0,0:0:0:0:
224,352,35351,2,0,B|264:320|272:272,2,85,8|0|0,0:0|0:0|0:0,0:0:0:0:
184,264,35845,1,0,0:0:0:0:
184,264,35928,1,0,0:0:0:0:
184,264,36010,1,8,0:0:0:0:
352,184,36175,2,0,B|336:224|352:272,1,85,0|0,0:0|0:0,0:0:0:0:
256,232,36505,1,0,0:0:0:0:
432,224,36670,2,0,B|448:176|424:128,1,85,8|0,0:0|0:0,0:0:0:0:
344,56,36999,6,0,B|272:56|272:56|240:80|240:80|176:80,1,170,4|8,0:0|0:0,0:0:0:0:
104,204,37494,2,0,B|80:164|24:156,1,85,0|0,0:0|0:0,0:0:0:0:
32,264,37823,1,0,0:0:0:0:
112,320,37988,2,0,B|176:320|216:256|208:200,1,170,8|0,0:0|0:0,0:0:0:0:
352,112,38483,1,0,0:0:0:0:
352,112,38565,1,0,0:0:0:0:
352,112,38648,1,8,0:0:0:0:
264,128,38812,2,0,B|272:176|328:208,1,85,0|0,0:0|0:0,0:0:0:0:
480,80,39142,1,0,0:0:0:0:
480,192,39307,2,0,B|456:144|392:152,1,85,8|0,0:0|0:0,0:0:0:0:
272,232,39637,6,0,B|296:288|384:288|408:232,1,170,4|8,0:0|0:0,0:0:0:0:
128,288,40131,1,0,0:0:0:0:
200,328,40296,2,0,B|216:272|184:232,1,85
88,72,40626,2,0,B|88:120|128:160,1,85,8|0,0:0|0:0,0:0:0:0:
24,144,40955,1,0,0:0:0:0:
176,80,41120,1,0,0:0:0:0:
176,80,41202,1,0,0:0:0:0:
176,80,41285,2,0,B|220:72|264:80,1,85,8|0,0:0|0:0,0:0:0:0:
384,176,41615,2,0,B|296:176,1,85,0|0,0:0|0:0,0:0:0:0:
296,180,41862,1,0,0:0:0:0:
292,184,41944,2,0,B|204:184,1,85,8|0,0:0|0:0,0:0:0:0:
136,336,42274,6,0,B|112:288|128:248,1,85,0|0,0:0|0:0,0:0:0:0:
24,200,42604,1,8,0:0:0:0:
28,180,42686,1,0,0:0:0:0:
32,160,42768,1,0,0:0:0:0:
192,48,42933,2,0,B|216:92|192:136,1,85,0|0,0:0|0:0,0:0:0:0:
188,148,43180,1,0,0:0:0:0:
180,164,43263,1,8,0:0:0:0:
288,96,43428,1,0,0:0:0:0:
112,96,43593,6,0,B|72:136|88:192,1,85,0|0,0:0|0:0,0:0:0:0:
156,292,43922,1,0,0:0:0:0:
342,348,44087,1,0,0:0:0:0:
353,322,44169,1,0,0:0:0:0:
359,297,44252,1,0,0:0:0:0:
356,272,44334,1,0,0:0:0:0:
348,248,44417,1,0,0:0:0:0:
331,228,44499,1,0,0:0:0:0:
312,208,44582,5,0,0:0:0:0:
188,128,44746,1,0,0:0:0:0:
80,232,44911,1,4,0:0:0:0:
80,232,45241,5,8,0:0:0:0:
56,312,45406,1,0,0:0:0:0:
168,212,45571,1,8,0:0:0:0:
156,292,45735,1,0,0:0:0:0:
256,192,45900,1,8,0:0:0:0:
256,272,46065,1,0,0:0:0:0:
348,160,46230,1,8,0:0:0:0:
364,244,46395,1,0,0:0:0:0:
432,116,46560,1,8,0:0:0:0:
462,193,46724,5,0,0:0:0:0:
472,244,46807,1,0,0:0:0:0:
452,288,46889,1,0,0:0:0:0:
372,348,47054,1,0,0:0:0:0:
268,356,47219,1,0,0:0:0:0:
180,300,47384,1,0,0:0:0:0:
88,240,47549,6,0,B|72:192|88:152,1,85
220,32,47878,2,0,B|236:80|220:128,1,85,8|0,0:0|0:0,0:0:0:0:
188,204,48208,1,0,0:0:0:0:
132,80,48373,1,0,0:0:0:0:
320,88,48538,2,0,P|364:84|420:88,1,85,8|0,0:0|0:0,0:0:0:0:
404,85,48785,1,0,0:0:0:0:
404,85,48867,5,0,0:0:0:0:
444,220,49032,1,0,0:0:0:0:
352,272,49197,2,0,P|347:228|348:184,1,85,8|0,0:0|0:0,0:0:0:0:
404,85,49527,1,0,0:0:0:0:
404,85,49609,1,0,0:0:0:0:
404,88,49691,1,0,0:0:0:0:
144,136,49856,1,8,0:0:0:0:
144,136,49939,1,0,0:0:0:0:
144,136,50021,1,0,0:0:0:0:
136,336,50186,6,0,B|184:336|184:336|232:360,1,85
288,280,50516,2,0,B|208:240|208:240|120:240,2,170,8|0|8,0:0|0:0|0:0,0:0:0:0:
456,224,51340,1,0,0:0:0:0:
368,80,51505,2,0,B|320:80|320:80|272:56,1,85
216,136,51834,2,0,B|296:176|296:176|396:176,2,170,8|0|8,0:0|0:0|0:0,0:0:0:0:
88,120,52658,1,0,0:0:0:0:
160,280,52823,6,0,B|200:256|256:272|272:304,1,127.5,0|0,0:0|0:0,0:0:0:0:
280,324,53153,1,8,0:0:0:0:
400,264,53318,1,0,0:0:0:0:
400,136,53483,1,0,0:0:0:0:
288,56,53647,1,0,0:0:0:0:
264,56,53730,1,0,0:0:0:0:
240,56,53812,6,0,B|152:56,1,85
296,304,54142,1,0,0:0:0:0:
136,200,54307,1,0,0:0:0:0:
136,200,54389,1,0,0:0:0:0:
136,200,54472,1,8,0:0:0:0:
320,112,54636,2,0,B|366:126,2,42.5,0|0|0,0:0|0:0|0:0,0:0:0:0:
168,336,54966,2,0,B|128:320,2,42.5,0|0|8,0:0|0:0|0:0,0:0:0:0:
264,184,55296,1,0,0:0:0:0:
216,256,55461,1,0,0:0:0:0:
384,152,55790,5,8,0:0:0:0:
328,256,55955,1,0,0:0:0:0:
376,144,56120,1,8,0:0:0:0:
248,208,56285,1,0,0:0:0:0:
368,136,56450,1,8,0:0:0:0:
216,120,56615,1,0,0:0:0:0:
360,128,56779,1,8,0:0:0:0:
240,32,56944,1,0,0:0:0:0:
112,136,57109,2,0,B|72:104|80:56,2,85,8|0|0,0:0|0:0|0:0,0:0:0:0:
248,208,57604,2,0,B|272:248|256:296,2,85,0|8|0,0:0|0:0|0:0,0:0:0:0:
136,136,58098,6,0,B|104:200|144:264,1,127.5,0|0,0:0|0:0,0:0:0:0:
196,357,58428,2,0,B|220:324|212:276,1,85,8|0,0:0|0:0,0:0:0:0:
40,232,58757,1,0,0:0:0:0:
136,136,58922,1,0,0:0:0:0:
272,128,59087,1,8,0:0:0:0:
384,216,59252,1,0,0:0:0:0:
384,216,59334,1,0,0:0:0:0:
384,216,59417,2,0,B|384:304,1,85,0|0,0:0|0:0,0:0:0:0:
272,128,59746,2,0,B|272:32,1,85,8|0,0:0|0:0,0:0:0:0:
112,112,60076,5,0,0:0:0:0:
96,132,60158,1,0,0:0:0:0:
85,155,60241,1,0,0:0:0:0:
79,179,60323,1,0,0:0:0:0:
76,204,60406,1,8,0:0:0:0:
82,228,60488,1,0,0:0:0:0:
92,251,60571,1,0,0:0:0:0:
106,271,60653,1,0,0:0:0:0:
124,288,60735,6,0,B|198:323|198:323|266:334|298:284,1,170,4|8,0:0|0:0,0:0:0:0:
248,96,61230,2,0,B|192:128|184:200|224:248,1,170,0|0,0:0|0:0,0:0:0:0:
280,304,61724,2,0,B|217:239,1,85,8|0,0:0|0:0,0:0:0:0:
368,72,62054,5,0,0:0:0:0:
272,168,62219,1,0,0:0:0:0:
280,304,62384,1,8,0:0:0:0:
112,240,62549,1,0,0:0:0:0:
88,232,62631,1,0,0:0:0:0:
64,224,62713,1,0,0:0:0:0:
208,160,62878,2,0,B|208:136|208:136|216:96|216:96|216:64,2,85,0|8|0,0:0|0:0|0:0,0:0:0:0:
224,280,63373,6,0,B|296:312|296:312|360:304|392:256,1,170,4|8,0:0|0:0,0:0:0:0:
320,68,63867,2,0,B|360:100|360:188|312:220,1,170,0|0,0:0|0:0,0:0:0:0:
377,275,64362,2,0,B|312:217,1,85,8|0,0:0|0:0,0:0:0:0:
160,120,64691,6,0,B|108:120|68:88,2,85,8|0|8,0:0|0:0|0:0,0:0:0:0:
280,160,65186,1,0,0:0:0:0:
302,171,65268,1,0,0:0:0:0:
319,189,65351,1,8,0:0:0:0:
329,212,65433,1,0,0:0:0:0:
335,236,65516,1,0,0:0:0:0:
336,261,65598,1,0,0:0:0:0:
331,285,65680,1,8,0:0:0:0:
316,306,65763,1,0,0:0:0:0:
300,325,65845,1,0,0:0:0:0:
279,340,65928,1,0,0:0:0:0:
256,352,66010,1,4,0:0:0:0:
200,120,71285,6,0,B|120:144|66:82,1,127.499996200204,12|0,0:0|0:0,0:0:0:0:
304,288,71944,2,0,B|344:240|344:168,1,127.499996200204,10|0,0:0|0:0,0:0:0:0:
343,169,72439,1,8,0:0:0:0:
120,232,72768,2,0,B|80:176,2,63.749998100102,8|0|0,0:0|0:0|0:0,0:0:0:0:
208,296,73263,2,0,B|256:296|256:296|280:304|280:304|344:304,1,127.499996200204,10|0,0:0|0:0,0:0:0:0:
248,96,73922,6,0,B|192:136|216:216,1,127.499996200204,12|0,0:0|0:0,0:0:0:0:
352,176,74417,2,0,B|280:168,1,63.749998100102,2|8,0:0|0:0,0:0:0:0:
64,136,74746,2,0,B|136:144,1,63.749998100102,0|8,0:0|0:0,0:0:0:0:
104,272,75076,1,0,0:0:0:0:
216,352,75241,2,0,L|200:384,2,31.8750012159348
364,332,75571,2,0,L|396:360,2,31.8750012159348
272,208,75900,5,0,0:0:0:0:
255,188,75983,1,0,0:0:0:0:
242,165,76065,1,0,0:0:0:0:
235,140,76148,1,0,0:0:0:0:
232,114,76230,1,0,0:0:0:0:
232,88,76312,1,0,0:0:0:0:
237,62,76395,1,0,0:0:0:0:
249,39,76477,1,0,0:0:0:0:
268,24,76560,6,0,P|358:26|418:91,1,170
312,264,77054,2,0,B|336:216|304:168,1,85,0|0,0:0|0:0,0:0:0:0:
138,244,77384,2,0,B|125:283|144:328,1,85,0|8,0:0|0:0,0:0:0:0:
182,146,77713,2,0,B|198:101|176:64,1,85
360,212,78043,1,0,0:0:0:0:
360,212,78126,1,0,0:0:0:0:
360,212,78208,2,8,B|345:247|361:295,1,85,8|0,0:0|0:0,0:0:0:0:
440,248,78538,5,0,0:0:0:0:
256,240,78702,1,0,0:0:0:0:
344,72,78867,1,8,0:0:0:0:
176,64,79032,1,0,0:0:0:0:
128,176,79197,6,0,B|160:216|152:256,1,85,4|0,0:0|0:0,0:0:0:0:
64,240,79527,1,8,0:0:0:0:
320,176,79691,2,0,B|300:132|320:80,1,85
216,128,80021,1,0,0:0:0:0:
400,136,80186,2,0,B|416:176|408:224,1,85,8|0,0:0|0:0,0:0:0:0:
504,192,80516,1,0,0:0:0:0:
272,272,80680,1,0,0:0:0:0:
280,248,80763,1,0,0:0:0:0:
288,224,80845,2,0,B|304:184|288:128,1,85,8|0,0:0|0:0,0:0:0:0:
104,184,81175,5,0,0:0:0:0:
132,197,81257,1,0,0:0:0:0:
161,208,81340,1,0,0:0:0:0:
191,216,81422,1,0,0:0:0:0:
223,218,81505,1,8,0:0:0:0:
254,219,81587,1,0,0:0:0:0:
285,219,81669,1,0,0:0:0:0:
316,216,81752,1,0,0:0:0:0:
344,208,81834,6,0,B|384:200|416:144,1,85,4|0,0:0|0:0,0:0:0:0:
312,112,82164,1,8,0:0:0:0:
368,296,82329,2,0,B|425:303|488:248|488:187,1,170,0|0,0:0|0:0,0:0:0:0:
192,96,82823,2,0,B|134:88|72:144|71:204,1,170,8|0,0:0|0:0,0:0:0:0:
152,296,83318,1,0,0:0:0:0:
176,280,83400,1,0,0:0:0:0:
200,264,83483,6,0,B|216:216|200:168,1,85,8|0,0:0|0:0,0:0:0:0:
368,72,83812,2,0,B|352:112|368:160,1,85
272,120,84142,1,8,0:0:0:0:
452,168,84307,1,0,0:0:0:0:
456,200,84389,1,0,0:0:0:0:
452,228,84472,6,0,B|452:276|412:308,1,85,0|0,0:0|0:0,0:0:0:0:
220,184,84801,2,0,B|236:136|276:120,1,85,8|0,0:0|0:0,0:0:0:0:
332,236,85131,2,0,B|324:284|276:308,1,85,8|0,0:0|0:0,0:0:0:0:
88,160,85461,2,0,B|96:120|144:96,1,85,8|0,0:0|0:0,0:0:0:0:
24,48,85790,1,8,0:0:0:0:
196,168,85955,1,0,0:0:0:0:
220,184,86038,1,0,0:0:0:0:
244,200,86120,1,8,0:0:0:0:
332,324,86285,1,0,0:0:0:0:
184,312,86450,5,8,0:0:0:0:
152,300,86532,1,0,0:0:0:0:
124,280,86615,1,0,0:0:0:0:
104,252,86697,1,0,0:0:0:0:
88,224,86779,1,8,0:0:0:0:
80,192,86862,1,8,0:0:0:0:
80,160,86944,1,8,0:0:0:0:
84,128,87027,1,8,0:0:0:0:
100,96,87109,6,0,B|140:88|188:96,1,85,4|0,0:0|0:0,0:0:0:0:
232,200,87439,1,8,0:0:0:0:
424,200,87604,1,0,0:0:0:0:
320,152,87768,2,0,B|336:192|320:240,1,85,0|0,0:0|0:0,0:0:0:0:
144,256,88098,1,8,0:0:0:0:
224,320,88263,2,0,B|240:280|232:232,1,85,0|0,0:0|0:0,0:0:0:0:
136,48,88593,2,0,B|120:88|136:136,1,85,0|8,0:0|0:0,0:0:0:0:
232,72,88922,1,0,0:0:0:0:
48,152,89087,5,0,0:0:0:0:
120,240,89252,1,0,0:0:0:0:
144,256,89334,1,0,0:0:0:0:
168,272,89417,1,8,0:0:0:0:
272,112,89582,1,0,0:0:0:0:
176,160,89746,6,0,B|224:160|248:200,1,85,4|0,0:0|0:0,0:0:0:0:
304,312,90076,1,8,0:0:0:0:
80,228,90241,2,0,B|40:188|51:131,1,85,0|0,0:0|0:0,0:0:0:0:
88,28,90571,1,0,0:0:0:0:
364,112,90735,2,0,B|361:159|326:185,1,85,8|0,0:0|0:0,0:0:0:0:
200,224,91065,1,0,0:0:0:0:
240,80,91230,1,0,0:0:0:0:
240,80,91312,1,0,0:0:0:0:
240,80,91395,1,8,0:0:0:0:
236,304,91560,1,0,0:0:0:0:
80,192,91724,5,0,0:0:0:0:
240,80,91889,1,0,0:0:0:0:
267,72,91972,1,0,0:0:0:0:
294,66,92054,2,0,B|341:46|376:65,1,85,8|0,0:0|0:0,0:0:0:0:
200,172,92384,2,0,B|148:149|123:75|157:27,1,170,4|8,0:0|0:0,0:0:0:0:
376,160,92878,2,0,B|400:210|367:282|308:296,1,170,0|0,0:0|0:0,0:0:0:0:
200,172,93373,1,8,0:0:0:0:
96,292,93538,1,0,0:0:0:0:
96,292,93620,1,0,0:0:0:0:
96,292,93702,6,0,B|103:240|156:215,1,85,0|0,0:0|0:0,0:0:0:0:
264,36,94032,2,0,B|295:75|277:131,1,85,8|0,0:0|0:0,0:0:0:0:
268,376,94362,2,0,B|231:362|215:314,1,85
400,182,94691,2,0,B|424:144|464:128,1,85,8|0,0:0|0:0,0:0:0:0:
328,88,95021,5,4,0:0:0:0:
480,248,95186,2,0,B|464:296|416:312,1,85,0|8,0:0|0:0,0:0:0:0:
328,192,95516,1,0,0:0:0:0:
144,168,95680,2,0,B|123:222|182:290|248:276,1,170,0|8,0:0|0:0,0:0:0:0:
400,112,96175,2,0,B|395:170|312:208|267:174,1,170,0|0,0:0|0:0,0:0:0:0:
80,224,96669,1,8,0:0:0:0:
224,296,96834,1,0,0:0:0:0:
340,188,96999,5,0,0:0:0:0:
368,188,97082,1,0,0:0:0:0:
392,200,97164,1,0,0:0:0:0:
412,220,97246,1,0,0:0:0:0:
428,244,97329,1,0,0:0:0:0:
428,272,97411,1,0,0:0:0:0:
420,300,97494,1,0,0:0:0:0:
404,324,97576,1,0,0:0:0:0:
380,340,97659,1,0,0:0:0:0:
256,192,97741,12,4,99637,0:0:0:0:
352,240,100296,5,4,0:0:0:0:
352,240,100626,2,0,B|280:240,1,63.749998100102,2|0,0:0|0:0,0:0:0:0:
320,332,100955,1,8,0:0:0:0:
232,128,101120,2,0,B|296:128,1,63.7500024318696,0|0,0:0|0:0,0:0:0:0:
256,40,101450,1,2,0:0:0:0:
164,192,101615,6,0,B|100:192,2,63.7500024318696,0|0|0,0:0|0:0|0:0,0:0:0:0:
236,256,102109,1,0,0:0:0:0:
316,204,102274,2,0,B|356:148,1,63.749998100102,10|0,0:0|0:0,0:0:0:0:
464,288,102604,1,0,0:0:0:0:
396,232,102768,1,0,0:0:0:0:
396,232,102933,6,0,B|364:272|376:336,1,95.6250036478044,2|0,0:0|0:0,0:0:0:0:
375,323,103263,2,0,B|307:323,1,63.7500024318696
216,348,103593,1,8,0:0:0:0:
96,220,103757,2,0,B|32:220,2,63.7500024318696,2|0|0,0:0|0:0|0:0,0:0:0:0:
180,264,104252,5,0,0:0:0:0:
352,256,104417,1,0,0:0:0:0:
264,224,104582,2,0,B|264:288,2,63.749998100102,2|0|8,0:0|0:0|0:0,0:0:0:0:
188,164,105076,1,0,0:0:0:0:
188,164,105158,1,0,0:0:0:0:
188,164,105241,1,2,0:0:0:0:
84,44,105406,1,2,0:0:0:0:
176,72,105571,5,4,0:0:0:0:
176,72,105900,2,0,B|240:72,1,63.749998100102,2|0,0:0|0:0,0:0:0:0:
408,128,106230,1,8,0:0:0:0:
404,224,106395,1,2,0:0:0:0:
320,268,106560,1,0,0:0:0:0:
232,232,106724,1,0,0:0:0:0:
136,224,106889,6,0,B|8:224,1,127.499996200204,0|0,0:0|0:0,0:0:0:0:
104,112,107384,1,2,0:0:0:0:
104,112,107466,1,0,0:0:0:0:
104,112,107549,2,0,B|168:112,1,63.749998100102,8|0,0:0|0:0,0:0:0:0:
280,24,107878,2,0,B|216:24,1,63.749998100102,0|0,0:0|0:0,0:0:0:0:
316,136,108208,6,0,B|304:192|356:228,1,95.6250036478044,0|2,0:0|0:0,0:0:0:0:
420,232,108538,2,0,P|418:199|397:166,1,63.7500024318696
316,136,108867,1,8,0:0:0:0:
220,128,109032,1,0,0:0:0:0:
148,192,109197,1,2,0:0:0:0:
152,288,109362,1,0,0:0:0:0:
232,344,109527,6,0,L|289:315,1,63.7500024318696
151,288,109856,2,0,P|135:315|133:347,1,63.7500024318696
344,232,110186,5,8,0:0:0:0:
344,232,110268,1,8,0:0:0:0:
344,232,110351,1,8,0:0:0:0:
344,232,110433,1,8,0:0:0:0:
344,232,110516,1,10,0:0:0:0:
344,232,110598,1,8,0:0:0:0:
344,232,110680,1,8,0:0:0:0:
344,232,110763,1,8,0:0:0:0:
344,232,110845,1,10,0:0:0:0:
112,144,111175,6,0,B|120:192|160:216,1,85,8|0,0:0|0:0,0:0:0:0:
224,320,111505,2,0,B|256:288|264:248,1,85,0|2,0:0|0:0,0:0:0:0:
392,96,111834,2,0,B|368:136|376:184,1,85,8|2,0:0|0:0,0:0:0:0:
120,232,112164,5,0,0:0:0:0:
204,260,112329,1,0,0:0:0:0:
40,196,112494,1,8,0:0:0:0:
112,144,112658,1,0,0:0:0:0:
184,92,112823,5,2,0:0:0:0:
188,180,112988,1,0,0:0:0:0:
104,320,113153,1,8,0:0:0:0:
120,232,113318,1,0,0:0:0:0:
256,288,113483,6,0,B|256:240|288:204|340:192,1,127.5
360,160,113812,2,0,B|352:112|316:84,1,85,8|2,0:0|0:0,0:0:0:0:
92,88,114142,1,0,0:0:0:0:
244,132,114307,1,2,0:0:0:0:
96,184,114472,1,8,0:0:0:0:
184,52,114637,1,0,0:0:0:0:
192,208,114801,5,2,0:0:0:0:
312,272,114966,1,0,0:0:0:0:
312,272,115049,1,0,0:0:0:0:
312,272,115131,2,0,B|400:272,1,85,8|0,0:0|0:0,0:0:0:0:
400,144,115461,1,0,0:0:0:0:
400,144,115543,1,0,0:0:0:0:
400,144,115626,1,2,0:0:0:0:
248,184,115790,2,0,B|160:184,1,85,8|0,0:0|0:0,0:0:0:0:
40,248,116120,6,0,B|95:263|117:306,2,85,0|0|8,0:0|0:0|0:0,0:0:0:0:
32,336,116615,1,2,0:0:0:0:
32,336,116697,1,0,0:0:0:0:
32,336,116779,1,0,0:0:0:0:
120,184,116944,1,2,0:0:0:0:
256,240,117109,1,8,0:0:0:0:
320,96,117274,1,0,0:0:0:0:
432,224,117439,6,0,B|384:224|352:192,1,85
208,184,117768,1,8,0:0:0:0:
344,288,117933,1,2,0:0:0:0:
344,288,118016,1,0,0:0:0:0:
344,288,118098,1,0,0:0:0:0:
395,131,118263,2,0,B|368:96|320:96,1,85,2|8,0:0|0:0,0:0:0:0:
208,184,118593,1,0,0:0:0:0:
145,259,118757,6,0,P|232:272|296:208,1,170,0|8,0:0|0:0,0:0:0:0:
258,27,119252,2,0,B|200:40|176:128|208:176,1,170,2|2,0:0|0:0,0:0:0:0:
264,352,119746,1,8,0:0:0:0:
88,224,119911,1,2,0:0:0:0:
88,224,120076,2,0,B|80:272|104:312,1,85
248,124,120406,2,0,B|204:151|191:189,1,85,10|0,0:0|0:0,0:0:0:0:
358,181,120735,5,0,0:0:0:0:
380,164,120818,1,0,0:0:0:0:
394,141,120900,1,0,0:0:0:0:
401,113,120983,1,0,0:0:0:0:
402,85,121065,1,0,0:0:0:0:
391,59,121148,1,0,0:0:0:0:
373,37,121230,1,0,0:0:0:0:
351,22,121312,1,0,0:0:0:0:
323,15,121395,1,4,0:0:0:0:
320,264,126010,5,0,0:0:0:0:
208,272,126175,1,0,0:0:0:0:
208,272,126257,1,0,0:0:0:0:
208,272,126340,1,8,0:0:0:0:
112,224,126505,1,0,0:0:0:0:
112,224,126669,2,0,B|88:168|88:168|96:128|96:128|72:64,1,170,4|0,0:0|0:0,0:0:0:0:
304,240,127164,1,0,0:0:0:0:
304,240,127329,2,0,B|264:232|208:240|208:240|168:160,1,170,0|0,0:0|0:0,0:0:0:0:
175,174,127823,1,0,0:0:0:0:
400,264,128153,5,0,0:0:0:0:
400,264,128235,1,0,0:0:0:0:
400,264,128318,1,0,0:0:0:0:
208,280,128483,1,0,0:0:0:0:
208,280,128647,2,0,B|248:248|296:256|296:256|336:184,1,170,0|0,0:0|0:0,0:0:0:0:
350,49,129142,1,0,0:0:0:0:
350,49,129307,2,0,B|320:104|320:104|280:120|280:120|248:176,1,170,4|0,0:0|0:0,0:0:0:0:
80,160,129801,2,0,B|32:232,1,85
168,152,130131,1,0,0:0:0:0:
168,152,130296,2,0,B|216:72,1,85,0|0,0:0|0:0,0:0:0:0:
326,178,130626,5,4,0:0:0:0:
326,203,130708,1,0,0:0:0:0:
317,226,130790,1,0,0:0:0:0:
300,244,130873,1,0,0:0:0:0:
279,258,130955,1,8,0:0:0:0:
253,262,131038,1,0,0:0:0:0:
229,256,131120,1,0,0:0:0:0:
207,242,131202,1,0,0:0:0:0:
192,217,131285,5,8,0:0:0:0:
187,191,131367,1,8,0:0:0:0:
192,165,131450,1,8,0:0:0:0:
206,143,131532,1,8,0:0:0:0:
227,128,131615,1,8,0:0:0:0:
251,120,131697,1,8,0:0:0:0:
277,123,131779,1,8,0:0:0:0:
298,136,131862,1,8,0:0:0:0:
316,156,131944,1,4,0:0:0:0:
256,192,132027,12,4,133922,0:0:0:0:
112,136,134582,5,4,0:0:0:0:
208,136,134746,1,0,0:0:0:0:
272,208,134911,1,8,0:0:0:0:
344,104,135076,5,0,0:0:0:0:
272,208,135241,1,0,0:0:0:0:
280,328,135406,1,0,0:0:0:0:
352,192,135571,6,0,B|320:136,1,63.749998100102,4|4,0:0|0:0,0:0:0:0:
160,136,135900,1,0,0:0:0:0:
112,280,136065,5,0,0:0:0:0:
128,288,136147,1,0,0:0:0:0:
144,296,136230,2,0,B|208:328,1,63.749998100102,8|0,0:0|0:0,0:0:0:0:
312,216,136560,2,0,B|248:240,1,63.749998100102,0|0,0:0|0:0,0:0:0:0:
408,256,136889,2,0,B|464:224,1,63.749998100102,8|8,0:0|0:0,0:0:0:0:
112,88,137219,5,12,0:0:0:0:
192,100,137384,1,0,0:0:0:0:
208,176,137549,1,0,0:0:0:0:
280,108,137713,5,4,0:0:0:0:
208,176,137878,1,0,0:0:0:0:
112,184,138043,1,0,0:0:0:0:
112,88,138208,5,0,0:0:0:0:
208,176,138373,1,0,0:0:0:0:
224,296,138538,1,4,0:0:0:0:
48,192,138702,5,0,0:0:0:0:
48,192,138785,1,0,0:0:0:0:
48,192,138867,1,0,0:0:0:0:
168,96,139032,2,0,B|168:160,2,63.749998100102
296,256,139527,1,0,0:0:0:0:
296,256,139691,1,0,0:0:0:0:
120,240,139856,6,0,B|120:304,1,63.749998100102,12|0,0:0|0:0,0:0:0:0:
32,272,140186,1,0,0:0:0:0:
192,192,140351,2,0,B|192:128,1,63.749998100102,4|0,0:0|0:0,0:0:0:0:
272,160,140680,1,0,0:0:0:0:
440,200,140845,6,0,B|440:136,1,63.749998100102,4|0,0:0|0:0,0:0:0:0:
512,240,141175,1,0,0:0:0:0:
352,176,141340,2,0,B|352:240,1,63.749998100102,4|0,0:0|0:0,0:0:0:0:
352,88,141669,1,0,0:0:0:0:
256,184,141834,5,4,0:0:0:0:
168,184,141999,1,0,0:0:0:0:
168,184,142082,1,0,0:0:0:0:
168,184,142164,2,0,B|104:184,1,63.749998100102,0|0,0:0|0:0,0:0:0:0:
136,272,142494,1,4,0:0:0:0:
344,256,152713,5,10,0:0:0:0:
80,144,153043,2,0,B|112:208|192:192,1,127.499996200204,4|0,0:0|0:0,0:0:0:0:
264,304,153538,2,2,B|304:240|264:184,1,127.499996200204,0|2,0:0|0:0,0:0:0:0:
192,240,154032,1,0,0:0:0:0:
376,200,154197,1,10,0:0:0:0:
328,120,154362,5,0,0:0:0:0:
416,88,154527,1,0,0:0:0:0:
416,88,154691,2,0,B|416:152,1,63.7500024318696
280,208,155021,1,8,0:0:0:0:
208,104,155186,1,8,0:0:0:0:
104,144,155351,5,10,0:0:0:0:
88,248,155516,1,0,0:0:0:0:
88,248,155680,2,0,B|160:256|200:184,1,127.499996200204,12|0,0:0|0:0,0:0:0:0:
288,96,156175,2,0,B|264:160|296:224,1,127.499996200204,2|8,0:0|0:0,0:0:0:0:
360,152,156669,1,0,0:0:0:0:
96,192,156834,2,0,B|112:240|112:240|136:248|136:248|152:304,1,127.499996200204,10|0,0:0|0:0,0:0:0:0:
272,336,157329,2,0,B|272:264,1,63.749998100102,10|0,0:0|0:0,0:0:0:0:
412,200,157658,5,10,0:0:0:0:
360,152,157823,1,8,0:0:0:0:
292,136,157988,1,0,0:0:0:0:
224,152,158153,2,0,B|192:216|224:280,1,127.499996200204,12|0,0:0|0:0,0:0:0:0:
304,212,158647,1,0,0:0:0:0:
116,312,158812,1,0,0:0:0:0:
56,276,158977,5,2,0:0:0:0:
24,212,159142,1,0,0:0:0:0:
36,144,159307,1,0,0:0:0:0:
96,112,159472,2,0,P|156:100|208:52,1,127.500004863739,12|0,0:0|0:0,0:0:0:0:
308,88,159966,1,0,0:0:0:0:
384,152,160131,1,2,0:0:0:0:
296,208,160296,6,0,B|296:272,2,63.749998100102,2|0|8,0:0|0:0|0:0,0:0:0:0:
200,224,160790,2,0,B|208:152|136:120,1,127.499996200204,2|0,0:0|0:0,0:0:0:0:
272,104,161285,1,8,0:0:0:0:
112,208,161450,2,0,B|72:264|96:328,1,127.499996200204,2|0,0:0|0:0,0:0:0:0:
176,272,161944,1,0,0:0:0:0:
256,192,162109,5,8,0:0:0:0:
256,192,162191,1,8,0:0:0:0:
256,192,162274,2,0,B|256:256,1,63.749998100102,2|0,0:0|0:0,0:0:0:0:
368,128,162604,2,0,B|368:64,1,63.749998100102
456,96,162933,5,0,0:0:0:0:
460,124,163016,1,0,0:0:0:0:
456,152,163098,1,0,0:0:0:0:
448,176,163180,1,0,0:0:0:0:
432,200,163263,1,0,0:0:0:0:
412,216,163345,1,0,0:0:0:0:
388,224,163428,1,0,0:0:0:0:
364,228,163510,1,0,0:0:0:0:
336,228,163593,6,0,B|284:224|256:188,1,85
132,56,163922,1,8,0:0:0:0:
136,208,164087,1,2,0:0:0:0:
272,104,164252,1,0,0:0:0:0:
376,80,164417,1,0,0:0:0:0:
376,80,164499,1,0,0:0:0:0:
376,80,164582,1,10,0:0:0:0:
416,176,164746,6,0,B|328:176,1,85,0|0,0:0|0:0,0:0:0:0:
248,176,165076,1,0,0:0:0:0:
464,320,165241,1,8,0:0:0:0:
464,320,165406,2,0,B|456:272|408:264|408:264|320:264,1,170,2|0,0:0|0:0,0:0:0:0:
248,352,165900,2,0,B|336:352,1,85,8|0,0:0|0:0,0:0:0:0:
184,240,166230,6,0,B|240:240|264:176,2,85,2|0|8,0:0|0:0|0:0,0:0:0:0:
48,72,166724,2,0,B|48:128|112:176|176:160,1,170,2|0,0:0|0:0,0:0:0:0:
152,64,167219,1,8,0:0:0:0:
24,240,167384,2,0,B|80:224|152:280|143:344,1,170,2|0,0:0|0:0,0:0:0:0:
42,338,167878,1,8,0:0:0:0:
156,170,168043,1,0,0:0:0:0:
328,200,168208,2,0,B|392:256,2,85,2|0|8,0:0|0:0|0:0,0:0:0:0:
256,136,168702,1,0,0:0:0:0:
192,80,168867,5,4,0:0:0:0:
80,212,169032,1,0,0:0:0:0:
80,212,169197,2,0,B|168:212,1,85,8|0,0:0|0:0,0:0:0:0:
240,272,169527,1,2,0:0:0:0:
344,136,169691,1,0,0:0:0:0:
344,136,169856,2,0,B|432:136,1,85,8|0,0:0|0:0,0:0:0:0:
440,240,170186,5,2,0:0:0:0:
352,336,170351,1,0,0:0:0:0:
280,232,170516,1,8,0:0:0:0:
224,120,170680,1,0,0:0:0:0:
224,120,170845,2,0,B|256:32,2,85,2|0|8,0:0|0:0|0:0,0:0:0:0:
152,264,171340,1,0,0:0:0:0:
136,176,171505,2,0,B|184:176|224:208,1,85,2|0,0:0|0:0,0:0:0:0:
304,80,171834,6,0,B|368:103,3,42.5
368,112,172164,1,0,0:0:0:0:
382,132,172246,1,0,0:0:0:0:
386,157,172329,1,0,0:0:0:0:
384,182,172411,1,0,0:0:0:0:
369,203,172494,5,0,0:0:0:0:
353,223,172576,1,0,0:0:0:0:
332,238,172659,1,0,0:0:0:0:
310,250,172741,1,0,0:0:0:0:
285,257,172823,1,0,0:0:0:0:
259,261,172906,1,0,0:0:0:0:
233,258,172988,1,0,0:0:0:0:
210,246,173071,1,0,0:0:0:0:
188,233,173153,5,0,0:0:0:0:
174,211,173235,1,0,0:0:0:0:
173,185,173318,1,0,0:0:0:0:
185,162,173400,1,0,0:0:0:0:
205,146,173483,1,0,0:0:0:0:
229,141,173565,1,0,0:0:0:0:
253,149,173648,1,0,0:0:0:0:
272,165,173730,1,0,0:0:0:0:
284,186,173812,5,0,0:0:0:0:
281,211,173895,1,0,0:0:0:0:
276,235,173977,1,0,0:0:0:0:
259,261,174060,1,0,0:0:0:0:
241,279,174142,1,4,0:0:0:0:
236,212,176120,5,12,0:0:0:0:
152,140,176285,1,8,0:0:0:0:
44,196,176450,1,0,0:0:0:0:
52,296,176615,1,0,0:0:0:0:
148,260,176779,6,0,B|188:204|148:132,1,127.499996200204,12|0,0:0|0:0,0:0:0:0:
320,80,177274,1,0,0:0:0:0:
208,72,177439,1,0,0:0:0:0:
256,136,177604,1,2,0:0:0:0:
320,192,177768,1,0,0:0:0:0:
320,192,177933,2,0,B|344:256|320:320,1,127.499996200204,2|0,0:0|0:0,0:0:0:0:
408,248,178757,5,8,0:0:0:0:
248,248,178922,1,0,0:0:0:0:
248,248,179005,1,8,0:0:0:0:
248,248,179087,2,0,B|184:224,1,63.749998100102,0|8,0:0|0:0,0:0:0:0:
72,112,179417,6,0,B|96:72|160:64|200:112,1,127.499996200204,12|0,0:0|0:0,0:0:0:0:
152,228,179911,1,0,0:0:0:0:
124,320,180076,1,0,0:0:0:0:
56,248,180241,1,2,0:0:0:0:
216,336,180406,1,0,0:0:0:0:
248,248,180571,1,10,0:0:0:0:
248,248,180653,1,8,0:0:0:0:
248,248,180735,2,0,B|304:216,1,63.749998100102,8|0,0:0|0:0,0:0:0:0:
384,152,181065,1,2,0:0:0:0:
128,144,181395,5,0,0:0:0:0:
147,127,181477,1,0,0:0:0:0:
169,115,181560,1,0,0:0:0:0:
193,106,181642,1,0,0:0:0:0:
218,102,181724,1,0,0:0:0:0:
243,102,181807,1,0,0:0:0:0:
268,103,181889,1,0,0:0:0:0:
291,114,181972,1,0,0:0:0:0:
313,125,182054,37,4,0:0:0:0:
324,132,182713,1,0,0:0:0:0:
272,240,183208,5,0,0:0:0:0:
272,240,183290,1,0,0:0:0:0:
272,240,183373,1,0,0:0:0:0:
176,340,183702,5,0,0:0:0:0:
112,200,184032,1,0,0:0:0:0:
272,240,184362,1,0,0:0:0:0:
112,200,184691,6,0,B|112:248|96:288,2,85,4|0|8,0:0|0:0|0:0,0:0:0:0:
24,224,185186,1,0,0:0:0:0:
192,216,185351,2,0,B|208:168|192:128,1,85,8|0,0:0|0:0,0:0:0:0:
336,72,185680,2,0,B|320:120|336:160,1,85,8|0,0:0|0:0,0:0:0:0:
424,112,186010,5,8,0:0:0:0:
152,120,186175,1,0,0:0:0:0:
132,144,186257,1,0,0:0:0:0:
121,176,186340,1,8,0:0:0:0:
118,209,186422,1,0,0:0:0:0:
127,240,186505,1,0,0:0:0:0:
144,267,186587,1,0,0:0:0:0:
172,287,186670,1,8,0:0:0:0:
284,228,186834,2,0,L|308:156,1,63.7500024318696,8|0,0:0|0:0,0:0:0:0:
304,168,187329,6,0,B|360:152|432:208|424:264,1,170,4|8,0:0|0:0,0:0:0:0:
328,256,187823,1,0,0:0:0:0:
432,96,187988,2,0,B|400:64|352:64,1,85,0|0,0:0|0:0,0:0:0:0:
192,104,188318,1,8,0:0:0:0:
96,296,188483,6,0,B|120:256|104:208,1,85,0|0,0:0|0:0,0:0:0:0:
96,192,188730,1,0,0:0:0:0:
88,176,188812,1,0,0:0:0:0:
16,248,188977,1,8,0:0:0:0:
272,304,189142,1,0,0:0:0:0:
200,240,189307,2,0,B|176:192|200:152,1,85,0|0,0:0|0:0,0:0:0:0:
36,136,189636,2,0,B|52:176|100:192,1,85,8|0,0:0|0:0,0:0:0:0:
160,64,189966,5,4,0:0:0:0:
256,192,190131,2,0,B|248:240|208:272,1,85,0|8,0:0|0:0,0:0:0:0:
352,168,190461,2,0,B|360:120|392:96,1,85,0|0,0:0|0:0,0:0:0:0:
280,104,190790,1,0,0:0:0:0:
280,104,190873,1,0,0:0:0:0:
280,104,190955,1,8,0:0:0:0:
456,184,191120,6,0,B|472:232|456:272,1,85,0|0,0:0|0:0,0:0:0:0:
224,204,191450,2,0,B|208:156|240:116,2,85,0|8|0,0:0|0:0|0:0,0:0:0:0:
348,248,191944,5,0,0:0:0:0:
356,277,192027,1,0,0:0:0:0:
350,308,192109,1,0,0:0:0:0:
333,334,192191,1,0,0:0:0:0:
305,348,192274,1,0,0:0:0:0:
274,354,192356,1,0,0:0:0:0:
242,347,192439,1,0,0:0:0:0:
218,330,192521,1,0,0:0:0:0:
198,305,192604,6,0,B|176:269|128:251,1,85,4|0,0:0|0:0,0:0:0:0:
264,80,192933,1,8,0:0:0:0:
168,96,193098,2,0,B|176:136|216:168,1,85,0|0,0:0|0:0,0:0:0:0:
232,184,193345,1,0,0:0:0:0:
248,200,193428,1,0,0:0:0:0:
248,324,193593,5,0,0:0:0:0:
120,224,193757,1,8,0:0:0:0:
344,208,193922,2,0,B|392:200|432:240,1,85,8|0,0:0|0:0,0:0:0:0:
200,192,194252,2,0,B|152:200|112:160,1,85,8|0,0:0|0:0,0:0:0:0:
224,72,194582,2,0,B|272:64|312:96,1,85,0|0,0:0|0:0,0:0:0:0:
256,336,194911,2,0,B|216:344|176:312,1,85,8|0,0:0|0:0,0:0:0:0:
152,88,195241,5,0,0:0:0:0:
256,256,195406,1,0,0:0:0:0:
256,256,195488,1,0,0:0:0:0:
256,256,195571,1,8,0:0:0:0:
396,110,195735,1,0,0:0:0:0:
400,236,195900,6,0,P|384:292|352:324,1,85
120,144,196230,1,8,0:0:0:0:
208,52,196395,2,0,B|254:54|277:95,1,85,0|8,0:0|0:0,0:0:0:0:
184,332,196724,1,0,0:0:0:0:
151,320,196807,1,0,0:0:0:0:
127,300,196889,1,12,0:0:0:0:
192,144,197053,5,8,0:0:0:0:
220,128,197136,1,0,0:0:0:0:
252,120,197218,1,8,0:0:0:0:
284,124,197301,1,0,0:0:0:0:
316,136,197383,1,8,0:0:0:0:
344,152,197465,1,0,0:0:0:0:
372,168,197548,1,8,0:0:0:0:
400,180,197630,1,8,0:0:0:0:
432,180,197713,1,8,0:0:0:0:
464,172,197795,1,8,0:0:0:0:
488,152,197878,1,0,0:0:0:0:
256,192,197961,12,0,199856,0:0:0:0:
240,152,200516,6,0,B|224:184|240:240,1,85,4|0,0:0|0:0,0:0:0:0:
320,192,200845,1,8,0:0:0:0:
136,176,201010,1,0,0:0:0:0:
136,176,201093,1,0,0:0:0:0:
136,176,201175,2,0,B|160:128|136:80,1,85,0|0,0:0|0:0,0:0:0:0:
56,280,201505,2,0,B|63:321|111:353,1,85,8|0,0:0|0:0,0:0:0:0:
224,192,201834,2,0,B|184:216|176:264,1,85
384,272,202164,2,0,B|336:256|296:280,1,85
352,152,202494,5,8,0:0:0:0:
329,124,202576,1,0,0:0:0:0:
303,104,202659,1,8,0:0:0:0:
269,92,202741,1,0,0:0:0:0:
235,88,202823,1,8,0:0:0:0:
202,99,202906,1,8,0:0:0:0:
176,120,202988,1,8,0:0:0:0:
154,148,203071,1,8,0:0:0:0:
140,180,203153,1,0,0:0:0:0:
256,192,203235,12,4,208428,0:0:0:0:
